osu file format v14

[General]
AudioFilename: audio.ogg
AudioLeadIn: 0
PreviewTime: 66059
Countdown: 0
SampleSet: Soft
StackLeniency: 0.7
Mode: 3
LetterboxInBreaks: 0
SpecialStyle: 0
WidescreenStoryboard: 1

[Editor]
DistanceSpacing: 1.2
BeatDivisor: 4
GridSize: 4
TimelineZoom: 2.3

[Metadata]
Title:Shukufuku no Shikisai wa Omoi Musubu Kimitachi made
TitleUnicode:祝福の色彩は想い結ぶ君たち迄
Artist:Yu-dachi
ArtistUnicode:Yu-dachi
Creator:ML-ysg
Version:MAXIMUM
Source:SOUND VOLTEX IV HEAVENLY HAVEN
Tags:lovely_hyahya instrumental electronic video game bemani sdvx The 8th KAC KONAMI Arcade Championship オリジナル楽曲コンテスト 優秀賞 Original Song Contest Prize Award Kougei Ciel Nana 虹霓 シエル 奈奈 こうげい しえる なな
BeatmapID:4268617
BeatmapSetID:2045075

[Difficulty]
HPDrainRate:8.2
CircleSize:4
OverallDifficulty:8
ApproachRate:5
SliderMultiplier:1.4
SliderTickRate:1

[Events]
//Background and Video events
0,0,"sfkk.jpg",0,0
//Break Periods
//Storyboard Layer 0 (Background)
//Storyboard Layer 1 (Fail)
//Storyboard Layer 2 (Pass)
//Storyboard Layer 3 (Foreground)
//Storyboard Layer 4 (Overlay)
//Storyboard Sound Samples
Sample,19910,0,"Short-finish.wav",50
Sample,79974,0,"Special Snare.wav",25
Sample,80101,0,"Special Snare.wav",25
Sample,80229,0,"Special Snare.wav",25
Sample,80357,0,"Special Snare.wav",25

[TimingPoints]
1017,255.31914893617,4,2,1,50,1,0
14293,-100,4,2,1,50,0,1
22464,255.31914893617,3,2,1,50,1,0
28591,-100,3,2,1,50,0,1
34719,255.31914893617,5,2,1,50,1,1
43655,-100,5,2,1,50,0,0
44931,255.31914893617,4,2,1,50,1,0
59228,-100,5,2,1,50,0,1
65356,-100,6,2,1,50,0,0
66123,255.31914893617,4,2,1,50,1,0
66123,-100,4,2,1,50,0,1
80420,-100,4,2,1,50,0,0
80931,260.869565217391,4,2,1,50,1,0
80931,-98.0392156862745,4,2,1,50,0,0
81452,285.714285714286,4,2,1,50,1,0
81452,-89.2857142857143,4,2,1,50,0,0
82023,363.636363636364,4,2,1,50,1,0
82023,-70.2247191011236,4,2,1,50,0,0
82750,500,3,2,1,50,1,0
82750,-51.0204081632653,3,2,1,50,0,0
94750,631.578947368421,4,2,1,50,1,0
94750,-40.4858299595142,4,2,1,50,0,0
96013,333.333333333333,3,2,1,50,1,0
96013,-76.9230769230769,3,2,1,50,0,0
97013,300,4,2,1,50,1,0
97013,-85.1063829787234,4,2,1,50,0,0
98213,260.869565217391,5,2,1,50,1,0
98213,-98.0392156862745,5,2,1,50,0,0
99517,255.31914893617,3,2,1,50,1,0
99517,-100,3,2,1,50,0,0
101048,255.31914893617,4,2,1,50,1,0
105133,-100,4,2,1,50,0,1
108707,-100,4,2,1,50,0,0
109218,255.31914893617,5,2,1,50,1,1
114324,461.538461538462,5,2,1,50,1,0
114324,-55.2486187845304,5,2,1,50,0,0
114785,255.31914893617,7,2,1,50,1,0
116572,255.31914893617,4,2,1,50,1,0

[HitObjects]
64,192,1208,5,0,0:0:0:0:
320,192,1272,128,0,1814:0:0:0:0:
192,192,1814,128,0,2612:0:0:0:0:
448,192,2612,1,0,0:0:0:0:
64,192,2676,128,0,3219:0:0:0:0:
320,192,3219,128,0,4080:0:0:0:0:
448,192,4080,128,0,6123:0:0:0:0:
64,192,5102,128,0,6123:0:0:0:0:
192,192,6123,1,0,0:0:0:0:
320,192,6123,1,0,0:0:0:0:
448,192,6251,1,0,0:0:0:0:
64,192,6378,1,0,0:0:0:0:
320,192,6378,1,0,0:0:0:0:
192,192,6506,1,0,0:0:0:0:
64,192,6634,1,0,0:0:0:0:
448,192,6634,1,0,0:0:0:0:
320,192,6761,1,0,0:0:0:0:
192,192,6889,1,0,0:0:0:0:
448,192,6889,1,0,0:0:0:0:
64,192,7016,1,0,0:0:0:0:
320,192,7144,1,0,0:0:0:0:
192,192,7272,1,0,0:0:0:0:
64,192,7399,1,0,0:0:0:0:
448,192,7399,1,0,0:0:0:0:
320,192,7527,1,0,0:0:0:0:
64,192,7655,1,0,0:0:0:0:
192,192,7655,1,0,0:0:0:0:
320,192,7782,1,0,0:0:0:0:
192,192,7910,1,0,0:0:0:0:
448,192,7910,1,0,0:0:0:0:
320,192,8038,1,0,0:0:0:0:
64,192,8165,1,0,0:0:0:0:
192,192,8165,1,0,0:0:0:0:
448,192,8229,1,0,0:0:0:0:
320,192,8293,1,0,0:0:0:0:
192,192,8357,1,0,0:0:0:0:
64,192,8421,1,0,0:0:0:0:
320,192,8548,1,0,0:0:0:0:
448,192,8548,1,0,0:0:0:0:
64,192,8612,1,0,0:0:0:0:
192,192,8676,1,0,0:0:0:0:
320,192,8740,1,0,0:0:0:0:
448,192,8804,1,0,0:0:0:0:
64,192,8931,1,0,0:0:0:0:
192,192,8931,1,0,0:0:0:0:
448,192,8995,1,0,0:0:0:0:
320,192,9059,1,0,0:0:0:0:
192,192,9123,1,0,0:0:0:0:
64,192,9187,1,0,0:0:0:0:
448,192,9314,1,2,0:0:0:0:
320,192,9357,1,2,0:0:0:0:
192,192,9399,1,2,0:0:0:0:
64,192,9442,1,2,0:0:0:0:
64,192,9570,1,2,0:0:0:0:
192,192,9612,1,2,0:0:0:0:
320,192,9655,1,2,0:0:0:0:
448,192,9697,1,2,0:0:0:0:
448,192,9825,1,2,0:0:0:0:
320,192,9868,1,2,0:0:0:0:
192,192,9910,1,2,0:0:0:0:
64,192,9953,1,2,0:0:0:0:
320,192,10080,1,2,0:0:0:0:
448,192,10080,1,0,0:0:0:0:
64,192,10208,1,2,0:0:0:0:
192,192,10208,128,0,10336:0:0:0:50:Short-finish.wav
448,192,10208,1,0,0:0:0:0:
320,192,10336,128,0,10463:0:0:0:0:
64,192,10463,1,0,0:0:0:50:Snare.wav
192,192,10463,1,0,0:0:0:0:
448,192,10463,1,0,0:0:0:0:
64,192,10591,1,2,0:0:0:0:
320,192,10591,128,0,10719:0:0:0:50:Short-finish.wav
448,192,10591,1,0,0:0:0:0:
192,192,10719,128,0,10846:0:0:0:0:
64,192,10846,1,0,0:0:0:50:Snare.wav
320,192,10846,1,0,0:0:0:0:
448,192,10846,1,0,0:0:0:0:
64,192,10974,128,2,11102:0:0:0:0:
192,192,10974,1,0,0:0:0:50:Short-finish.wav
320,192,10974,1,0,0:0:0:0:
448,192,11102,128,0,11229:0:0:0:0:
64,192,11229,1,0,0:0:0:50:Snare.wav
192,192,11229,1,0,0:0:0:0:
320,192,11229,1,0,0:0:0:0:
192,192,11357,1,2,0:0:0:0:
320,192,11357,1,0,0:0:0:50:Short-finish.wav
448,192,11357,128,0,11485:0:0:0:0:
64,192,11485,128,0,11612:0:0:0:0:
192,192,11612,1,0,0:0:0:50:Snare.wav
320,192,11612,1,0,0:0:0:0:
448,192,11612,1,0,0:0:0:0:
64,192,11740,1,2,0:0:0:0:
192,192,11740,1,0,0:0:0:50:Short-finish.wav
448,192,11740,1,0,0:0:0:0:
320,192,11868,1,0,0:0:0:0:
64,192,11995,1,2,0:0:0:0:
448,192,11995,1,0,0:0:0:50:Short-finish.wav
320,192,12123,1,2,0:0:0:0:
448,192,12123,1,0,0:0:0:0:
64,192,12187,1,2,0:0:0:0:
192,192,12187,1,0,0:0:0:0:
320,192,12251,128,0,12421:0:0:0:0:
64,192,12421,1,0,0:0:0:0:
448,192,12506,128,0,12676:0:0:0:0:
320,192,12676,1,0,0:0:0:0:
64,192,12761,128,0,12931:0:0:0:0:
448,192,12931,1,0,0:0:0:0:
192,192,13016,128,0,13187:0:0:0:0:
320,192,13187,1,0,0:0:0:0:
64,192,13272,128,2,13357:0:0:0:0:
448,192,13272,1,0,0:0:0:0:
192,192,13357,128,0,13442:0:0:0:0:
320,192,13442,1,2,0:0:0:0:
448,192,13442,128,0,13527:0:0:0:0:
64,192,13527,1,2,0:0:0:0:
192,192,13527,128,0,13612:0:0:0:0:
320,192,13612,128,0,13697:0:0:0:0:
64,192,13697,1,2,0:0:0:0:
448,192,13697,128,0,13782:0:0:0:0:
192,192,13782,128,2,13868:0:0:0:0:
320,192,13782,1,0,0:0:0:0:
448,192,13868,128,0,13953:0:0:0:0:
64,192,13953,1,2,0:0:0:0:
192,192,13953,128,0,14038:0:0:0:0:
320,192,14038,128,2,14123:0:0:0:0:
448,192,14038,1,0,0:0:0:0:
64,192,14123,128,0,14208:0:0:0:0:
192,192,14208,128,0,14293:0:0:0:0:
64,192,14293,1,2,0:0:0:0:
320,192,14293,128,4,14463:0:0:0:0:
448,192,14293,1,0,0:0:0:0:
192,192,14463,1,0,0:0:0:0:
64,192,14548,1,2,0:0:0:0:
320,192,14548,1,8,0:0:0:0:
448,192,14548,1,0,0:0:0:0:
192,192,14634,1,0,0:0:0:0:
320,192,14719,1,0,0:0:0:0:
64,192,14804,1,2,0:0:0:0:
448,192,14804,1,0,0:0:0:0:
192,192,14889,1,0,0:0:0:0:
320,192,14974,1,0,0:0:0:0:
64,192,15059,1,2,0:0:0:0:
192,192,15059,1,8,0:0:0:0:
448,192,15059,1,0,0:0:0:0:
320,192,15144,1,0,0:0:0:0:
192,192,15187,1,0,0:0:0:0:
64,192,15229,1,0,0:0:0:0:
320,192,15314,1,2,0:0:0:0:
448,192,15314,1,0,0:0:0:0:
192,192,15399,1,0,0:0:0:0:
320,192,15485,1,0,0:0:0:0:
64,192,15570,1,2,0:0:0:0:
192,192,15570,1,8,0:0:0:0:
448,192,15570,1,0,0:0:0:0:
320,192,15655,1,0,0:0:0:0:
64,192,15740,1,0,0:0:0:0:
192,192,15825,1,2,0:0:0:0:
448,192,15825,1,0,0:0:0:0:
320,192,15910,1,0,0:0:0:0:
192,192,15995,1,0,0:0:0:0:
64,192,16080,1,8,0:0:0:0:
320,192,16080,1,2,0:0:0:0:
448,192,16080,1,0,0:0:0:0:
192,192,16165,1,2,0:0:0:0:
320,192,16251,1,2,0:0:0:0:
448,192,16251,1,0,0:0:0:0:
64,192,16336,1,2,0:0:0:0:
192,192,16336,1,0,0:0:0:0:
448,192,16421,1,0,0:0:0:0:
320,192,16506,1,0,0:0:0:0:
64,192,16591,1,2,0:0:0:0:
192,192,16591,1,8,0:0:0:0:
448,192,16591,1,0,0:0:0:0:
320,192,16676,1,0,0:0:0:0:
64,192,16761,1,0,0:0:0:0:
192,192,16846,1,2,0:0:0:0:
448,192,16846,1,0,0:0:0:0:
320,192,16931,1,0,0:0:0:0:
192,192,17016,1,0,0:0:0:0:
64,192,17102,1,2,0:0:0:0:
320,192,17102,1,8,0:0:0:0:
448,192,17102,1,0,0:0:0:0:
192,192,17187,1,0,0:0:0:0:
320,192,17229,1,0,0:0:0:0:
448,192,17272,1,0,0:0:0:0:
64,192,17357,1,2,0:0:0:0:
192,192,17357,1,0,0:0:0:0:
320,192,17442,1,0,0:0:0:0:
192,192,17527,1,0,0:0:0:0:
64,192,17612,1,8,0:0:0:0:
320,192,17612,1,2,0:0:0:0:
448,192,17612,1,0,0:0:0:0:
192,192,17697,1,0,0:0:0:0:
448,192,17782,1,0,0:0:0:0:
320,192,17868,1,2,0:0:0:0:
192,192,17910,1,2,0:0:0:0:
64,192,17953,1,2,0:0:0:0:
320,192,18038,1,2,0:0:0:0:
448,192,18038,1,0,0:0:0:0:
64,192,18123,1,8,0:0:0:0:
192,192,18123,1,2,0:0:0:0:
320,192,18208,1,2,0:0:0:0:
448,192,18208,1,0,0:0:0:0:
192,192,18293,1,2,0:0:0:0:
64,192,18378,128,2,18548:0:0:0:0:
320,192,18378,1,0,0:0:0:50:Short-finish.wav
448,192,18378,1,0,0:0:0:0:
320,192,18548,1,0,0:0:0:0:
64,192,18634,1,8,0:0:0:0:
192,192,18634,1,2,0:0:0:0:
448,192,18634,128,0,18804:0:0:0:50:Short-finish.wav
192,192,18804,1,0,0:0:0:0:
64,192,18889,1,2,0:0:0:0:
320,192,18889,1,0,0:0:0:50:Short-finish.wav
448,192,18889,1,0,0:0:0:0:
64,192,19059,1,10,0:0:0:0:
192,192,19059,1,0,0:0:0:50:Short-finish.wav
320,192,19144,1,10,0:0:0:0:
448,192,19144,1,0,0:0:0:50:Short-finish.wav
64,192,19229,1,2,0:0:0:0:
192,192,19229,1,0,0:0:0:0:
320,192,19314,1,2,0:0:0:0:
64,192,19399,1,2,0:0:0:0:
192,192,19399,1,0,0:0:0:50:Short-finish.wav
448,192,19399,1,0,0:0:0:0:
320,192,19485,1,0,0:0:0:0:
192,192,19570,1,2,0:0:0:0:
448,192,19570,1,0,0:0:0:50:Short-finish.wav
64,192,19655,1,0,0:0:0:0:
320,192,19740,1,2,0:0:0:0:
448,192,19740,1,0,0:0:0:50:Short-finish.wav
192,192,19825,1,0,0:0:0:0:
448,192,19910,1,8,0:0:0:0:
320,192,19953,1,8,0:0:0:0:
64,192,19995,1,2,0:0:0:0:
192,192,19995,1,0,0:0:0:0:
320,192,20080,1,2,0:0:0:0:
448,192,20080,1,0,0:0:0:50:Short-finish.wav
64,192,20165,1,2,0:0:0:0:
192,192,20165,1,0,0:0:0:0:
320,192,20251,1,2,0:0:0:0:
448,192,20251,1,0,0:0:0:50:Short-finish.wav
192,192,20336,1,2,0:0:0:0:
64,192,20421,1,2,0:0:0:0:
320,192,20421,1,0,0:0:0:50:Short-finish.wav
448,192,20421,1,0,0:0:0:0:
192,192,20506,1,0,0:0:0:0:
320,192,20591,1,0,0:0:0:0:
64,192,20676,1,8,0:0:0:0:
192,192,20719,1,8,0:0:0:0:
320,192,20761,1,2,0:0:0:0:
448,192,20761,1,0,0:0:0:0:
64,192,20846,1,2,0:0:0:0:
192,192,20846,1,0,0:0:0:0:
320,192,20931,1,2,0:0:0:0:
448,192,20931,1,0,0:0:0:0:
192,192,21016,1,0,0:0:0:0:
64,192,21102,1,0,0:0:0:0:
448,192,21187,1,8,0:0:0:0:
320,192,21229,1,8,0:0:0:0:
64,192,21272,1,2,0:0:0:0:
192,192,21272,1,0,0:0:0:0:
320,192,21357,1,2,0:0:0:0:
448,192,21357,1,0,0:0:0:0:
64,192,21442,1,2,0:0:0:0:
192,192,21442,128,0,21868:0:0:0:0:
320,192,21697,128,2,22208:0:0:0:0:
448,192,21697,1,0,0:0:0:0:
64,192,21868,1,2,0:0:0:0:
192,192,21953,1,2,0:0:0:0:
448,192,21953,128,0,22208:0:0:0:0:
64,192,22208,1,0,0:0:0:0:
192,192,22208,1,0,0:0:0:0:
448,192,22336,1,0,0:0:0:0:
320,192,22378,1,0,0:0:0:0:
192,192,22421,1,0,0:0:0:0:
448,192,22463,1,0,0:0:0:0:
64,192,22464,128,6,22974:0:0:0:0:
192,192,22719,1,2,0:0:0:0:
320,192,22719,1,0,0:0:0:0:
192,192,22974,1,2,0:0:0:0:
448,192,22974,128,0,23229:0:0:0:0:
64,192,23229,1,2,0:0:0:0:
320,192,23229,128,0,23485:0:0:0:0:
192,192,23485,128,2,23612:0:0:0:0:
448,192,23485,1,0,0:0:0:0:
64,192,23612,128,0,23868:0:0:0:0:
320,192,23740,1,2,0:0:0:0:
448,192,23740,1,0,0:0:0:0:
192,192,23868,128,0,23995:0:0:0:0:
64,192,23995,1,2,0:0:0:0:
448,192,23995,128,0,24251:0:0:0:0:
192,192,24251,1,2,0:0:0:0:
320,192,24251,128,0,24506:0:0:0:0:
64,192,24506,128,2,24761:0:0:0:0:
448,192,24506,1,0,0:0:0:0:
192,192,24761,128,2,25272:0:0:0:0:
320,192,24761,1,0,0:0:0:0:
64,192,25017,1,2,0:0:0:0:
448,192,25017,1,0,0:0:0:0:
320,192,25272,128,2,25527:0:0:0:0:
448,192,25272,1,0,0:0:0:0:
64,192,25400,1,2,0:0:0:0:
192,192,25400,1,0,0:0:0:0:
64,192,25527,128,2,25783:0:0:0:0:
448,192,25527,1,0,0:0:0:0:
320,192,25783,1,2,0:0:0:0:
448,192,25783,1,0,0:0:0:0:
192,192,25868,1,0,0:0:0:0:
64,192,25953,1,0,0:0:0:0:
320,192,26038,1,2,0:0:0:0:
448,192,26038,1,0,0:0:0:0:
192,192,26081,1,0,0:0:0:0:
64,192,26123,1,0,0:0:0:0:
448,192,26208,1,0,0:0:0:0:
192,192,26293,1,2,0:0:0:0:
320,192,26293,1,0,0:0:0:0:
64,192,26378,1,0,0:0:0:0:
448,192,26463,1,0,0:0:0:0:
64,192,26549,1,2,0:0:0:0:
320,192,26549,1,0,0:0:0:0:
192,192,26634,1,0,0:0:0:0:
320,192,26719,1,0,0:0:0:0:
192,192,26804,1,2,0:0:0:0:
448,192,26804,1,0,0:0:0:0:
64,192,26889,1,0,0:0:0:0:
320,192,26974,1,0,0:0:0:0:
64,192,27059,1,2,0:0:0:0:
192,192,27059,1,0,0:0:0:0:
320,192,27144,1,0,0:0:0:0:
448,192,27229,1,0,0:0:0:0:
64,192,27315,1,2,0:0:0:0:
192,192,27315,1,0,0:0:0:0:
320,192,27400,1,0,0:0:0:0:
64,192,27485,1,0,0:0:0:0:
192,192,27570,1,2,0:0:0:0:
448,192,27570,1,0,0:0:0:0:
320,192,27655,1,0,0:0:0:0:
192,192,27740,1,0,0:0:0:0:
64,192,27825,1,0,0:0:0:0:
320,192,27825,128,0,28081:0:0:0:0:
448,192,27953,1,0,0:0:0:0:
192,192,28017,1,0,0:0:0:0:
64,192,28081,128,0,28336:0:0:0:0:
320,192,28208,1,0,0:0:0:0:
448,192,28336,1,0,0:0:0:0:
320,192,28378,1,0,0:0:0:0:
192,192,28421,1,0,0:0:0:0:
64,192,28463,1,0,0:0:0:0:
448,192,28506,1,0,0:0:0:0:
320,192,28549,1,0,0:0:0:0:
64,192,28591,1,2,0:0:0:0:
192,192,28591,1,4,0:0:0:0:
192,192,28719,1,8,0:0:0:0:
320,192,28719,1,0,0:0:0:0:
64,192,28846,1,2,0:0:0:0:
448,192,28846,1,0,0:0:0:0:
64,192,28974,1,8,0:0:0:0:
320,192,28974,1,0,0:0:0:0:
192,192,29102,1,2,0:0:0:0:
448,192,29102,1,0,0:0:0:0:
320,192,29229,1,8,0:0:0:0:
448,192,29229,1,0,0:0:0:0:
64,192,29357,1,2,0:0:0:0:
192,192,29357,1,0,0:0:0:0:
64,192,29485,1,8,0:0:0:0:
320,192,29485,1,0,0:0:0:0:
192,192,29612,1,2,0:0:0:0:
448,192,29612,1,0,0:0:0:0:
192,192,29740,1,8,0:0:0:0:
320,192,29740,1,0,0:0:0:0:
64,192,29868,1,2,0:0:0:0:
448,192,29868,1,0,0:0:0:0:
192,192,29995,1,8,0:0:0:0:
448,192,29995,1,0,0:0:0:0:
64,192,30123,1,2,0:0:0:0:
320,192,30123,1,0,0:0:0:0:
64,192,30251,1,8,0:0:0:0:
192,192,30251,1,0,0:0:0:0:
320,192,30378,1,2,0:0:0:0:
448,192,30378,1,0,0:0:0:0:
64,192,30506,1,8,0:0:0:0:
448,192,30506,1,0,0:0:0:0:
192,192,30634,1,2,0:0:0:0:
320,192,30634,1,0,0:0:0:0:
192,192,30761,1,8,0:0:0:0:
448,192,30761,1,0,0:0:0:0:
64,192,30889,1,2,0:0:0:0:
320,192,30889,1,0,0:0:0:0:
192,192,31017,1,8,0:0:0:0:
320,192,31017,1,0,0:0:0:0:
64,192,31144,1,2,0:0:0:0:
448,192,31144,1,0,0:0:0:0:
320,192,31208,1,0,0:0:0:0:
192,192,31272,1,0,0:0:0:30:Kick.wav
320,192,31336,1,0,0:0:0:0:
64,192,31400,1,8,0:0:0:0:
192,192,31400,1,0,0:0:0:0:
448,192,31400,1,0,0:0:0:0:
320,192,31463,1,0,0:0:0:0:
192,192,31527,1,0,0:0:0:30:Kick.wav
320,192,31591,1,0,0:0:0:0:
64,192,31655,1,4,0:0:0:0:
192,192,31655,1,2,0:0:0:0:
448,192,31655,1,0,0:0:0:0:
320,192,31783,1,8,0:0:0:0:
448,192,31783,1,0,0:0:0:0:
64,192,31910,1,2,0:0:0:0:
192,192,31910,1,0,0:0:0:0:
320,192,31995,1,0,0:0:0:0:
192,192,32081,1,0,0:0:0:0:
64,192,32166,1,2,0:0:0:0:
448,192,32166,1,0,0:0:0:0:
320,192,32208,1,0,0:0:0:0:
192,192,32251,1,0,0:0:0:0:
448,192,32336,1,0,0:0:0:0:
64,192,32421,1,2,0:0:0:0:
320,192,32421,1,0,0:0:0:0:
192,192,32506,1,0,0:0:0:0:
320,192,32591,1,0,0:0:0:0:
64,192,32676,1,2,0:0:0:0:
448,192,32676,1,0,0:0:0:0:
192,192,32761,1,0,0:0:0:0:
320,192,32846,1,0,0:0:0:0:
64,192,32932,1,2,0:0:0:0:
192,192,32932,1,0,0:0:0:0:
448,192,33017,1,0,0:0:0:0:
320,192,33102,1,0,0:0:0:0:
192,192,33187,1,2,0:0:0:0:
448,192,33187,1,0,0:0:0:0:
64,192,33272,1,0,0:0:0:0:
320,192,33357,1,0,0:0:0:0:
64,192,33442,1,2,0:0:0:0:
192,192,33442,1,0,0:0:0:0:
320,192,33527,1,0,0:0:0:0:
448,192,33612,1,0,0:0:0:0:
192,192,33698,1,0,0:0:0:0:
320,192,33783,1,0,0:0:0:0:
64,192,33868,1,0,0:0:0:30:Special Snare.wav
448,192,33953,128,0,34081:0:0:0:30:Special Snare.wav
64,192,34081,1,8,0:0:0:30:soft-hitclap.wav
192,192,34081,1,0,0:0:0:0:
320,192,34144,1,8,0:0:0:30:soft-hitclap.wav
448,192,34144,1,0,0:0:0:30:Special Snare.wav
192,192,34208,128,0,34336:0:0:0:30:Special Snare.wav
320,192,34336,1,8,0:0:0:30:soft-hitclap.wav
448,192,34336,1,0,0:0:0:0:
64,192,34400,1,8,0:0:0:30:soft-hitclap.wav
192,192,34400,1,0,0:0:0:30:Special Snare.wav
448,192,34463,128,0,34591:0:0:0:30:Special Snare.wav
64,192,34591,1,8,0:0:0:30:soft-hitclap.wav
192,192,34623,1,8,0:0:0:30:soft-hitclap.wav
320,192,34655,1,8,0:0:0:30:soft-hitclap.wav
448,192,34687,1,8,0:0:0:30:soft-hitclap.wav
64,192,34719,1,2,0:0:0:0:
192,192,34719,1,4,0:0:0:0:
320,192,34846,1,2,0:0:0:0:
448,192,34846,1,0,0:0:0:0:
64,192,34974,1,0,0:0:0:0:
448,192,34974,1,0,0:0:0:0:
192,192,35101,1,2,0:0:0:0:
320,192,35101,1,0,0:0:0:0:
64,192,35229,1,0,0:0:0:0:
448,192,35229,1,0,0:0:0:0:
192,192,35357,1,2,0:0:0:0:
320,192,35357,1,0,0:0:0:0:
64,192,35484,128,0,35570:0:0:0:0:
192,192,35570,128,0,35655:0:0:0:0:
448,192,35612,1,2,0:0:0:0:
320,192,35655,128,0,35740:0:0:0:0:
64,192,35740,1,2,0:0:0:0:
192,192,35740,128,0,35825:0:0:0:0:
320,192,35825,128,0,35910:0:0:0:0:
64,192,35867,1,2,0:0:0:0:
448,192,35910,128,0,35995:0:0:0:0:
192,192,35995,1,2,0:0:0:0:
320,192,35995,1,0,0:0:0:0:
64,192,36123,1,0,0:0:0:0:
448,192,36123,1,0,0:0:0:0:
64,192,36250,1,2,0:0:0:0:
320,192,36250,1,0,0:0:0:0:
192,192,36378,1,2,0:0:0:0:
448,192,36378,1,0,0:0:0:0:
64,192,36506,1,0,0:0:0:0:
320,192,36506,1,0,0:0:0:0:
192,192,36633,1,2,0:0:0:0:
448,192,36633,1,0,0:0:0:0:
320,192,36761,128,0,36846:0:0:0:0:
448,192,36761,1,0,0:0:0:0:
192,192,36846,128,0,36931:0:0:0:0:
64,192,36889,1,2,0:0:0:0:
448,192,36931,128,0,37016:0:0:0:0:
64,192,37016,1,2,0:0:0:0:
192,192,37016,128,0,37101:0:0:0:0:
320,192,37101,128,0,37187:0:0:0:0:
448,192,37144,1,2,0:0:0:0:
64,192,37187,128,0,37272:0:0:0:0:
192,192,37272,1,2,0:0:0:0:
320,192,37272,1,0,0:0:0:0:
64,192,37399,1,2,0:0:0:0:
448,192,37399,1,0,0:0:0:0:
64,192,37527,1,0,0:0:0:0:
192,192,37527,1,0,0:0:0:0:
320,192,37655,1,2,0:0:0:0:
448,192,37655,1,0,0:0:0:0:
64,192,37782,1,0,0:0:0:0:
192,192,37782,1,0,0:0:0:0:
320,192,37910,1,2,0:0:0:0:
448,192,37910,1,0,0:0:0:0:
192,192,38038,128,0,38123:0:0:0:0:
320,192,38123,128,0,38208:0:0:0:0:
64,192,38165,1,2,0:0:0:0:
448,192,38208,128,0,38293:0:0:0:0:
64,192,38293,1,2,0:0:0:0:
320,192,38293,128,0,38378:0:0:0:0:
192,192,38378,128,0,38463:0:0:0:0:
448,192,38421,1,2,0:0:0:0:
64,192,38463,128,0,38548:0:0:0:0:
192,192,38548,1,2,0:0:0:0:
320,192,38548,1,0,0:0:0:0:
64,192,38676,1,0,0:0:0:0:
448,192,38676,1,0,0:0:0:0:
320,192,38804,1,2,0:0:0:0:
448,192,38804,1,0,0:0:0:0:
64,192,38931,1,2,0:0:0:0:
192,192,38931,1,0,0:0:0:0:
320,192,39059,1,8,0:0:0:20:soft-hitclap.wav
192,192,39101,1,8,0:0:0:20:soft-hitclap.wav
64,192,39144,1,8,0:0:0:20:soft-hitclap.wav
320,192,39187,1,2,0:0:0:0:
448,192,39187,1,0,0:0:0:0:
64,192,39314,128,0,39399:0:0:0:0:
448,192,39399,128,0,39484:0:0:0:0:
320,192,39442,1,2,0:0:0:0:
192,192,39484,128,0,39570:0:0:0:0:
320,192,39570,1,2,0:0:0:0:
448,192,39570,128,0,39655:0:0:0:0:
64,192,39655,128,0,39740:0:0:0:0:
192,192,39697,1,2,0:0:0:0:
320,192,39740,128,0,39825:0:0:0:0:
64,192,39825,1,2,0:0:0:0:
192,192,39825,1,4,0:0:0:0:
448,192,39825,1,0,0:0:0:0:
448,192,39953,1,8,0:0:0:20:soft-hitclap.wav
320,192,39984,1,8,0:0:0:20:soft-hitclap.wav
192,192,40016,1,8,0:0:0:20:soft-hitclap.wav
64,192,40048,1,8,0:0:0:20:soft-hitclap.wav
320,192,40080,1,8,0:0:0:20:soft-hitclap.wav
448,192,40080,1,0,0:0:0:0:
64,192,40208,1,2,0:0:0:0:
192,192,40208,1,0,0:0:0:0:
64,192,40336,1,0,0:0:0:0:
448,192,40336,1,0,0:0:0:0:
192,192,40463,1,2,0:0:0:0:
320,192,40463,1,0,0:0:0:0:
448,192,40591,128,0,40687:0:0:0:0:
64,192,40676,128,0,40761:0:0:0:0:
320,192,40761,128,0,40846:0:0:0:0:
64,192,40846,128,2,40931:0:0:0:0:
192,192,40846,1,0,0:0:0:0:
448,192,40931,128,0,41016:0:0:0:0:
192,192,41016,128,0,41101:0:0:0:0:
64,192,41101,1,2,0:0:0:0:
448,192,41101,1,0,0:0:0:0:
192,192,41229,1,0,0:0:0:0:
320,192,41229,1,0,0:0:0:0:
320,192,41357,1,2,0:0:0:0:
448,192,41357,1,0,0:0:0:0:
64,192,41484,1,2,0:0:0:0:
192,192,41516,1,2,0:0:0:0:
320,192,41548,1,2,0:0:0:0:
448,192,41580,1,2,0:0:0:0:
64,192,41612,1,2,0:0:0:0:
192,192,41612,1,0,0:0:0:0:
320,192,41740,1,2,0:0:0:0:
448,192,41740,1,0,0:0:0:0:
64,192,41867,1,8,0:0:0:0:
192,192,41867,128,0,41953:0:0:0:0:
320,192,41953,128,0,42038:0:0:0:0:
64,192,42038,128,0,42123:0:0:0:0:
320,192,42123,128,8,42208:0:0:0:0:
448,192,42123,1,2,0:0:0:0:
192,192,42208,128,0,42293:0:0:0:0:
448,192,42293,128,0,42378:0:0:0:0:
192,192,42378,1,2,0:0:0:0:
320,192,42378,1,0,0:0:0:0:
64,192,42506,1,2,0:0:0:0:
192,192,42538,1,2,0:0:0:0:
320,192,42570,1,2,0:0:0:0:
448,192,42601,1,2,0:0:0:0:
64,192,42633,1,2,0:0:0:0:
192,192,42633,1,0,0:0:0:0:
320,192,42761,1,2,0:0:0:0:
448,192,42761,1,0,0:0:0:0:
192,192,42889,1,0,0:0:0:30:Special Snare.wav
320,192,42931,1,0,0:0:0:30:Special Snare.wav
448,192,42974,1,0,0:0:0:30:Special Snare.wav
64,192,43016,1,2,0:0:0:0:
192,192,43016,1,0,0:0:0:0:
320,192,43144,1,2,0:0:0:0:
448,192,43144,1,8,0:0:0:0:
192,192,43208,1,2,0:0:0:0:
64,192,43272,1,2,0:0:0:0:
448,192,43272,1,0,0:0:0:0:
320,192,43336,1,2,0:0:0:0:
64,192,43399,1,8,0:0:0:0:
192,192,43399,1,2,0:0:0:0:
448,192,43463,1,2,0:0:0:0:
192,192,43527,1,2,0:0:0:0:
320,192,43527,1,0,0:0:0:0:
64,192,43591,1,2,0:0:0:0:
448,192,43655,1,0,0:0:0:0:
192,192,43782,1,0,0:0:0:0:
320,192,43910,1,0,0:0:0:0:
64,192,44038,1,0,0:0:0:0:
320,192,44165,128,0,44229:0:0:0:0:
64,192,44229,128,0,44293:0:0:0:0:
448,192,44293,128,0,44357:0:0:0:0:
192,192,44357,128,0,44421:0:0:0:0:
320,192,44421,1,0,0:0:0:0:
448,192,44484,1,0,0:0:0:0:
192,192,44548,1,0,0:0:0:0:
64,192,44612,1,0,0:0:0:0:
320,192,44676,1,0,0:0:0:0:
192,192,44740,1,0,0:0:0:0:
448,192,44804,1,0,0:0:0:0:
320,192,44867,1,0,0:0:0:0:
64,192,44931,1,2,0:0:0:0:
192,192,44931,1,4,0:0:0:0:
448,192,44931,1,0,0:0:0:0:
320,192,45058,1,0,0:0:0:0:
64,192,45186,1,0,0:0:0:0:
448,192,45186,1,0,0:0:0:0:
192,192,45313,1,0,0:0:0:0:
320,192,45441,1,0,0:0:0:0:
192,192,45569,1,0,0:0:0:0:
448,192,45569,1,0,0:0:0:0:
64,192,45696,1,0,0:0:0:0:
320,192,45824,1,0,0:0:0:0:
64,192,45952,1,0,0:0:0:0:
192,192,45952,1,0,0:0:0:0:
192,192,46335,1,0,0:0:0:0:
448,192,46335,1,0,0:0:0:0:
64,192,46718,1,0,0:0:0:0:
192,192,46782,1,0,0:0:0:0:
320,192,46845,1,0,0:0:0:0:
448,192,46909,1,0,0:0:0:0:
64,192,46973,1,0,0:0:0:0:
192,192,46973,1,0,0:0:0:0:
320,192,47228,1,0,0:0:0:0:
192,192,47484,1,0,0:0:0:0:
320,192,47611,1,0,0:0:0:0:
448,192,47611,1,0,0:0:0:0:
64,192,47739,1,0,0:0:0:0:
192,192,47994,1,0,0:0:0:0:
320,192,47994,1,0,0:0:0:0:
448,192,48058,1,0,0:0:0:0:
64,192,48122,1,0,0:0:0:0:
320,192,48186,1,0,0:0:0:0:
192,192,48250,1,0,0:0:0:0:
448,192,48313,1,0,0:0:0:0:
320,192,48377,1,0,0:0:0:0:
192,192,48441,1,0,0:0:0:0:
64,192,48505,1,0,0:0:0:0:
320,192,48505,1,0,0:0:0:0:
448,192,48569,1,0,0:0:0:0:
192,192,48633,1,0,0:0:0:0:
320,192,48696,1,0,0:0:0:0:
64,192,48760,1,0,0:0:0:0:
192,192,48824,1,0,0:0:0:0:
448,192,48888,1,0,0:0:0:0:
320,192,48952,1,0,0:0:0:0:
64,192,49016,1,2,0:0:0:0:
192,192,49016,1,4,0:0:0:0:
448,192,49016,128,0,49271:0:0:0:0:
64,192,49271,1,2,0:0:0:0:
192,192,49271,1,8,0:0:0:0:
320,192,49271,1,0,0:0:0:0:
64,192,49399,128,0,49654:0:0:0:0:
320,192,49526,1,2,0:0:0:0:
448,192,49526,1,0,0:0:0:0:
192,192,49654,1,0,0:0:0:0:
64,192,49782,1,2,0:0:0:0:
320,192,49782,128,8,50037:0:0:0:0:
448,192,49782,1,0,0:0:0:0:
64,192,50037,1,2,0:0:0:0:
192,192,50037,128,0,50548:0:0:0:0:
448,192,50165,1,0,0:0:0:0:
64,192,50292,1,8,0:0:0:0:
320,192,50292,1,2,0:0:0:0:
448,192,50292,1,0,0:0:0:0:
64,192,50420,1,0,0:0:0:0:
320,192,50548,128,2,50803:0:0:0:0:
448,192,50548,1,0,0:0:0:0:
64,192,50675,1,0,0:0:0:0:
192,192,50803,1,2,0:0:0:0:
448,192,50803,1,0,0:0:0:0:
320,192,50930,1,0,0:0:0:0:
64,192,51058,1,2,0:0:0:0:
192,192,51058,1,8,0:0:0:0:
448,192,51058,1,0,0:0:0:0:
64,192,51186,1,2,0:0:0:0:
320,192,51186,1,0,0:0:0:0:
192,192,51313,1,2,0:0:0:0:
320,192,51313,1,8,0:0:0:0:
448,192,51313,1,0,0:0:0:0:
64,192,51441,1,2,0:0:0:0:
448,192,51441,1,0,0:0:0:0:
192,192,51569,1,2,0:0:0:0:
320,192,51569,1,0,0:0:0:0:
64,192,51696,1,8,0:0:0:0:
192,192,51696,1,2,0:0:0:0:
448,192,51696,1,0,0:0:0:0:
320,192,51824,1,2,0:0:0:0:
448,192,51824,1,0,0:0:0:0:
64,192,51888,1,2,0:0:0:0:
192,192,51888,1,0,0:0:0:0:
320,192,51952,1,2,0:0:0:0:
448,192,51952,1,0,0:0:0:0:
64,192,52016,1,2,0:0:0:0:
192,192,52016,1,0,0:0:0:0:
320,192,52079,128,0,52165:0:0:0:0:
192,192,52165,128,0,52250:0:0:0:0:
64,192,52250,128,0,52335:0:0:0:0:
448,192,52335,128,0,52420:0:0:0:0:
320,192,52420,128,0,52505:0:0:0:0:
192,192,52505,128,0,52590:0:0:0:0:
64,192,52590,128,0,52675:0:0:0:0:
320,192,52675,128,0,52760:0:0:0:0:
192,192,52760,128,0,52845:0:0:0:0:
448,192,52845,1,0,0:0:0:0:
320,192,52909,1,0,0:0:0:0:
64,192,52973,1,0,0:0:0:0:
192,192,53037,1,0,0:0:0:0:
64,192,53101,1,2,0:0:0:30:soft-hitwhistle.wav
320,192,53101,1,0,0:0:0:50:Short-finish.wav
448,192,53101,128,0,53228:0:0:0:0:
192,192,53228,1,0,0:0:0:0:
320,192,53356,1,0,0:0:0:0:
64,192,53484,128,2,53611:0:0:0:30:soft-hitwhistle.wav
192,192,53484,1,0,0:0:0:50:Short-finish.wav
448,192,53484,1,0,0:0:0:0:
320,192,53611,1,0,0:0:0:0:
192,192,53739,1,0,0:0:0:0:
64,192,53867,1,2,0:0:0:30:soft-hitwhistle.wav
320,192,53867,128,0,53994:0:0:0:50:Short-finish.wav
448,192,53867,1,0,0:0:0:0:
192,192,53994,1,0,0:0:0:0:
448,192,54122,1,0,0:0:0:0:
64,192,54250,1,2,0:0:0:30:soft-hitwhistle.wav
192,192,54250,128,0,54377:0:0:0:50:Short-finish.wav
320,192,54250,1,0,0:0:0:0:
448,192,54377,1,0,0:0:0:0:
64,192,54505,1,0,0:0:0:0:
192,192,54633,1,2,0:0:0:30:soft-hitwhistle.wav
320,192,54633,1,0,0:0:0:50:Short-finish.wav
448,192,54633,128,0,54760:0:0:0:0:
64,192,54760,1,0,0:0:0:0:
192,192,54824,1,0,0:0:0:0:
64,192,54888,1,2,0:0:0:30:soft-hitwhistle.wav
320,192,54888,1,0,0:0:0:50:Short-finish.wav
448,192,54888,1,0,0:0:0:0:
192,192,54952,1,0,0:0:0:0:
320,192,55016,1,0,0:0:0:0:
192,192,55079,1,0,0:0:0:0:
64,192,55143,128,2,55271:0:0:0:30:soft-hitwhistle.wav
320,192,55143,1,0,0:0:0:50:Short-finish.wav
448,192,55143,1,0,0:0:0:0:
192,192,55271,1,0,0:0:0:0:
448,192,55399,1,0,0:0:0:0:
64,192,55526,1,2,0:0:0:30:soft-hitwhistle.wav
192,192,55526,1,0,0:0:0:50:Short-finish.wav
320,192,55526,128,0,55654:0:0:0:0:
448,192,55654,1,0,0:0:0:0:
64,192,55782,1,0,0:0:0:0:
192,192,55909,128,2,56037:0:0:0:30:soft-hitwhistle.wav
320,192,55909,1,0,0:0:0:50:Short-finish.wav
448,192,55909,1,0,0:0:0:0:
64,192,56037,1,0,0:0:0:0:
320,192,56165,1,0,0:0:0:0:
64,192,56292,1,2,0:0:0:30:soft-hitwhistle.wav
192,192,56292,1,0,0:0:0:50:Short-finish.wav
448,192,56292,128,0,56420:0:0:0:0:
320,192,56420,1,0,0:0:0:0:
64,192,56548,1,0,0:0:0:0:
320,192,56675,1,2,0:0:0:30:soft-hitwhistle.wav
448,192,56675,1,0,0:0:0:50:Short-finish.wav
192,192,56739,1,2,0:0:0:30:soft-hitwhistle.wav
64,192,56803,1,2,0:0:0:30:soft-hitwhistle.wav
448,192,56803,1,0,0:0:0:0:
320,192,56867,1,2,0:0:0:30:soft-hitwhistle.wav
64,192,56930,1,2,0:0:0:30:soft-hitwhistle.wav
192,192,56930,1,0,0:0:0:0:
320,192,57058,1,2,0:0:0:30:soft-hitwhistle.wav
448,192,57058,1,0,0:0:0:0:
64,192,57186,1,2,0:0:0:0:
192,192,57186,1,4,0:0:0:0:
448,192,57186,128,0,57313:0:0:0:50:Snare.wav
192,192,57313,1,0,0:0:0:0:
64,192,57441,1,2,0:0:0:0:
320,192,57441,1,0,0:0:0:50:Snare.wav
448,192,57441,1,0,0:0:0:0:
192,192,57505,1,0,0:0:0:0:
320,192,57569,1,0,0:0:0:0:
192,192,57633,1,0,0:0:0:0:
64,192,57696,1,2,0:0:0:0:
320,192,57696,1,0,0:0:0:50:Snare.wav
448,192,57696,128,0,57824:0:0:0:0:
64,192,57824,1,0,0:0:0:0:
192,192,57952,128,2,58079:0:0:0:0:
320,192,57952,1,0,0:0:0:50:Snare.wav
448,192,57952,1,0,0:0:0:0:
448,192,58079,1,0,0:0:0:0:
64,192,58207,128,2,58335:0:0:0:0:
192,192,58207,1,0,0:0:0:50:Snare.wav
320,192,58207,1,0,0:0:0:0:
320,192,58335,1,0,0:0:0:0:
64,192,58462,1,2,0:0:0:0:
192,192,58462,1,0,0:0:0:50:Snare.wav
448,192,58462,1,0,0:0:0:0:
192,192,58590,1,0,0:0:0:0:
64,192,58718,1,0,0:0:0:50:Snare2.wav
320,192,58718,128,0,58845:0:0:0:0:
448,192,58718,1,0,0:0:0:0:
192,192,58845,128,0,58973:0:0:0:0:
448,192,58973,1,0,0:0:0:0:
64,192,59037,1,0,0:0:0:0:
320,192,59101,1,0,0:0:0:0:
192,192,59165,1,0,0:0:0:0:
64,192,59228,1,2,0:0:0:0:
320,192,59228,1,4,0:0:0:0:
448,192,59228,128,0,59484:0:0:0:0:
64,192,59484,128,0,59611:0:0:0:50:Snare.wav
192,192,59484,1,0,0:0:0:0:
320,192,59484,1,0,0:0:0:0:
320,192,59611,1,0,0:0:0:0:
64,192,59739,1,4,0:0:0:0:
192,192,59739,128,2,59867:0:0:0:0:
448,192,59739,1,0,0:0:0:0:
320,192,59867,128,0,59994:0:0:0:0:
64,192,59994,128,0,60122:0:0:0:50:Snare.wav
192,192,59994,1,0,0:0:0:0:
448,192,59994,1,0,0:0:0:0:
320,192,60122,1,2,0:0:0:0:
448,192,60122,1,0,0:0:0:0:
192,192,60186,1,0,0:0:0:0:
64,192,60250,1,2,0:0:0:0:
320,192,60250,1,0,0:0:0:0:
448,192,60313,1,0,0:0:0:0:
192,192,60377,1,0,0:0:0:0:
320,192,60441,1,0,0:0:0:0:
64,192,60505,1,2,0:0:0:0:
192,192,60505,1,4,0:0:0:0:
448,192,60505,128,0,60633:0:0:0:0:
320,192,60633,1,0,0:0:0:0:
64,192,60696,1,2,0:0:0:0:
192,192,60696,1,0,0:0:0:0:
320,192,60760,1,0,0:0:0:50:Snare.wav
448,192,60760,1,0,0:0:0:0:
64,192,60888,1,2,0:0:0:0:
192,192,60888,1,0,0:0:0:0:
320,192,60952,1,2,0:0:0:0:
448,192,60952,1,0,0:0:0:0:
192,192,61016,1,0,0:0:0:0:
64,192,61079,1,2,0:0:0:0:
448,192,61079,1,0,0:0:0:0:
192,192,61143,128,0,61271:0:0:0:50:Snare.wav
320,192,61143,1,0,0:0:0:0:
64,192,61271,1,2,0:0:0:0:
448,192,61271,1,0,0:0:0:0:
320,192,61335,1,2,0:0:0:0:
64,192,61399,128,2,61526:0:0:0:0:
192,192,61399,1,4,0:0:0:0:
448,192,61399,1,0,0:0:0:0:
320,192,61526,1,0,0:0:0:0:
64,192,61590,1,2,0:0:0:0:
192,192,61590,1,0,0:0:0:0:
320,192,61654,1,2,0:0:0:0:
448,192,61654,1,0,0:0:0:0:
64,192,61718,1,0,0:0:0:0:
192,192,61782,1,2,0:0:0:0:
448,192,61782,1,0,0:0:0:0:
320,192,61845,1,0,0:0:0:0:
64,192,61909,1,0,0:0:0:50:Snare.wav
192,192,61909,1,0,0:0:0:0:
448,192,61973,1,0,0:0:0:0:
64,192,62037,1,2,0:0:0:0:
320,192,62037,1,0,0:0:0:0:
192,192,62101,1,0,0:0:0:0:
64,192,62165,1,2,0:0:0:0:
448,192,62165,1,0,0:0:0:0:
320,192,62228,1,0,0:0:0:0:
64,192,62292,1,2,0:0:0:0:
192,192,62292,1,0,0:0:0:0:
320,192,62356,1,2,0:0:0:0:
448,192,62356,1,0,0:0:0:0:
64,192,62420,1,2,0:0:0:0:
192,192,62420,1,0,0:0:0:0:
320,192,62484,1,2,0:0:0:0:
448,192,62484,1,0,0:0:0:0:
64,192,62548,1,2,0:0:0:0:
192,192,62548,1,0,0:0:0:0:
320,192,62611,1,2,0:0:0:0:
448,192,62611,1,0,0:0:0:0:
64,192,62675,1,2,0:0:0:0:
192,192,62675,1,0,0:0:0:0:
320,192,62739,1,2,0:0:0:0:
64,192,62803,1,2,0:0:0:0:
192,192,62803,1,4,0:0:0:0:
448,192,62803,1,0,0:0:0:0:
320,192,62867,1,0,0:0:0:0:
64,192,62930,1,2,0:0:0:0:
448,192,62930,1,0,0:0:0:0:
192,192,62994,1,0,0:0:0:0:
320,192,63058,1,0,0:0:0:50:Snare.wav
448,192,63058,1,0,0:0:0:0:
192,192,63122,1,0,0:0:0:0:
64,192,63186,1,2,0:0:0:0:
448,192,63186,1,0,0:0:0:0:
320,192,63250,1,0,0:0:0:0:
64,192,63313,1,2,0:0:0:0:
192,192,63313,1,0,0:0:0:0:
320,192,63377,1,0,0:0:0:0:
64,192,63441,1,0,0:0:0:50:Snare.wav
448,192,63441,1,0,0:0:0:0:
192,192,63505,1,0,0:0:0:0:
320,192,63569,1,2,0:0:0:0:
448,192,63569,1,0,0:0:0:0:
64,192,63633,1,2,0:0:0:0:
192,192,63633,1,0,0:0:0:0:
320,192,63696,1,2,0:0:0:0:
448,192,63696,1,0,0:0:0:0:
64,192,63760,1,2,0:0:0:0:
192,192,63760,1,0,0:0:0:0:
320,192,63824,1,0,0:0:0:50:Snare.wav
448,192,63824,1,0,0:0:0:0:
64,192,63888,1,0,0:0:0:0:
192,192,63952,1,2,0:0:0:0:
448,192,63952,1,0,0:0:0:0:
320,192,64016,1,0,0:0:0:0:
64,192,64079,1,0,0:0:0:50:Snare.wav
448,192,64079,1,0,0:0:0:0:
192,192,64143,1,0,0:0:0:0:
64,192,64207,1,2,0:0:0:0:
448,192,64207,1,0,0:0:0:0:
320,192,64271,1,0,0:0:0:0:
64,192,64335,1,2,0:0:0:0:
192,192,64335,1,0,0:0:0:0:
320,192,64420,1,2,0:0:0:0:
448,192,64420,1,0,0:0:0:0:
64,192,64505,1,2,0:0:0:0:
192,192,64505,1,0,0:0:0:0:
64,192,64590,1,2,0:0:0:0:
448,192,64590,1,0,0:0:0:0:
192,192,64675,1,2,0:0:0:0:
320,192,64675,1,0,0:0:0:0:
64,192,64760,1,2,0:0:0:0:
448,192,64760,1,0,0:0:0:0:
320,192,64845,1,2,0:0:0:0:
448,192,64845,1,0,0:0:0:0:
64,192,64930,1,2,0:0:0:0:
192,192,64930,1,0,0:0:0:0:
320,192,65016,1,2,0:0:0:0:
448,192,65016,1,0,0:0:0:0:
192,192,65101,1,2,0:0:0:0:
320,192,65101,1,0,0:0:0:0:
64,192,65186,1,2,0:0:0:0:
448,192,65186,1,0,0:0:0:0:
192,192,65271,1,2,0:0:0:0:
320,192,65271,1,0,0:0:0:0:
192,192,65356,1,2,0:0:0:0:
448,192,65356,128,0,65867:0:0:0:0:
64,192,65611,128,0,65867:0:0:0:0:
192,192,65867,1,0,0:0:0:0:
320,192,65867,128,0,66122:0:0:0:0:
448,192,66122,1,0,0:0:0:0:
64,192,66123,1,4,0:0:0:0:
192,192,66123,128,2,66378:0:0:0:0:
64,192,66378,1,2,0:0:0:0:
320,192,66378,1,8,0:0:0:0:
448,192,66378,1,0,0:0:0:0:
192,192,66505,1,0,0:0:0:0:
320,192,66569,1,0,0:0:0:0:
64,192,66633,1,2,0:0:0:0:
448,192,66633,1,0,0:0:0:0:
192,192,66761,1,0,0:0:0:0:
64,192,66888,1,8,0:0:0:0:
320,192,66888,1,2,0:0:0:0:
448,192,66888,1,0,0:0:0:0:
192,192,67016,1,0,0:0:0:0:
320,192,67144,1,2,0:0:0:0:
448,192,67144,1,0,0:0:0:0:
64,192,67208,1,0,0:0:0:0:
192,192,67271,1,0,0:0:0:0:
320,192,67335,1,0,0:0:0:0:
64,192,67399,1,2,0:0:0:0:
192,192,67399,1,8,0:0:0:0:
448,192,67399,1,0,0:0:0:0:
320,192,67527,1,0,0:0:0:0:
64,192,67654,1,2,0:0:0:0:
192,192,67654,1,0,0:0:0:0:
320,192,67782,1,2,0:0:0:0:
448,192,67782,1,0,0:0:0:0:
192,192,67846,1,2,0:0:0:0:
64,192,67910,1,8,0:0:0:0:
320,192,67910,1,2,0:0:0:0:
448,192,67910,1,0,0:0:0:0:
64,192,68037,1,2,0:0:0:0:
192,192,68037,1,0,0:0:0:0:
192,192,68165,1,2,0:0:0:0:
320,192,68165,128,0,68420:0:0:0:0:
64,192,68420,1,2,0:0:0:0:
192,192,68420,1,8,0:0:0:0:
448,192,68420,1,0,0:0:0:0:
64,192,68548,1,0,0:0:0:0:
320,192,68676,1,2,0:0:0:0:
448,192,68676,1,0,0:0:0:0:
192,192,68803,1,0,0:0:0:0:
64,192,68931,1,2,0:0:0:0:
192,192,68931,1,8,0:0:0:0:
448,192,68931,1,0,0:0:0:0:
64,192,69059,1,2,0:0:0:0:
320,192,69059,1,0,0:0:0:0:
192,192,69186,1,2,0:0:0:0:
448,192,69186,1,0,0:0:0:0:
448,192,69314,1,0,0:0:0:0:
64,192,69442,1,8,0:0:0:0:
192,192,69442,1,2,0:0:0:0:
320,192,69442,1,0,0:0:0:0:
64,192,69569,1,2,0:0:0:0:
448,192,69569,1,0,0:0:0:0:
192,192,69633,1,2,0:0:0:0:
320,192,69633,1,0,0:0:0:0:
64,192,69697,1,2,0:0:0:0:
448,192,69697,1,0,0:0:0:0:
192,192,69825,1,2,0:0:0:0:
320,192,69825,1,0,0:0:0:0:
64,192,69952,1,8,0:0:0:0:
192,192,69952,1,2,0:0:0:0:
448,192,69952,1,0,0:0:0:0:
320,192,70080,1,2,0:0:0:0:
448,192,70080,1,0,0:0:0:0:
64,192,70208,1,2,0:0:0:0:
192,192,70208,1,0,0:0:0:0:
448,192,70335,1,0,0:0:0:0:
64,192,70463,1,2,0:0:0:0:
192,192,70463,1,8,0:0:0:0:
448,192,70463,1,0,0:0:0:0:
320,192,70591,1,0,0:0:0:0:
64,192,70718,1,2,0:0:0:0:
320,192,70718,1,0,0:0:0:0:
192,192,70846,1,0,0:0:0:0:
192,192,70974,1,2,0:0:0:0:
320,192,70974,1,8,0:0:0:0:
448,192,70974,1,0,0:0:0:0:
64,192,71101,1,2,0:0:0:0:
448,192,71101,1,0,0:0:0:0:
192,192,71165,1,2,0:0:0:0:
320,192,71165,1,0,0:0:0:0:
64,192,71229,1,2,0:0:0:0:
448,192,71229,1,0,0:0:0:0:
320,192,71357,1,0,0:0:0:0:
192,192,71420,1,0,0:0:0:0:
64,192,71484,1,8,0:0:0:0:
320,192,71484,1,2,0:0:0:0:
448,192,71484,1,0,0:0:0:0:
192,192,71612,1,0,0:0:0:0:
64,192,71740,1,2,0:0:0:0:
448,192,71740,1,0,0:0:0:0:
320,192,71867,1,2,0:0:0:0:
448,192,71867,1,0,0:0:0:0:
192,192,71931,1,0,0:0:0:0:
64,192,71995,1,8,0:0:0:0:
448,192,71995,1,2,0:0:0:0:
320,192,72059,1,2,0:0:0:0:
64,192,72123,1,2,0:0:0:0:
192,192,72123,1,0,0:0:0:0:
64,192,72250,1,2,0:0:0:0:
320,192,72250,1,0,0:0:0:50:Short-finish.wav
448,192,72250,1,0,0:0:0:0:
192,192,72314,1,2,0:0:0:0:
320,192,72378,1,2,0:0:0:0:
448,192,72378,1,0,0:0:0:0:
192,192,72442,1,2,0:0:0:0:
64,192,72505,1,0,0:0:0:50:Snare.wav
320,192,72505,1,0,0:0:0:0:
448,192,72505,1,0,0:0:0:0:
64,192,72633,1,2,0:0:0:0:
192,192,72633,1,0,0:0:0:50:Short-finish.wav
448,192,72633,1,0,0:0:0:0:
320,192,72697,1,2,0:0:0:0:
64,192,72761,1,2,0:0:0:0:
192,192,72761,1,0,0:0:0:0:
320,192,72825,1,2,0:0:0:0:
64,192,72888,1,0,0:0:0:50:Snare.wav
192,192,72888,1,0,0:0:0:0:
448,192,72888,1,0,0:0:0:0:
64,192,73016,1,2,0:0:0:0:
320,192,73016,1,0,0:0:0:50:Short-finish.wav
448,192,73016,1,0,0:0:0:0:
192,192,73080,1,2,0:0:0:0:
320,192,73144,1,0,0:0:0:0:
192,192,73208,1,2,0:0:0:0:
64,192,73271,1,0,0:0:0:50:Snare.wav
320,192,73271,1,0,0:0:0:0:
448,192,73271,1,0,0:0:0:0:
64,192,73399,1,2,0:0:0:0:
192,192,73399,1,0,0:0:0:50:Short-finish.wav
448,192,73399,1,0,0:0:0:0:
320,192,73463,1,2,0:0:0:0:
192,192,73527,1,0,0:0:0:0:
320,192,73591,1,2,0:0:0:0:
64,192,73654,1,0,0:0:0:50:Snare.wav
192,192,73654,1,0,0:0:0:0:
448,192,73654,1,0,0:0:0:0:
320,192,73782,1,0,0:0:0:30:Kick.wav
448,192,73782,1,0,0:0:0:50:Short-finish.wav
192,192,73846,1,0,0:0:0:30:Kick.wav
64,192,73910,1,2,0:0:0:0:
320,192,73910,1,0,0:0:0:0:
448,192,73974,1,2,0:0:0:0:
64,192,74037,1,2,0:0:0:0:
192,192,74037,1,0,0:0:0:50:Short-finish.wav
320,192,74101,1,2,0:0:0:0:
448,192,74101,1,0,0:0:0:0:
64,192,74165,1,2,0:0:0:0:
192,192,74165,1,0,0:0:0:0:
320,192,74229,1,2,0:0:0:0:
448,192,74229,1,0,0:0:0:0:
192,192,74293,1,0,0:0:0:0:
64,192,74420,1,0,0:0:0:0:
448,192,74420,1,0,0:0:0:0:
192,192,74548,1,0,0:0:0:0:
448,192,74548,1,0,0:0:0:0:
320,192,74676,1,0,0:0:0:0:
448,192,74676,1,0,0:0:0:0:
64,192,74803,1,0,0:0:0:0:
192,192,74803,1,0,0:0:0:0:
64,192,74931,1,0,0:0:0:0:
320,192,74931,1,0,0:0:0:0:
64,192,75059,1,0,0:0:0:0:
448,192,75059,1,0,0:0:0:0:
192,192,75186,1,0,0:0:0:0:
320,192,75186,1,0,0:0:0:0:
192,192,75314,128,0,75569:0:0:0:0:
448,192,75314,128,0,75505:0:0:0:0:
448,192,75569,128,0,75825:0:0:0:0:
320,192,75697,128,0,75825:0:0:0:0:
64,192,75825,1,0,0:0:0:30:Special Snare.wav
192,192,75888,1,0,0:0:0:30:Special Snare.wav
448,192,75952,1,0,0:0:0:30:Special Snare.wav
320,192,76016,1,0,0:0:0:30:Special Snare.wav
64,192,76080,1,0,0:0:0:50:Snare.wav
192,192,76080,1,0,0:0:0:30:Special Snare.wav
448,192,76080,1,0,0:0:0:0:
320,192,76144,1,0,0:0:0:30:Special Snare.wav
64,192,76208,1,0,0:0:0:30:Special Snare.wav
192,192,76271,1,0,0:0:0:30:Special Snare.wav
64,192,76335,1,4,0:0:0:0:
320,192,76335,128,2,76591:0:0:0:0:
448,192,76335,1,0,0:0:0:0:
64,192,76591,1,2,0:0:0:0:
192,192,76591,1,8,0:0:0:0:
448,192,76591,1,0,0:0:0:0:
192,192,76718,1,0,0:0:0:0:
320,192,76846,1,2,0:0:0:0:
448,192,76846,1,0,0:0:0:0:
192,192,76974,1,0,0:0:0:0:
64,192,77101,1,2,0:0:0:0:
320,192,77101,1,8,0:0:0:0:
448,192,77101,1,0,0:0:0:0:
64,192,77229,1,2,0:0:0:0:
192,192,77229,1,0,0:0:0:0:
320,192,77357,1,2,0:0:0:0:
448,192,77357,1,0,0:0:0:0:
192,192,77442,1,0,0:0:0:0:
320,192,77527,1,0,0:0:0:0:
64,192,77612,1,2,0:0:0:0:
192,192,77612,1,8,0:0:0:0:
448,192,77612,1,0,0:0:0:0:
320,192,77697,1,0,0:0:0:0:
64,192,77782,1,0,0:0:0:0:
192,192,77867,1,2,0:0:0:0:
448,192,77867,1,0,0:0:0:0:
320,192,77952,1,0,0:0:0:0:
192,192,78037,1,0,0:0:0:0:
64,192,78122,1,8,0:0:0:0:
320,192,78122,1,2,0:0:0:0:
448,192,78122,1,0,0:0:0:0:
192,192,78208,1,0,0:0:0:0:
320,192,78293,1,0,0:0:0:0:
64,192,78378,128,2,78463:0:0:0:0:
448,192,78378,1,0,0:0:0:0:
192,192,78463,128,0,78548:0:0:0:0:
320,192,78548,128,0,78633:0:0:0:0:
64,192,78633,128,2,78718:0:0:0:0:
192,192,78633,1,8,0:0:0:0:
448,192,78633,1,0,0:0:0:0:
320,192,78718,128,0,78803:0:0:0:0:
192,192,78803,128,0,78888:0:0:0:0:
64,192,78888,1,2,0:0:0:0:
448,192,78888,128,0,78974:0:0:0:0:
320,192,78974,128,0,79059:0:0:0:0:
192,192,79059,128,0,79144:0:0:0:0:
64,192,79144,1,2,0:0:0:0:
320,192,79144,1,8,0:0:0:0:
448,192,79144,1,0,0:0:0:0:
64,192,79271,1,2,0:0:0:0:
192,192,79271,1,0,0:0:0:0:
320,192,79335,1,2,0:0:0:0:
448,192,79335,1,0,0:0:0:0:
64,192,79399,1,2,0:0:0:0:
192,192,79399,1,0,0:0:0:25:Special Snare.wav
320,192,79463,1,0,0:0:0:25:Special Snare.wav
192,192,79527,1,2,0:0:0:0:
448,192,79527,1,0,0:0:0:25:Special Snare.wav
64,192,79591,1,0,0:0:0:25:Special Snare.wav
320,192,79654,1,2,0:0:0:0:
448,192,79654,1,0,0:0:0:25:Special Snare.wav
192,192,79718,1,0,0:0:0:25:Special Snare.wav
64,192,79782,1,2,0:0:0:0:
448,192,79782,1,0,0:0:0:25:Special Snare.wav
320,192,79846,1,0,0:0:0:25:Special Snare.wav
64,192,79910,1,2,0:0:0:0:
192,192,79910,1,0,0:0:0:25:Special Snare.wav
320,192,79974,1,2,0:0:0:0:
64,192,80037,1,2,0:0:0:0:
448,192,80037,1,0,0:0:0:25:Special Snare.wav
192,192,80101,1,2,0:0:0:0:
320,192,80165,1,2,0:0:0:0:
448,192,80165,1,0,0:0:0:25:Special Snare.wav
64,192,80229,1,2,0:0:0:0:
192,192,80293,1,2,0:0:0:0:
320,192,80293,1,0,0:0:0:25:Special Snare.wav
448,192,80357,1,2,0:0:0:0:
64,192,80420,128,0,80676:0:0:0:0:
448,192,80548,1,0,0:0:0:0:
320,192,80676,1,0,0:0:0:0:
192,192,80761,1,0,0:0:0:0:
320,192,80846,1,0,0:0:0:0:
448,192,80931,128,0,81061:0:0:0:0:
64,192,81061,1,0,0:0:0:0:
192,192,81191,128,0,81322:0:0:0:0:
320,192,81322,1,0,0:0:0:0:
64,192,81452,128,0,81737:0:0:0:0:
448,192,81547,1,0,0:0:0:0:
192,192,81642,1,0,0:0:0:0:
320,192,81737,128,0,82023:0:0:0:0:
448,192,81832,1,0,0:0:0:0:
64,192,81928,1,0,0:0:0:0:
192,192,82023,128,0,82386:0:0:0:0:
448,192,82144,1,0,0:0:0:0:
64,192,82265,1,0,0:0:0:0:
448,192,82386,128,0,82750:0:0:0:0:
320,192,82507,1,0,0:0:0:0:
192,192,82629,1,0,0:0:0:0:
64,192,82750,128,0,83500:0:0:0:0:
320,192,82750,1,0,0:0:0:0:
192,192,82875,1,0,0:0:0:0:
448,192,83000,1,0,0:0:0:0:
320,192,83250,1,0,0:0:0:0:
192,192,83375,1,0,0:0:0:0:
448,192,83500,128,0,83750:0:0:0:0:
320,192,83625,1,0,0:0:0:0:
192,192,83750,128,0,84250:0:0:0:0:
64,192,83875,1,0,0:0:0:0:
448,192,84000,1,0,0:0:0:0:
320,192,84250,128,0,85000:0:0:0:0:
64,192,84375,1,0,0:0:0:0:
448,192,84500,1,0,0:0:0:0:
192,192,84750,1,0,0:0:0:0:
448,192,84875,1,0,0:0:0:0:
64,192,85000,128,0,85250:0:0:0:0:
192,192,85125,1,0,0:0:0:0:
448,192,85250,128,0,85750:0:0:0:0:
320,192,85375,1,0,0:0:0:0:
192,192,85500,1,0,0:0:0:0:
64,192,85625,1,0,0:0:0:0:
320,192,85750,128,0,86750:0:0:0:0:
192,192,86000,1,0,0:0:0:0:
64,192,86250,1,0,0:0:0:0:
448,192,86375,1,0,0:0:0:0:
192,192,86500,1,0,0:0:0:0:
448,192,86625,1,0,0:0:0:0:
64,192,86750,128,0,87250:0:0:0:0:
192,192,86875,1,0,0:0:0:0:
448,192,87000,1,0,0:0:0:0:
192,192,87250,128,0,88625:0:0:0:0:
320,192,87375,1,0,0:0:0:0:
448,192,87500,1,0,0:0:0:0:
64,192,87625,1,0,0:0:0:0:
320,192,87750,1,0,0:0:0:0:
448,192,87875,1,0,0:0:0:0:
320,192,88000,1,0,0:0:0:0:
64,192,88125,1,0,0:0:0:0:
448,192,88250,1,0,0:0:0:0:
320,192,88375,1,0,0:0:0:0:
64,192,88500,1,0,0:0:0:0:
320,192,88625,1,0,0:0:0:0:
448,192,88750,128,0,89250:0:0:0:0:
192,192,89000,1,0,0:0:0:0:
64,192,89250,128,0,89500:0:0:0:0:
320,192,89375,1,0,0:0:0:0:
192,192,89500,128,0,89750:0:0:0:0:
448,192,89625,1,0,0:0:0:0:
320,192,89750,128,0,90250:0:0:0:0:
64,192,89875,1,0,0:0:0:0:
192,192,90000,1,0,0:0:0:0:
64,192,90250,128,0,90750:0:0:0:0:
320,192,90500,1,0,0:0:0:0:
448,192,90750,128,0,91250:0:0:0:0:
192,192,90875,1,0,0:0:0:0:
64,192,91000,1,0,0:0:0:0:
320,192,91125,1,0,0:0:0:0:
192,192,91250,128,0,91750:0:0:0:0:
64,192,91375,1,0,0:0:0:0:
448,192,91500,1,0,0:0:0:0:
320,192,91750,128,0,92750:0:0:0:0:
64,192,92000,1,0,0:0:0:0:
448,192,92250,1,0,0:0:0:0:
64,192,92375,1,0,0:0:0:0:
192,192,92500,1,0,0:0:0:0:
448,192,92625,1,0,0:0:0:0:
64,192,92750,128,0,93250:0:0:0:0:
192,192,92875,1,0,0:0:0:0:
320,192,93000,1,0,0:0:0:0:
192,192,93125,1,0,0:0:0:0:
448,192,93250,128,0,94250:0:0:0:0:
320,192,93375,1,0,0:0:0:0:
192,192,93500,1,0,0:0:0:0:
64,192,93625,1,0,0:0:0:0:
320,192,93750,1,0,0:0:0:0:
192,192,94000,1,0,0:0:0:0:
320,192,94125,1,0,0:0:0:0:
64,192,94250,1,0,0:0:0:0:
192,192,94250,1,0,0:0:0:0:
320,192,94375,1,0,0:0:0:0:
64,192,94750,128,0,95592:0:0:0:0:
448,192,94750,1,0,0:0:0:0:
320,192,95592,128,0,95802:0:0:0:0:
64,192,95802,128,0,96013:0:0:0:0:
192,192,96013,1,0,0:0:0:0:
448,192,96013,128,0,96346:0:0:0:0:
320,192,96346,128,0,96679:0:0:0:0:
192,192,96679,128,0,97013:0:0:0:0:
64,192,97013,1,0,0:0:0:0:
448,192,97013,128,0,97613:0:0:0:0:
320,192,97313,1,0,0:0:0:0:
192,192,97613,128,0,98113:0:0:0:0:
320,192,97913,1,0,0:0:0:0:
64,192,98113,1,0,0:0:0:0:
448,192,98113,128,0,98734:0:0:0:0:
320,192,98343,1,0,0:0:0:0:
64,192,98473,128,0,98604:0:0:0:0:
192,192,98604,128,0,98734:0:0:0:0:
64,192,98734,128,0,98995:0:0:0:0:
320,192,98734,128,0,98865:0:0:0:0:
448,192,98865,128,0,98995:0:0:0:0:
192,192,98995,1,0,0:0:0:0:
320,192,99060,1,0,0:0:0:0:
64,192,99126,1,0,0:0:0:0:
192,192,99191,1,0,0:0:0:0:
448,192,99256,1,0,0:0:0:0:
320,192,99321,1,0,0:0:0:0:
64,192,99386,1,0,0:0:0:0:
192,192,99452,1,0,0:0:0:0:
64,192,99517,1,2,0:0:0:0:
320,192,99517,1,4,0:0:0:0:
448,192,99517,1,0,0:0:0:0:
192,192,99644,1,0,0:0:0:0:
320,192,99708,1,0,0:0:0:0:
64,192,99772,1,2,0:0:0:0:
448,192,99772,1,0,0:0:0:0:
192,192,99836,1,0,0:0:0:0:
320,192,99899,1,0,0:0:0:0:
64,192,99963,1,0,0:0:0:0:
192,192,100027,1,2,0:0:0:0:
448,192,100027,1,0,0:0:0:0:
320,192,100091,1,0,0:0:0:0:
64,192,100155,1,0,0:0:0:0:
192,192,100219,1,0,0:0:0:0:
320,192,100282,1,2,0:0:0:0:
448,192,100282,1,0,0:0:0:0:
64,192,100346,1,0,0:0:0:0:
192,192,100410,1,0,0:0:0:0:
320,192,100474,1,0,0:0:0:0:
192,192,100538,1,2,0:0:0:0:
448,192,100538,1,0,0:0:0:0:
64,192,100602,1,0,0:0:0:0:
320,192,100665,1,0,0:0:0:25:Special Snare.wav
192,192,100729,1,0,0:0:0:25:Special Snare.wav
64,192,100793,1,2,0:0:0:0:
448,192,100793,1,0,0:0:0:25:Special Snare.wav
320,192,100857,1,0,0:0:0:25:Special Snare.wav
192,192,100921,1,0,0:0:0:25:Special Snare.wav
64,192,100985,1,0,0:0:0:25:Special Snare.wav
320,192,101048,1,2,0:0:0:0:
448,192,101048,1,0,0:0:0:25:Special Snare.wav
192,192,101111,1,0,0:0:0:25:Special Snare.wav
64,192,101175,1,2,0:0:0:0:
320,192,101175,1,0,0:0:0:25:Special Snare.wav
448,192,101239,1,0,0:0:0:25:Special Snare.wav
64,192,101303,1,2,0:0:0:0:
192,192,101303,1,0,0:0:0:25:Special Snare.wav
320,192,101367,1,0,0:0:0:25:Special Snare.wav
192,192,101430,1,2,0:0:0:0:
448,192,101430,1,0,0:0:0:25:Special Snare.wav
64,192,101494,1,0,0:0:0:25:Special Snare.wav
320,192,101558,1,2,0:0:0:0:
448,192,101558,1,0,0:0:0:25:Special Snare.wav
192,192,101622,1,0,0:0:0:25:Special Snare.wav
64,192,101686,1,2,0:0:0:0:
448,192,101686,1,0,0:0:0:25:Special Snare.wav
320,192,101750,1,0,0:0:0:25:Special Snare.wav
64,192,101813,1,2,0:0:0:0:
192,192,101813,1,0,0:0:0:25:Special Snare.wav
320,192,101877,1,0,0:0:0:25:Special Snare.wav
64,192,101941,1,2,0:0:0:0:
448,192,101941,1,0,0:0:0:25:Special Snare.wav
192,192,102005,1,0,0:0:0:25:Special Snare.wav
320,192,102069,1,2,0:0:0:0:
448,192,102069,1,0,0:0:0:15:Special Snare.wav
64,192,102133,1,2,0:0:0:0:
192,192,102133,1,0,0:0:0:0:
320,192,102196,1,2,0:0:0:0:
448,192,102196,1,0,0:0:0:15:Special Snare.wav
64,192,102260,1,2,0:0:0:0:
192,192,102260,1,0,0:0:0:0:
320,192,102324,1,2,0:0:0:0:
448,192,102324,1,0,0:0:0:15:Special Snare.wav
64,192,102388,1,2,0:0:0:0:
192,192,102388,1,0,0:0:0:0:
320,192,102452,1,2,0:0:0:0:
448,192,102452,1,0,0:0:0:15:Special Snare.wav
64,192,102516,1,2,0:0:0:0:
192,192,102516,1,0,0:0:0:0:
320,192,102579,1,2,0:0:0:0:
448,192,102579,1,0,0:0:0:15:Special Snare.wav
64,192,102643,1,2,0:0:0:0:
192,192,102643,1,0,0:0:0:0:
320,192,102707,1,2,0:0:0:0:
448,192,102707,1,0,0:0:0:15:Special Snare.wav
64,192,102771,1,2,0:0:0:0:
192,192,102771,1,0,0:0:0:0:
320,192,102835,1,2,0:0:0:0:
448,192,102835,1,0,0:0:0:15:Special Snare.wav
64,192,102899,1,2,0:0:0:0:
192,192,102899,1,0,0:0:0:0:
320,192,102962,1,2,0:0:0:0:
448,192,102962,1,0,0:0:0:15:Special Snare.wav
64,192,103026,1,2,0:0:0:0:
192,192,103026,1,0,0:0:0:0:
320,192,103090,1,2,0:0:0:0:
448,192,103090,1,0,0:0:0:15:Special Snare.wav
64,192,103218,1,0,0:0:0:0:
192,192,103218,1,0,0:0:0:0:
64,192,103345,1,0,0:0:0:0:
320,192,103345,1,0,0:0:0:0:
64,192,103473,1,0,0:0:0:0:
448,192,103473,1,0,0:0:0:0:
192,192,103601,1,0,0:0:0:0:
448,192,103601,1,0,0:0:0:0:
320,192,103728,1,0,0:0:0:0:
448,192,103728,1,0,0:0:0:0:
64,192,103856,1,0,0:0:0:0:
192,192,103856,1,0,0:0:0:0:
192,192,103984,1,0,0:0:0:0:
320,192,103984,1,0,0:0:0:0:
320,192,104111,1,0,0:0:0:40:Kick-Snare.wav
448,192,104111,1,0,0:0:0:0:
64,192,104175,1,0,0:0:0:40:Kick-Snare.wav
192,192,104175,1,0,0:0:0:0:
320,192,104239,1,0,0:0:0:40:Kick-Snare.wav
448,192,104239,1,0,0:0:0:0:
64,192,104303,1,0,0:0:0:40:Kick-Snare.wav
192,192,104303,1,0,0:0:0:0:
320,192,104367,1,0,0:0:0:40:Kick-Snare.wav
448,192,104367,1,0,0:0:0:0:
64,192,104430,1,0,0:0:0:40:Kick-Snare.wav
192,192,104430,1,0,0:0:0:0:
320,192,104494,1,0,0:0:0:40:Kick-Snare.wav
448,192,104494,1,0,0:0:0:0:
64,192,104558,1,0,0:0:0:40:Kick-Snare.wav
192,192,104558,1,0,0:0:0:0:
320,192,104622,1,0,0:0:0:40:Kick-Snare.wav
448,192,104622,1,0,0:0:0:0:
64,192,104750,1,0,0:0:0:40:Kick-Snare.wav
192,192,104750,1,0,0:0:0:0:
448,192,104813,1,0,0:0:0:0:
64,192,104877,1,4,0:0:0:0:
192,192,104877,1,0,0:0:0:40:Kick-Snare.wav
320,192,104877,1,0,0:0:0:0:
448,192,104941,1,0,0:0:0:0:
320,192,105005,1,0,0:0:0:0:
192,192,105069,1,0,0:0:0:0:
64,192,105133,128,2,105388:0:0:0:0:
320,192,105133,1,4,0:0:0:0:
448,192,105133,1,0,0:0:0:0:
192,192,105388,1,2,0:0:0:0:
320,192,105388,1,8,0:0:0:0:
448,192,105388,1,0,0:0:0:0:
192,192,105516,1,0,0:0:0:0:
64,192,105643,1,2,0:0:0:0:
448,192,105643,1,0,0:0:0:0:
320,192,105707,1,0,0:0:0:0:
192,192,105771,1,0,0:0:0:0:
320,192,105835,1,0,0:0:0:0:
64,192,105899,1,8,0:0:0:0:
192,192,105899,1,2,0:0:0:0:
448,192,105899,1,0,0:0:0:0:
64,192,106026,1,2,0:0:0:0:
320,192,106026,1,0,0:0:0:0:
192,192,106154,1,2,0:0:0:0:
448,192,106154,1,0,0:0:0:0:
320,192,106239,1,0,0:0:0:0:
192,192,106324,1,0,0:0:0:0:
64,192,106409,1,2,0:0:0:0:
320,192,106409,1,8,0:0:0:0:
448,192,106409,1,0,0:0:0:0:
192,192,106494,1,0,0:0:0:0:
320,192,106579,1,0,0:0:0:0:
64,192,106665,1,2,0:0:0:0:
448,192,106665,1,0,0:0:0:0:
192,192,106728,1,2,0:0:0:0:
320,192,106792,1,2,0:0:0:0:
448,192,106792,1,0,0:0:0:0:
192,192,106856,1,2,0:0:0:0:
64,192,106920,1,2,0:0:0:0:
320,192,106920,1,8,0:0:0:0:
448,192,106920,1,0,0:0:0:0:
192,192,107005,1,0,0:0:0:0:
320,192,107090,1,0,0:0:0:0:
64,192,107175,1,2,0:0:0:0:
192,192,107175,128,0,107260:0:0:0:0:
448,192,107260,128,0,107345:0:0:0:0:
320,192,107345,128,0,107430:0:0:0:0:
64,192,107430,128,8,107516:0:0:0:0:
192,192,107430,1,2,0:0:0:0:
448,192,107430,1,0,0:0:0:0:
320,192,107516,128,0,107601:0:0:0:0:
192,192,107601,128,0,107686:0:0:0:0:
64,192,107686,1,2,0:0:0:0:
448,192,107686,1,0,0:0:0:0:
320,192,107813,1,0,0:0:0:0:
192,192,107877,1,0,0:0:0:0:
64,192,107941,1,8,0:0:0:0:
320,192,107941,1,2,0:0:0:0:
448,192,107941,1,0,0:0:0:0:
64,192,108069,1,2,0:0:0:0:
192,192,108069,1,0,0:0:0:0:
320,192,108133,1,2,0:0:0:0:
448,192,108133,1,0,0:0:0:0:
64,192,108196,1,2,0:0:0:0:
192,192,108196,1,0,0:0:0:25:Special Snare.wav
448,192,108260,1,0,0:0:0:25:Special Snare.wav
192,192,108324,1,2,0:0:0:0:
320,192,108324,1,0,0:0:0:25:Special Snare.wav
64,192,108388,1,0,0:0:0:25:Special Snare.wav
320,192,108452,1,2,0:0:0:0:
448,192,108452,1,0,0:0:0:25:Special Snare.wav
192,192,108516,1,0,0:0:0:25:Special Snare.wav
64,192,108579,1,2,0:0:0:0:
448,192,108579,1,0,0:0:0:25:Special Snare.wav
320,192,108643,1,0,0:0:0:25:Special Snare.wav
192,192,108707,128,0,108792:0:0:0:0:
320,192,108792,128,0,108877:0:0:0:0:
64,192,108877,128,0,108962:0:0:0:0:
448,192,108962,1,0,0:0:0:0:
320,192,108994,1,0,0:0:0:0:
192,192,109026,1,0,0:0:0:0:
64,192,109058,1,0,0:0:0:0:
448,192,109090,1,0,0:0:0:0:
320,192,109122,1,0,0:0:0:0:
192,192,109154,1,0,0:0:0:0:
64,192,109186,1,0,0:0:0:0:
320,192,109218,1,4,0:0:0:0:
448,192,109218,1,2,0:0:0:0:
192,192,109345,1,0,0:0:0:0:
320,192,109409,1,0,0:0:0:0:
64,192,109473,1,8,0:0:0:0:
192,192,109473,1,0,0:0:0:0:
448,192,109473,1,0,0:0:0:0:
320,192,109537,1,0,0:0:0:0:
64,192,109600,1,2,0:0:0:0:
448,192,109600,1,0,0:0:0:0:
192,192,109728,1,0,0:0:0:0:
320,192,109792,1,0,0:0:0:0:
64,192,109856,1,8,0:0:0:0:
192,192,109856,1,0,0:0:0:0:
448,192,109856,1,0,0:0:0:0:
320,192,109920,1,0,0:0:0:0:
64,192,109983,1,2,0:0:0:0:
448,192,109983,1,0,0:0:0:0:
320,192,110111,1,0,0:0:0:0:
192,192,110175,1,0,0:0:0:0:
64,192,110239,1,2,0:0:0:0:
448,192,110239,1,0,0:0:0:0:
320,192,110366,1,0,0:0:0:0:
64,192,110494,1,2,0:0:0:0:
192,192,110494,1,0,0:0:0:0:
448,192,110622,1,0,0:0:0:0:
320,192,110686,1,0,0:0:0:0:
64,192,110749,1,8,0:0:0:0:
192,192,110749,1,0,0:0:0:0:
448,192,110749,1,0,0:0:0:0:
320,192,110813,1,0,0:0:0:0:
64,192,110877,1,2,0:0:0:0:
448,192,110877,1,0,0:0:0:0:
192,192,110941,1,0,0:0:0:0:
320,192,111005,1,0,0:0:0:0:
192,192,111069,1,0,0:0:0:0:
64,192,111132,1,8,0:0:0:0:
320,192,111132,1,0,0:0:0:0:
448,192,111132,1,0,0:0:0:0:
64,192,111260,1,2,0:0:0:0:
192,192,111260,1,0,0:0:0:0:
320,192,111324,1,2,0:0:0:0:
448,192,111324,1,0,0:0:0:0:
64,192,111388,1,2,0:0:0:0:
192,192,111388,1,0,0:0:0:0:
448,192,111452,1,0,0:0:0:0:
192,192,111515,1,8,0:0:0:15:soft-hitclap.wav
320,192,111515,1,0,0:0:0:0:
64,192,111579,1,8,0:0:0:15:soft-hitclap.wav
448,192,111643,1,8,0:0:0:15:soft-hitclap.wav
320,192,111707,1,8,0:0:0:15:soft-hitclap.wav
64,192,111771,1,2,0:0:0:0:
192,192,111771,1,0,0:0:0:50:Short-finish.wav
320,192,111856,1,2,0:0:0:0:
448,192,111856,1,0,0:0:0:0:
64,192,111941,1,2,0:0:0:0:
192,192,111941,1,0,0:0:0:0:
448,192,112026,1,2,0:0:0:0:
320,192,112069,1,2,0:0:0:0:
64,192,112111,1,2,0:0:0:0:
192,192,112154,1,2,0:0:0:0:
448,192,112196,1,2,0:0:0:0:
320,192,112239,1,2,0:0:0:0:
64,192,112281,1,0,0:0:0:30:Kick.wav
192,192,112281,128,0,112366:0:0:0:50:Short-finish.wav
320,192,112366,128,0,112452:0:0:0:0:
448,192,112452,128,0,112537:0:0:0:0:
64,192,112537,1,2,0:0:0:0:
192,192,112537,1,0,0:0:0:50:Short-finish.wav
320,192,112622,1,2,0:0:0:0:
448,192,112622,1,0,0:0:0:0:
64,192,112707,1,2,0:0:0:0:
192,192,112707,1,0,0:0:0:0:
320,192,112792,128,2,112877:0:0:0:0:
448,192,112792,1,0,0:0:0:50:Short-finish.wav
192,192,112877,128,0,112962:0:0:0:0:
320,192,112962,128,2,113047:0:0:0:0:
64,192,113047,1,2,0:0:0:0:
448,192,113047,1,0,0:0:0:50:Short-finish.wav
192,192,113132,1,2,0:0:0:0:
320,192,113132,1,0,0:0:0:0:
64,192,113218,1,2,0:0:0:0:
448,192,113218,1,0,0:0:0:0:
192,192,113303,1,2,0:0:0:0:
320,192,113345,1,2,0:0:0:0:
448,192,113388,1,2,0:0:0:0:
64,192,113430,1,2,0:0:0:0:
192,192,113473,1,2,0:0:0:0:
320,192,113515,1,2,0:0:0:0:
64,192,113558,128,0,113643:0:0:0:30:Kick.wav
448,192,113558,1,0,0:0:0:50:Short-finish.wav
192,192,113643,128,0,113728:0:0:0:0:
320,192,113728,128,0,113813:0:0:0:0:
64,192,113813,1,2,0:0:0:0:
192,192,113813,1,0,0:0:0:50:Short-finish.wav
448,192,113813,1,0,0:0:0:0:
320,192,113941,1,2,0:0:0:0:
448,192,113941,1,0,0:0:0:0:
192,192,114069,1,2,0:0:0:0:
320,192,114069,1,0,0:0:0:50:Short-finish.wav
64,192,114196,1,2,0:0:0:0:
192,192,114196,1,0,0:0:0:0:
320,192,114324,1,0,0:0:0:0:
448,192,114324,1,0,0:0:0:0:
64,192,114785,128,2,116572:0:0:0:0:
320,192,114785,1,4,0:0:0:0:
448,192,114785,128,0,115806:0:0:0:0:
192,192,115295,1,2,0:0:0:0:
320,192,115295,1,0,0:0:0:0:
192,192,115678,1,2,0:0:0:0:
320,192,115678,1,0,0:0:0:0:
192,192,115806,128,0,116827:0:0:0:0:
320,192,116061,1,2,0:0:0:0:
448,192,116061,1,0,0:0:0:0:
320,192,116316,1,2,0:0:0:0:
448,192,116316,1,0,0:0:0:0:
320,192,116572,1,2,0:0:0:0:
448,192,116572,1,0,0:0:0:0:
320,192,116827,128,0,117082:0:0:0:0:
64,192,116954,1,2,0:0:0:0:
448,192,116954,1,0,0:0:0:0:
192,192,117082,128,0,117210:0:0:0:0:
448,192,117210,1,0,0:0:0:0:
320,192,117274,1,0,0:0:0:0:
64,192,117337,1,2,0:0:0:0:
192,192,117337,1,0,0:0:0:0:
448,192,117401,1,0,0:0:0:0:
64,192,117465,1,2,0:0:0:0:
320,192,117465,1,0,0:0:0:0:
192,192,117529,1,0,0:0:0:0:
320,192,117593,1,2,0:0:0:0:
448,192,117593,1,0,0:0:0:0:
64,192,117657,1,0,0:0:0:0:
192,192,117720,1,2,0:0:0:0:
448,192,117720,1,0,0:0:0:0:
320,192,117784,1,0,0:0:0:0:
64,192,117848,1,2,0:0:0:0:
192,192,117848,1,0,0:0:0:0:
320,192,117912,1,0,0:0:0:0:
64,192,117976,1,2,0:0:0:0:
448,192,117976,1,0,0:0:0:0:
192,192,118040,1,0,0:0:0:0:
320,192,118103,1,2,0:0:0:0:
448,192,118103,1,0,0:0:0:0:
192,192,118167,1,0,0:0:0:0:
64,192,118231,1,2,0:0:0:0:
448,192,118231,1,0,0:0:0:0:
320,192,118295,1,0,0:0:0:0:
64,192,118359,1,2,0:0:0:0:
192,192,118359,1,0,0:0:0:0:
320,192,118423,1,2,0:0:0:0:
448,192,118423,1,0,0:0:0:0:
64,192,118486,1,2,0:0:0:0:
192,192,118486,1,0,0:0:0:0:
320,192,118550,1,2,0:0:0:0:
448,192,118550,1,0,0:0:0:0:
