osu file format v14

[General]
AudioFilename: audio.mp3
AudioLeadIn: 0
PreviewTime: 64695
Countdown: 0
SampleSet: Soft
StackLeniency: 0.7
Mode: 3
LetterboxInBreaks: 0
SpecialStyle: 0
WidescreenStoryboard: 1

[Editor]
DistanceSpacing: 1.2
BeatDivisor: 4
GridSize: 4
TimelineZoom: 1.6

[Metadata]
Title:Shukufuku no shikisai wa omoi musubu kimitachi made
TitleUnicode:祝福の色彩は想い結ぶ君たち迄
Artist:Yu-dachi
ArtistUnicode:Yu-dachi
Creator:DesKurisu
Version:HAPPINESS
Source:SOUND VOLTEX IV HEAVENLY HAVEN
Tags:The 8th KAC Original Song Contest オリジナル楽曲コンテスト 10K
BeatmapID:2030993
BeatmapSetID:970402

[Difficulty]
HPDrainRate:8
CircleSize:10
OverallDifficulty:8
ApproachRate:5
SliderMultiplier:1.4
SliderTickRate:1

[Events]
//Background and Video events
0,0,"Shukufuku no shikisai wa omoi musubu kimitachi.png",0,0
//Break Periods
//Storyboard Layer 0 (Background)
//Storyboard Layer 1 (Fail)
//Storyboard Layer 2 (Pass)
//Storyboard Layer 3 (Foreground)
//Storyboard Sound Samples

[TimingPoints]
5465,255.31914893617,4,2,1,0,1,0
21805,255.31914893617,3,2,1,0,1,0
34060,255.31914893617,5,2,1,0,1,0
44272,255.31914893617,4,2,1,0,1,0
58569,255.31914893617,7,2,1,0,1,0
62143,255.31914893617,3,2,1,0,1,0
63674,255.31914893617,4,2,1,0,1,0
64695,255.31914893617,3,2,1,0,1,0
65465,255.31914893617,4,2,1,0,1,1
80274,260.869565217391,4,2,1,0,1,0
80274,-98.0392156862745,4,2,1,0,0,0
80795,285.714285714286,4,2,1,0,1,0
80795,-89.2857142857143,4,2,1,0,0,0
81366,363.636363636364,4,2,1,0,1,0
81366,-70.4225352112676,4,2,1,0,0,0
82093,500,3,2,1,0,1,0
82093,-51.0204081632653,3,2,1,0,0,0
94093,631.578947368421,4,2,1,0,1,0
94093,-40.4858299595142,4,2,1,0,0,0
95356,333.333333333333,4,2,1,0,1,0
95356,-76.3358778625954,4,2,1,0,0,0
96356,300,4,2,1,0,1,0
96356,-84.7457627118644,4,2,1,0,0,0
97443,260.869565217391,3,2,1,0,1,0
97443,-98.0392156862745,3,2,1,0,0,0
98877,255.31914893617,3,2,1,0,1,0
100408,255.31914893617,4,2,1,0,1,1
108578,255.31914893617,5,2,1,0,1,1
113685,461.538461538462,3,2,1,0,1,0
113685,-55.5555555555556,3,2,1,0,0,0
114146,255.31914893617,5,2,1,0,1,1
117975,-100,5,2,1,0,0,0

[HitObjects]
435,192,5465,5,0,0:0:0:0:
230,192,5465,1,0,0:0:0:0:
384,192,5592,1,0,0:0:0:0:
179,192,5592,1,0,0:0:0:0:
332,192,5720,1,0,0:0:0:0:
128,192,5720,1,0,0:0:0:0:
281,192,5847,1,0,0:0:0:0:
76,192,5847,1,0,0:0:0:0:
25,192,5975,1,0,0:0:0:0:
128,192,6103,1,0,0:0:0:0:
332,192,6103,1,0,0:0:0:0:
76,192,6230,1,0,0:0:0:0:
179,192,6358,1,0,0:0:0:0:
332,192,6358,1,0,0:0:0:0:
128,192,6613,1,0,0:0:0:0:
486,192,6613,1,0,0:0:0:0:
230,192,6741,1,0,0:0:0:0:
435,192,6741,1,0,0:0:0:0:
179,192,6869,1,0,0:0:0:0:
332,192,6869,1,0,0:0:0:0:
128,192,6996,1,0,0:0:0:0:
384,192,6996,1,0,0:0:0:0:
76,192,7124,1,0,0:0:0:0:
281,192,7124,1,0,0:0:0:0:
230,192,7252,1,0,0:0:0:0:
435,192,7252,1,0,0:0:0:0:
25,192,7379,1,0,0:0:0:0:
332,192,7379,1,0,0:0:0:0:
230,192,7507,1,0,0:0:0:0:
486,192,7507,1,0,0:0:0:0:
384,192,7507,1,0,0:0:0:0:
179,192,7571,1,0,0:0:0:0:
128,192,7635,1,0,0:0:0:0:
76,192,7699,1,0,0:0:0:0:
25,192,7890,1,0,0:0:0:0:
384,192,7890,1,0,0:0:0:0:
281,192,7890,1,0,0:0:0:0:
76,192,7954,1,0,0:0:0:0:
128,192,8018,1,0,0:0:0:0:
179,192,8082,1,0,0:0:0:0:
230,192,8273,1,0,0:0:0:0:
281,192,8273,1,0,0:0:0:0:
486,192,8273,1,0,0:0:0:0:
179,192,8337,1,0,0:0:0:0:
76,192,8401,1,0,0:0:0:0:
25,192,8465,1,0,0:0:0:0:
486,192,8656,1,0,0:0:0:0:
435,192,8656,1,0,0:0:0:0:
230,192,8656,1,0,0:0:0:0:
384,192,8656,1,0,0:0:0:0:
179,192,8688,1,0,0:0:0:0:
128,192,8720,1,0,0:0:0:0:
76,192,8752,1,0,0:0:0:0:
25,192,8784,1,0,0:0:0:0:
435,192,8784,1,0,0:0:0:0:
384,192,8784,1,0,0:0:0:0:
332,192,8784,1,0,0:0:0:0:
25,192,8911,1,0,0:0:0:0:
281,192,8911,1,0,0:0:0:0:
332,192,8911,1,0,0:0:0:0:
384,192,8911,1,0,0:0:0:0:
76,192,8943,1,0,0:0:0:0:
128,192,8975,1,0,0:0:0:0:
179,192,9007,1,0,0:0:0:0:
486,192,9039,1,0,0:0:0:0:
230,192,9039,1,0,0:0:0:0:
435,192,9039,1,0,0:0:0:0:
384,192,9039,1,0,0:0:0:0:
230,192,9167,1,0,0:0:0:0:
486,192,9167,1,0,0:0:0:0:
384,192,9167,1,0,0:0:0:0:
332,192,9167,1,0,0:0:0:0:
179,192,9199,1,0,0:0:0:0:
128,192,9230,1,0,0:0:0:0:
76,192,9262,1,0,0:0:0:0:
281,192,9294,1,0,0:0:0:0:
25,192,9294,1,0,0:0:0:0:
486,192,9294,1,0,0:0:0:0:
332,192,9294,1,0,0:0:0:0:
230,192,9422,1,0,0:0:0:0:
486,192,9422,1,0,0:0:0:0:
384,192,9422,1,0,0:0:0:0:
435,192,9422,1,0,0:0:0:0:
25,192,9550,1,0,0:0:0:0:
128,192,9550,1,0,0:0:0:0:
230,192,9550,1,0,0:0:0:0:
332,192,9550,128,0,9805:0:0:0:0:
384,192,9677,128,0,9805:0:0:0:0:
435,192,9805,1,0,0:0:0:0:
25,192,9805,1,0,0:0:0:0:
230,192,9805,1,0,0:0:0:0:
281,192,9933,1,0,0:0:0:0:
384,192,9933,1,0,0:0:0:0:
486,192,9933,1,0,0:0:0:0:
76,192,9933,128,0,10188:0:0:0:0:
128,192,10060,128,0,10188:0:0:0:0:
332,192,10188,1,0,0:0:0:0:
435,192,10188,1,0,0:0:0:0:
179,192,10188,1,0,0:0:0:0:
25,192,10316,1,0,0:0:0:0:
128,192,10316,1,0,0:0:0:0:
230,192,10316,1,0,0:0:0:0:
332,192,10316,128,0,10571:0:0:0:0:
384,192,10443,128,0,10571:0:0:0:0:
76,192,10571,1,0,0:0:0:0:
179,192,10571,1,0,0:0:0:0:
435,192,10571,1,0,0:0:0:0:
281,192,10699,1,0,0:0:0:0:
384,192,10699,1,0,0:0:0:0:
486,192,10699,1,0,0:0:0:0:
76,192,10699,128,0,10954:0:0:0:0:
128,192,10826,128,0,10954:0:0:0:0:
435,192,10954,1,0,0:0:0:0:
332,192,10954,1,0,0:0:0:0:
179,192,10954,1,0,0:0:0:0:
230,192,11082,1,0,0:0:0:0:
128,192,11082,1,0,0:0:0:0:
25,192,11082,1,0,0:0:0:0:
384,192,11082,128,0,11337:0:0:0:0:
281,192,11209,128,0,11337:0:0:0:0:
25,192,11337,1,0,0:0:0:0:
128,192,11337,1,0,0:0:0:0:
230,192,11337,1,0,0:0:0:0:
435,192,11337,128,0,11592:0:0:0:0:
179,192,11464,1,0,0:0:0:0:
76,192,11464,1,0,0:0:0:0:
332,192,11464,128,0,11592:0:0:0:0:
128,192,11528,1,0,0:0:0:0:
486,192,11592,1,0,0:0:0:0:
435,192,11762,1,0,0:0:0:0:
435,192,11847,1,0,0:0:0:0:
384,192,12018,1,0,0:0:0:0:
384,192,12103,1,0,0:0:0:0:
332,192,12273,1,0,0:0:0:0:
332,192,12358,1,0,0:0:0:0:
281,192,12528,1,0,0:0:0:0:
281,192,12613,1,0,0:0:0:0:
25,192,12613,1,0,0:0:0:0:
76,192,12699,1,0,0:0:0:0:
332,192,12699,1,0,0:0:0:0:
128,192,12784,1,0,0:0:0:0:
384,192,12784,1,0,0:0:0:0:
25,192,12869,1,0,0:0:0:0:
281,192,12869,1,0,0:0:0:0:
76,192,12954,1,0,0:0:0:0:
332,192,12954,1,0,0:0:0:0:
179,192,13039,1,0,0:0:0:0:
435,192,13039,1,0,0:0:0:0:
76,192,13124,1,0,0:0:0:0:
332,192,13124,1,0,0:0:0:0:
128,192,13209,1,0,0:0:0:0:
384,192,13209,1,0,0:0:0:0:
179,192,13294,1,0,0:0:0:0:
435,192,13294,1,0,0:0:0:0:
76,192,13379,1,0,0:0:0:0:
332,192,13379,1,0,0:0:0:0:
128,192,13464,1,0,0:0:0:0:
384,192,13464,1,0,0:0:0:0:
179,192,13550,1,0,0:0:0:0:
435,192,13550,1,0,0:0:0:0:
230,192,13635,1,0,0:0:0:0:
486,192,13635,1,0,0:0:0:0:
281,192,13635,1,0,0:0:0:0:
25,192,13635,1,0,0:0:0:0:
76,192,13635,1,0,0:0:0:0:
332,192,13720,1,0,0:0:0:0:
384,192,13805,1,0,0:0:0:0:
435,192,13890,1,0,0:0:0:0:
25,192,13890,1,0,0:0:0:0:
230,192,13890,1,0,0:0:0:0:
179,192,13890,1,0,0:0:0:0:
281,192,13890,1,0,0:0:0:0:
384,192,13975,1,0,0:0:0:0:
332,192,14060,1,0,0:0:0:0:
281,192,14145,1,0,0:0:0:0:
25,192,14145,1,0,0:0:0:0:
230,192,14145,1,0,0:0:0:0:
486,192,14145,1,0,0:0:0:0:
332,192,14230,1,0,0:0:0:0:
76,192,14230,1,0,0:0:0:0:
179,192,14230,1,0,0:0:0:0:
384,192,14316,1,0,0:0:0:0:
128,192,14316,1,0,0:0:0:0:
435,192,14401,1,0,0:0:0:0:
179,192,14401,1,0,0:0:0:0:
230,192,14401,1,0,0:0:0:0:
281,192,14401,1,0,0:0:0:0:
128,192,14464,1,0,0:0:0:0:
384,192,14486,1,0,0:0:0:0:
76,192,14528,1,0,0:0:0:0:
332,192,14571,1,0,0:0:0:0:
25,192,14592,1,0,0:0:0:0:
281,192,14656,1,0,0:0:0:0:
128,192,14656,1,0,0:0:0:0:
179,192,14656,1,0,0:0:0:0:
230,192,14656,1,0,0:0:0:0:
486,192,14656,1,0,0:0:0:0:
332,192,14741,1,0,0:0:0:0:
384,192,14826,1,0,0:0:0:0:
25,192,14826,1,0,0:0:0:0:
128,192,14826,1,0,0:0:0:0:
435,192,14911,1,0,0:0:0:0:
281,192,14911,1,0,0:0:0:0:
384,192,14996,1,0,0:0:0:0:
76,192,14996,1,0,0:0:0:0:
179,192,14996,1,0,0:0:0:0:
332,192,15082,1,0,0:0:0:0:
281,192,15167,1,0,0:0:0:0:
230,192,15167,1,0,0:0:0:0:
128,192,15167,1,0,0:0:0:0:
25,192,15167,1,0,0:0:0:0:
486,192,15167,1,0,0:0:0:0:
332,192,15252,1,0,0:0:0:0:
384,192,15337,1,0,0:0:0:0:
76,192,15337,1,0,0:0:0:0:
179,192,15337,1,0,0:0:0:0:
435,192,15422,1,0,0:0:0:0:
281,192,15422,1,0,0:0:0:0:
384,192,15507,1,0,0:0:0:0:
128,192,15507,1,0,0:0:0:0:
230,192,15507,1,0,0:0:0:0:
332,192,15592,1,0,0:0:0:0:
25,192,15677,1,0,0:0:0:0:
281,192,15677,1,0,0:0:0:0:
435,192,15677,1,0,0:0:0:0:
486,192,15677,1,0,0:0:0:0:
230,192,15677,1,0,0:0:0:0:
76,192,15762,1,0,0:0:0:0:
128,192,15847,1,0,0:0:0:0:
179,192,15933,1,0,0:0:0:0:
486,192,15933,1,0,0:0:0:0:
332,192,15933,1,0,0:0:0:0:
281,192,15933,1,0,0:0:0:0:
25,192,15933,1,0,0:0:0:0:
128,192,16018,1,0,0:0:0:0:
76,192,16103,1,0,0:0:0:0:
25,192,16188,1,0,0:0:0:0:
486,192,16188,1,0,0:0:0:0:
281,192,16188,1,0,0:0:0:0:
230,192,16188,1,0,0:0:0:0:
76,192,16273,1,0,0:0:0:0:
332,192,16273,1,0,0:0:0:0:
435,192,16273,1,0,0:0:0:0:
128,192,16358,1,0,0:0:0:0:
384,192,16358,1,0,0:0:0:0:
179,192,16443,1,0,0:0:0:0:
435,192,16443,1,0,0:0:0:0:
486,192,16443,1,0,0:0:0:0:
25,192,16443,1,0,0:0:0:0:
384,192,16507,1,0,0:0:0:0:
128,192,16528,1,0,0:0:0:0:
332,192,16571,1,0,0:0:0:0:
76,192,16613,1,0,0:0:0:0:
281,192,16635,1,0,0:0:0:0:
25,192,16699,1,0,0:0:0:0:
384,192,16699,1,0,0:0:0:0:
435,192,16699,1,0,0:0:0:0:
486,192,16699,1,0,0:0:0:0:
230,192,16699,1,0,0:0:0:0:
76,192,16784,1,0,0:0:0:0:
128,192,16869,1,0,0:0:0:0:
281,192,16869,1,0,0:0:0:0:
384,192,16869,1,0,0:0:0:0:
179,192,16954,1,0,0:0:0:0:
25,192,16954,1,0,0:0:0:0:
128,192,17039,1,0,0:0:0:0:
332,192,17039,1,0,0:0:0:0:
435,192,17039,1,0,0:0:0:0:
76,192,17124,1,0,0:0:0:0:
25,192,17209,1,0,0:0:0:0:
486,192,17209,1,0,0:0:0:0:
384,192,17209,1,0,0:0:0:0:
281,192,17209,1,0,0:0:0:0:
230,192,17209,1,0,0:0:0:0:
76,192,17294,1,0,0:0:0:0:
128,192,17379,1,0,0:0:0:0:
332,192,17379,1,0,0:0:0:0:
435,192,17379,1,0,0:0:0:0:
179,192,17464,1,0,0:0:0:0:
25,192,17464,1,0,0:0:0:0:
128,192,17550,1,0,0:0:0:0:
384,192,17550,1,0,0:0:0:0:
486,192,17550,1,0,0:0:0:0:
76,192,17635,1,0,0:0:0:0:
281,192,17720,1,0,0:0:0:0:
435,192,17720,1,0,0:0:0:0:
486,192,17720,1,0,0:0:0:0:
384,192,17720,1,0,0:0:0:0:
25,192,17720,1,0,0:0:0:0:
230,192,17720,1,0,0:0:0:0:
76,192,17805,1,0,0:0:0:0:
179,192,17890,1,0,0:0:0:0:
486,192,17975,1,0,0:0:0:0:
281,192,17975,1,0,0:0:0:0:
384,192,17975,1,0,0:0:0:0:
332,192,17975,1,0,0:0:0:0:
230,192,17975,1,0,0:0:0:0:
25,192,17975,1,0,0:0:0:0:
179,192,18060,1,0,0:0:0:0:
76,192,18145,1,0,0:0:0:0:
486,192,18230,1,0,0:0:0:0:
332,192,18230,1,0,0:0:0:0:
384,192,18230,1,0,0:0:0:0:
435,192,18230,1,0,0:0:0:0:
230,192,18230,1,0,0:0:0:0:
25,192,18230,1,0,0:0:0:0:
179,192,18316,1,0,0:0:0:0:
486,192,18401,1,0,0:0:0:0:
435,192,18401,1,0,0:0:0:0:
384,192,18401,1,0,0:0:0:0:
281,192,18401,1,0,0:0:0:0:
76,192,18401,1,0,0:0:0:0:
128,192,18401,1,0,0:0:0:0:
25,192,18486,1,0,0:0:0:0:
281,192,18571,1,0,0:0:0:0:
332,192,18571,1,0,0:0:0:0:
435,192,18571,1,0,0:0:0:0:
486,192,18571,1,0,0:0:0:0:
128,192,18571,1,0,0:0:0:0:
179,192,18571,1,0,0:0:0:0:
76,192,18656,1,0,0:0:0:0:
281,192,18741,1,0,0:0:0:0:
179,192,18741,1,0,0:0:0:0:
128,192,18741,1,0,0:0:0:0:
25,192,18741,1,0,0:0:0:0:
230,192,18741,1,0,0:0:0:0:
332,192,18741,1,0,0:0:0:0:
384,192,18826,1,0,0:0:0:0:
25,192,18911,1,0,0:0:0:0:
76,192,18911,1,0,0:0:0:0:
230,192,18911,1,0,0:0:0:0:
179,192,18911,1,0,0:0:0:0:
486,192,18911,1,0,0:0:0:0:
435,192,18911,1,0,0:0:0:0:
384,192,18996,1,0,0:0:0:0:
230,192,19082,1,0,0:0:0:0:
76,192,19082,1,0,0:0:0:0:
25,192,19082,1,0,0:0:0:0:
128,192,19082,1,0,0:0:0:0:
281,192,19082,1,0,0:0:0:0:
332,192,19082,1,0,0:0:0:0:
384,192,19167,1,0,0:0:0:0:
179,192,19252,1,0,0:0:0:0:
128,192,19252,1,0,0:0:0:0:
76,192,19252,1,0,0:0:0:0:
25,192,19252,1,0,0:0:0:0:
435,192,19252,1,0,0:0:0:0:
486,192,19252,1,0,0:0:0:0:
332,192,19337,1,0,0:0:0:0:
25,192,19422,1,0,0:0:0:0:
76,192,19422,1,0,0:0:0:0:
128,192,19422,1,0,0:0:0:0:
230,192,19422,1,0,0:0:0:0:
384,192,19422,1,0,0:0:0:0:
435,192,19422,1,0,0:0:0:0:
281,192,19507,1,0,0:0:0:0:
230,192,19592,1,0,0:0:0:0:
179,192,19592,1,0,0:0:0:0:
76,192,19592,1,0,0:0:0:0:
25,192,19592,1,0,0:0:0:0:
332,192,19592,1,0,0:0:0:0:
384,192,19592,1,0,0:0:0:0:
486,192,19677,1,0,0:0:0:0:
128,192,19762,1,0,0:0:0:0:
179,192,19762,1,0,0:0:0:0:
230,192,19762,1,0,0:0:0:0:
25,192,19762,1,0,0:0:0:0:
435,192,19762,1,0,0:0:0:0:
281,192,19762,1,0,0:0:0:0:
384,192,19847,1,0,0:0:0:0:
332,192,19933,1,0,0:0:0:0:
76,192,19933,1,0,0:0:0:0:
435,192,20018,1,0,0:0:0:0:
230,192,20018,1,0,0:0:0:0:
25,192,20018,1,0,0:0:0:0:
486,192,20018,1,0,0:0:0:0:
384,192,20103,1,0,0:0:0:0:
179,192,20103,1,0,0:0:0:0:
281,192,20188,1,0,0:0:0:0:
128,192,20188,1,0,0:0:0:0:
435,192,20273,1,0,0:0:0:0:
76,192,20273,1,0,0:0:0:0:
25,192,20273,1,0,0:0:0:0:
384,192,20273,1,0,0:0:0:0:
332,192,20358,1,0,0:0:0:0:
281,192,20443,1,0,0:0:0:0:
179,192,20443,1,0,0:0:0:0:
384,192,20528,1,0,0:0:0:0:
230,192,20528,1,0,0:0:0:0:
25,192,20528,1,0,0:0:0:0:
486,192,20528,1,0,0:0:0:0:
332,192,20613,1,0,0:0:0:0:
76,192,20613,1,0,0:0:0:0:
281,192,20699,1,0,0:0:0:0:
128,192,20699,1,0,0:0:0:0:
179,192,20784,1,0,0:0:0:0:
230,192,20784,1,0,0:0:0:0:
384,192,20784,1,0,0:0:0:0:
435,192,20784,1,0,0:0:0:0:
486,192,20784,1,0,0:0:0:0:
76,192,20784,1,0,0:0:0:0:
332,192,21039,1,0,0:0:0:0:
384,192,21039,1,0,0:0:0:0:
435,192,21039,1,0,0:0:0:0:
128,192,21039,1,0,0:0:0:0:
179,192,21039,1,0,0:0:0:0:
25,192,21039,1,0,0:0:0:0:
230,192,21209,1,0,0:0:0:0:
332,192,21294,1,0,0:0:0:0:
384,192,21294,1,0,0:0:0:0:
281,192,21294,1,0,0:0:0:0:
76,192,21294,1,0,0:0:0:0:
128,192,21294,1,0,0:0:0:0:
25,192,21294,1,0,0:0:0:0:
435,192,21464,1,0,0:0:0:0:
486,192,21464,1,0,0:0:0:0:
332,192,21550,1,0,0:0:0:0:
281,192,21550,1,0,0:0:0:0:
435,192,21635,1,0,0:0:0:0:
486,192,21635,1,0,0:0:0:0:
281,192,21720,1,0,0:0:0:0:
332,192,21720,1,0,0:0:0:0:
486,192,21805,128,0,22315:0:0:0:0:
76,192,21805,1,0,0:0:0:0:
128,192,21805,1,0,0:0:0:0:
179,192,21805,1,0,0:0:0:0:
435,192,21805,1,0,0:0:0:0:
281,192,22060,1,0,0:0:0:0:
76,192,22060,1,0,0:0:0:0:
230,192,22060,1,0,0:0:0:0:
179,192,22060,1,0,0:0:0:0:
384,192,22315,128,0,22570:0:0:0:0:
281,192,22315,1,0,0:0:0:0:
230,192,22315,1,0,0:0:0:0:
76,192,22315,1,0,0:0:0:0:
179,192,22315,1,0,0:0:0:0:
435,192,22570,128,0,22826:0:0:0:0:
281,192,22570,1,0,0:0:0:0:
25,192,22570,1,0,0:0:0:0:
76,192,22570,1,0,0:0:0:0:
179,192,22570,1,0,0:0:0:0:
384,192,22826,128,0,22953:0:0:0:0:
281,192,22826,1,0,0:0:0:0:
128,192,22826,1,0,0:0:0:0:
25,192,22826,1,0,0:0:0:0:
230,192,22826,1,0,0:0:0:0:
332,192,22953,128,0,23209:0:0:0:0:
281,192,23081,1,0,0:0:0:0:
25,192,23081,1,0,0:0:0:0:
128,192,23081,1,0,0:0:0:0:
230,192,23081,1,0,0:0:0:0:
384,192,23209,128,0,23336:0:0:0:0:
281,192,23336,128,0,23592:0:0:0:0:
486,192,23336,1,0,0:0:0:0:
76,192,23336,1,0,0:0:0:0:
128,192,23336,1,0,0:0:0:0:
25,192,23336,1,0,0:0:0:0:
332,192,23592,128,0,23847:0:0:0:0:
486,192,23592,1,0,0:0:0:0:
76,192,23592,1,0,0:0:0:0:
230,192,23592,1,0,0:0:0:0:
179,192,23592,1,0,0:0:0:0:
384,192,23847,128,0,24102:0:0:0:0:
486,192,23847,1,0,0:0:0:0:
230,192,23847,1,0,0:0:0:0:
179,192,23847,1,0,0:0:0:0:
76,192,23847,1,0,0:0:0:0:
281,192,24102,128,0,24613:0:0:0:0:
486,192,24102,1,0,0:0:0:0:
25,192,24102,1,0,0:0:0:0:
230,192,24102,1,0,0:0:0:0:
76,192,24102,1,0,0:0:0:0:
486,192,24358,1,0,0:0:0:0:
128,192,24358,1,0,0:0:0:0:
179,192,24358,1,0,0:0:0:0:
76,192,24358,1,0,0:0:0:0:
435,192,24613,128,0,24868:0:0:0:0:
332,192,24613,1,0,0:0:0:0:
76,192,24613,1,0,0:0:0:0:
128,192,24613,1,0,0:0:0:0:
179,192,24613,1,0,0:0:0:0:
486,192,24868,128,0,25124:0:0:0:0:
281,192,24868,1,0,0:0:0:0:
76,192,24868,1,0,0:0:0:0:
230,192,24868,1,0,0:0:0:0:
179,192,24868,1,0,0:0:0:0:
332,192,25124,128,0,25209:0:0:0:0:
281,192,25124,1,0,0:0:0:0:
25,192,25124,1,0,0:0:0:0:
128,192,25124,1,0,0:0:0:0:
179,192,25124,1,0,0:0:0:0:
384,192,25209,128,0,25294:0:0:0:0:
435,192,25294,128,0,25379:0:0:0:0:
486,192,25379,128,0,25464:0:0:0:0:
281,192,25379,1,0,0:0:0:0:
25,192,25379,1,0,0:0:0:0:
128,192,25379,1,0,0:0:0:0:
179,192,25379,1,0,0:0:0:0:
435,192,25464,128,0,25549:0:0:0:0:
384,192,25549,128,0,25634:0:0:0:0:
486,192,25634,128,0,25762:0:0:0:0:
332,192,25634,1,0,0:0:0:0:
128,192,25634,1,0,0:0:0:0:
25,192,25634,128,0,25762:0:0:0:0:
76,192,25634,1,0,0:0:0:0:
281,192,25762,1,0,0:0:0:0:
230,192,25762,1,0,0:0:0:0:
486,192,25890,128,0,26017:0:0:0:0:
25,192,25890,128,0,26017:0:0:0:0:
76,192,25890,1,0,0:0:0:0:
179,192,25890,1,0,0:0:0:0:
435,192,25890,1,0,0:0:0:0:
332,192,25890,1,0,0:0:0:0:
281,192,26017,1,0,0:0:0:0:
230,192,26017,1,0,0:0:0:0:
486,192,26145,128,0,26273:0:0:0:0:
332,192,26145,1,0,0:0:0:0:
179,192,26145,1,0,0:0:0:0:
25,192,26145,128,0,26273:0:0:0:0:
128,192,26145,1,0,0:0:0:0:
384,192,26145,1,0,0:0:0:0:
281,192,26273,1,0,0:0:0:0:
230,192,26273,1,0,0:0:0:0:
332,192,26400,128,0,26528:0:0:0:0:
179,192,26400,128,0,26528:0:0:0:0:
128,192,26400,1,0,0:0:0:0:
76,192,26400,1,0,0:0:0:0:
384,192,26400,1,0,0:0:0:0:
435,192,26400,1,0,0:0:0:0:
25,192,26528,1,0,0:0:0:0:
486,192,26528,1,0,0:0:0:0:
332,192,26656,128,0,26783:0:0:0:0:
179,192,26656,128,0,26783:0:0:0:0:
230,192,26656,1,0,0:0:0:0:
128,192,26656,1,0,0:0:0:0:
281,192,26656,1,0,0:0:0:0:
384,192,26656,1,0,0:0:0:0:
76,192,26783,1,0,0:0:0:0:
435,192,26783,1,0,0:0:0:0:
332,192,26911,128,0,27039:0:0:0:0:
179,192,26911,128,0,27039:0:0:0:0:
230,192,26911,1,0,0:0:0:0:
25,192,26911,1,0,0:0:0:0:
486,192,26911,1,0,0:0:0:0:
281,192,26911,1,0,0:0:0:0:
128,192,27039,1,0,0:0:0:0:
384,192,27039,1,0,0:0:0:0:
486,192,27166,128,0,27422:0:0:0:0:
435,192,27166,1,0,0:0:0:0:
230,192,27166,1,0,0:0:0:0:
179,192,27230,1,0,0:0:0:0:
128,192,27294,1,0,0:0:0:0:
76,192,27358,1,0,0:0:0:0:
281,192,27422,128,0,27677:0:0:0:0:
332,192,27422,1,0,0:0:0:0:
230,192,27422,1,0,0:0:0:0:
128,192,27549,1,0,0:0:0:0:
179,192,27613,1,0,0:0:0:0:
486,192,27677,128,0,27741:0:0:0:0:
25,192,27677,128,0,27741:0:0:0:0:
435,192,27741,128,0,27804:0:0:0:0:
76,192,27741,128,0,27804:0:0:0:0:
384,192,27804,128,0,27868:0:0:0:0:
128,192,27804,128,0,27868:0:0:0:0:
332,192,27868,128,0,27932:0:0:0:0:
179,192,27868,128,0,27932:0:0:0:0:
230,192,27932,1,0,0:0:0:0:
281,192,27932,128,0,28443:0:0:0:0:
486,192,27932,1,0,0:0:0:0:
25,192,27932,1,0,0:0:0:0:
76,192,27932,1,0,0:0:0:0:
128,192,28060,1,0,0:0:0:0:
486,192,28187,1,0,0:0:0:0:
230,192,28187,1,0,0:0:0:0:
179,192,28187,1,0,0:0:0:0:
25,192,28187,1,0,0:0:0:0:
76,192,28315,1,0,0:0:0:0:
384,192,28443,128,0,28698:0:0:0:0:
486,192,28443,1,0,0:0:0:0:
128,192,28443,1,0,0:0:0:0:
179,192,28443,1,0,0:0:0:0:
230,192,28443,1,0,0:0:0:0:
76,192,28570,1,0,0:0:0:0:
486,192,28698,1,0,0:0:0:0:
435,192,28698,128,0,28953:0:0:0:0:
25,192,28698,1,0,0:0:0:0:
230,192,28698,1,0,0:0:0:0:
179,192,28698,1,0,0:0:0:0:
128,192,28826,1,0,0:0:0:0:
486,192,28953,1,0,0:0:0:0:
384,192,28953,128,0,29081:0:0:0:0:
76,192,28953,1,0,0:0:0:0:
25,192,28953,1,0,0:0:0:0:
179,192,28953,1,0,0:0:0:0:
332,192,29081,128,0,29336:0:0:0:0:
230,192,29081,1,0,0:0:0:0:
486,192,29209,1,0,0:0:0:0:
25,192,29209,1,0,0:0:0:0:
76,192,29209,1,0,0:0:0:0:
128,192,29209,1,0,0:0:0:0:
281,192,29336,128,0,29464:0:0:0:0:
179,192,29336,1,0,0:0:0:0:
486,192,29464,128,0,29719:0:0:0:0:
384,192,29464,1,0,0:0:0:0:
230,192,29464,1,0,0:0:0:0:
128,192,29464,1,0,0:0:0:0:
76,192,29464,1,0,0:0:0:0:
25,192,29592,1,0,0:0:0:0:
435,192,29719,128,0,29847:0:0:0:0:
281,192,29719,1,0,0:0:0:0:
230,192,29719,1,0,0:0:0:0:
179,192,29719,1,0,0:0:0:0:
128,192,29719,1,0,0:0:0:0:
384,192,29847,128,0,30102:0:0:0:0:
76,192,29847,1,0,0:0:0:0:
281,192,29975,1,0,0:0:0:0:
25,192,29975,1,0,0:0:0:0:
179,192,29975,1,0,0:0:0:0:
230,192,29975,1,0,0:0:0:0:
332,192,30102,128,0,30230:0:0:0:0:
76,192,30102,1,0,0:0:0:0:
281,192,30230,1,0,0:0:0:0:
435,192,30230,1,0,0:0:0:0:
128,192,30230,1,0,0:0:0:0:
179,192,30230,1,0,0:0:0:0:
230,192,30230,1,0,0:0:0:0:
332,192,30358,1,0,0:0:0:0:
25,192,30358,1,0,0:0:0:0:
435,192,30485,1,0,0:0:0:0:
230,192,30485,1,0,0:0:0:0:
179,192,30485,1,0,0:0:0:0:
76,192,30485,1,0,0:0:0:0:
486,192,30485,1,0,0:0:0:0:
281,192,30549,1,0,0:0:0:0:
384,192,30613,1,0,0:0:0:0:
25,192,30613,1,0,0:0:0:0:
76,192,30645,1,0,0:0:0:0:
281,192,30677,1,0,0:0:0:0:
128,192,30677,1,0,0:0:0:0:
179,192,30709,1,0,0:0:0:0:
435,192,30741,1,0,0:0:0:0:
486,192,30741,1,0,0:0:0:0:
230,192,30741,1,0,0:0:0:0:
281,192,30804,1,0,0:0:0:0:
384,192,30868,1,0,0:0:0:0:
25,192,30868,1,0,0:0:0:0:
76,192,30900,1,0,0:0:0:0:
281,192,30932,1,0,0:0:0:0:
128,192,30932,1,0,0:0:0:0:
179,192,30964,1,0,0:0:0:0:
486,192,30996,128,0,31251:0:0:0:0:
435,192,30996,1,0,0:0:0:0:
230,192,30996,1,0,0:0:0:0:
76,192,31124,1,0,0:0:0:0:
332,192,31251,128,0,31336:0:0:0:0:
281,192,31251,1,0,0:0:0:0:
25,192,31251,1,0,0:0:0:0:
230,192,31251,1,0,0:0:0:0:
128,192,31251,1,0,0:0:0:0:
384,192,31336,128,0,31422:0:0:0:0:
179,192,31379,1,0,0:0:0:0:
435,192,31422,128,0,31507:0:0:0:0:
281,192,31507,1,0,0:0:0:0:
486,192,31507,1,0,0:0:0:0:
25,192,31507,1,0,0:0:0:0:
76,192,31507,1,0,0:0:0:0:
230,192,31507,1,0,0:0:0:0:
332,192,31549,1,0,0:0:0:0:
384,192,31592,128,0,31677:0:0:0:0:
128,192,31634,1,0,0:0:0:0:
281,192,31677,128,0,31762:0:0:0:0:
435,192,31762,128,0,31826:0:0:0:0:
486,192,31762,1,0,0:0:0:0:
76,192,31762,128,0,31826:0:0:0:0:
25,192,31762,1,0,0:0:0:0:
384,192,31826,128,0,31890:0:0:0:0:
128,192,31826,128,0,31890:0:0:0:0:
332,192,31890,128,0,31953:0:0:0:0:
179,192,31890,128,0,31953:0:0:0:0:
435,192,32017,128,0,32081:0:0:0:0:
486,192,32017,1,0,0:0:0:0:
25,192,32017,1,0,0:0:0:0:
76,192,32017,128,0,32081:0:0:0:0:
332,192,32081,128,0,32145:0:0:0:0:
179,192,32081,128,0,32145:0:0:0:0:
281,192,32145,128,0,32209:0:0:0:0:
230,192,32145,128,0,32209:0:0:0:0:
384,192,32273,128,0,32336:0:0:0:0:
486,192,32273,1,0,0:0:0:0:
25,192,32273,1,0,0:0:0:0:
128,192,32273,128,0,32336:0:0:0:0:
332,192,32336,128,0,32400:0:0:0:0:
179,192,32336,128,0,32400:0:0:0:0:
281,192,32400,128,0,32464:0:0:0:0:
230,192,32400,128,0,32464:0:0:0:0:
25,192,32464,1,0,0:0:0:0:
486,192,32464,1,0,0:0:0:0:
76,192,32528,1,0,0:0:0:0:
435,192,32528,1,0,0:0:0:0:
384,192,32528,128,0,32592:0:0:0:0:
128,192,32528,128,0,32592:0:0:0:0:
179,192,32592,128,0,32656:0:0:0:0:
332,192,32592,128,0,32656:0:0:0:0:
281,192,32656,128,0,32719:0:0:0:0:
230,192,32656,128,0,32719:0:0:0:0:
76,192,32783,128,0,32847:0:0:0:0:
435,192,32783,128,0,32847:0:0:0:0:
25,192,32783,1,0,0:0:0:0:
486,192,32783,1,0,0:0:0:0:
128,192,32847,128,0,32911:0:0:0:0:
384,192,32847,128,0,32911:0:0:0:0:
179,192,32911,128,0,32975:0:0:0:0:
332,192,32911,128,0,32975:0:0:0:0:
486,192,33039,128,0,33102:0:0:0:0:
25,192,33039,128,0,33102:0:0:0:0:
281,192,33039,1,0,0:0:0:0:
230,192,33039,1,0,0:0:0:0:
435,192,33102,128,0,33166:0:0:0:0:
76,192,33102,128,0,33166:0:0:0:0:
384,192,33166,128,0,33230:0:0:0:0:
128,192,33166,128,0,33230:0:0:0:0:
281,192,33294,1,0,0:0:0:0:
435,192,33294,1,0,0:0:0:0:
486,192,33294,1,0,0:0:0:0:
25,192,33294,1,0,0:0:0:0:
76,192,33294,1,0,0:0:0:0:
230,192,33294,1,0,0:0:0:0:
281,192,33422,1,0,0:0:0:0:
435,192,33422,1,0,0:0:0:0:
486,192,33422,1,0,0:0:0:0:
230,192,33422,1,0,0:0:0:0:
76,192,33422,1,0,0:0:0:0:
25,192,33422,1,0,0:0:0:0:
384,192,33549,1,0,0:0:0:0:
332,192,33549,1,0,0:0:0:0:
435,192,33549,1,0,0:0:0:0:
128,192,33549,1,0,0:0:0:0:
179,192,33549,1,0,0:0:0:0:
76,192,33549,1,0,0:0:0:0:
281,192,33677,1,0,0:0:0:0:
332,192,33677,1,0,0:0:0:0:
486,192,33677,1,0,0:0:0:0:
230,192,33677,1,0,0:0:0:0:
179,192,33677,1,0,0:0:0:0:
25,192,33677,1,0,0:0:0:0:
384,192,33804,1,0,0:0:0:0:
332,192,33804,1,0,0:0:0:0:
435,192,33804,1,0,0:0:0:0:
128,192,33804,1,0,0:0:0:0:
179,192,33804,1,0,0:0:0:0:
76,192,33804,1,0,0:0:0:0:
486,192,33932,1,0,0:0:0:0:
435,192,33932,1,0,0:0:0:0:
281,192,33932,1,0,0:0:0:0:
230,192,33932,1,0,0:0:0:0:
76,192,33932,1,0,0:0:0:0:
25,192,33932,1,0,0:0:0:0:
332,192,34060,1,0,0:0:0:0:
384,192,34060,1,0,0:0:0:0:
486,192,34060,1,0,0:0:0:0:
76,192,34060,1,0,0:0:0:0:
179,192,34060,1,0,0:0:0:0:
230,192,34060,1,0,0:0:0:0:
486,192,34187,1,0,0:0:0:0:
435,192,34187,1,0,0:0:0:0:
230,192,34187,1,0,0:0:0:0:
179,192,34187,1,0,0:0:0:0:
76,192,34187,1,0,0:0:0:0:
486,192,34315,1,0,0:0:0:0:
384,192,34315,1,0,0:0:0:0:
25,192,34315,1,0,0:0:0:0:
128,192,34315,1,0,0:0:0:0:
486,192,34442,1,0,0:0:0:0:
281,192,34442,1,0,0:0:0:0:
230,192,34442,1,0,0:0:0:0:
179,192,34442,1,0,0:0:0:0:
76,192,34442,1,0,0:0:0:0:
486,192,34570,1,0,0:0:0:0:
332,192,34570,1,0,0:0:0:0:
25,192,34570,1,0,0:0:0:0:
128,192,34570,1,0,0:0:0:0:
281,192,34698,1,0,0:0:0:0:
486,192,34698,1,0,0:0:0:0:
76,192,34698,1,0,0:0:0:0:
179,192,34698,1,0,0:0:0:0:
230,192,34698,1,0,0:0:0:0:
435,192,34825,1,0,0:0:0:0:
486,192,34825,1,0,0:0:0:0:
230,192,34825,1,0,0:0:0:0:
179,192,34825,1,0,0:0:0:0:
76,192,34825,1,0,0:0:0:0:
384,192,34911,1,0,0:0:0:0:
25,192,34953,1,0,0:0:0:0:
128,192,34953,1,0,0:0:0:0:
332,192,34996,1,0,0:0:0:0:
435,192,35081,1,0,0:0:0:0:
281,192,35081,1,0,0:0:0:0:
230,192,35081,1,0,0:0:0:0:
179,192,35081,1,0,0:0:0:0:
128,192,35081,1,0,0:0:0:0:
486,192,35166,1,0,0:0:0:0:
179,192,35208,1,0,0:0:0:0:
128,192,35208,1,0,0:0:0:0:
76,192,35208,1,0,0:0:0:0:
435,192,35251,1,0,0:0:0:0:
281,192,35336,1,0,0:0:0:0:
384,192,35336,1,0,0:0:0:0:
25,192,35336,1,0,0:0:0:0:
76,192,35336,1,0,0:0:0:0:
128,192,35336,1,0,0:0:0:0:
281,192,35464,1,0,0:0:0:0:
332,192,35464,1,0,0:0:0:0:
76,192,35464,1,0,0:0:0:0:
179,192,35464,1,0,0:0:0:0:
281,192,35591,1,0,0:0:0:0:
384,192,35591,1,0,0:0:0:0:
25,192,35591,1,0,0:0:0:0:
128,192,35591,1,0,0:0:0:0:
230,192,35591,1,0,0:0:0:0:
281,192,35719,1,0,0:0:0:0:
332,192,35719,1,0,0:0:0:0:
230,192,35719,1,0,0:0:0:0:
128,192,35719,1,0,0:0:0:0:
25,192,35719,1,0,0:0:0:0:
281,192,35847,1,0,0:0:0:0:
435,192,35847,1,0,0:0:0:0:
76,192,35847,1,0,0:0:0:0:
179,192,35847,1,0,0:0:0:0:
281,192,35974,1,0,0:0:0:0:
486,192,35974,1,0,0:0:0:0:
230,192,35974,1,0,0:0:0:0:
128,192,35974,1,0,0:0:0:0:
25,192,35974,1,0,0:0:0:0:
435,192,36102,1,0,0:0:0:0:
486,192,36102,1,0,0:0:0:0:
76,192,36102,1,0,0:0:0:0:
179,192,36102,1,0,0:0:0:0:
384,192,36187,1,0,0:0:0:0:
230,192,36230,1,0,0:0:0:0:
128,192,36230,1,0,0:0:0:0:
25,192,36230,1,0,0:0:0:0:
332,192,36272,1,0,0:0:0:0:
281,192,36357,1,0,0:0:0:0:
25,192,36357,1,0,0:0:0:0:
128,192,36357,1,0,0:0:0:0:
230,192,36357,1,0,0:0:0:0:
486,192,36357,1,0,0:0:0:0:
332,192,36442,1,0,0:0:0:0:
179,192,36485,1,0,0:0:0:0:
76,192,36485,1,0,0:0:0:0:
384,192,36528,1,0,0:0:0:0:
281,192,36613,1,0,0:0:0:0:
486,192,36613,1,0,0:0:0:0:
435,192,36613,1,0,0:0:0:0:
230,192,36613,1,0,0:0:0:0:
179,192,36613,1,0,0:0:0:0:
486,192,36740,1,0,0:0:0:0:
435,192,36740,1,0,0:0:0:0:
281,192,36740,1,0,0:0:0:0:
230,192,36740,1,0,0:0:0:0:
128,192,36740,1,0,0:0:0:0:
332,192,36868,1,0,0:0:0:0:
384,192,36868,1,0,0:0:0:0:
230,192,36868,1,0,0:0:0:0:
76,192,36868,1,0,0:0:0:0:
486,192,36996,1,0,0:0:0:0:
435,192,36996,1,0,0:0:0:0:
281,192,36996,1,0,0:0:0:0:
230,192,36996,1,0,0:0:0:0:
25,192,36996,1,0,0:0:0:0:
332,192,37123,1,0,0:0:0:0:
384,192,37123,1,0,0:0:0:0:
230,192,37123,1,0,0:0:0:0:
128,192,37123,1,0,0:0:0:0:
486,192,37251,1,0,0:0:0:0:
281,192,37251,1,0,0:0:0:0:
435,192,37251,1,0,0:0:0:0:
230,192,37251,1,0,0:0:0:0:
76,192,37251,1,0,0:0:0:0:
486,192,37379,1,0,0:0:0:0:
435,192,37379,1,0,0:0:0:0:
281,192,37379,1,0,0:0:0:0:
230,192,37379,1,0,0:0:0:0:
179,192,37379,1,0,0:0:0:0:
128,192,37464,1,0,0:0:0:0:
332,192,37506,1,0,0:0:0:0:
384,192,37506,1,0,0:0:0:0:
76,192,37549,1,0,0:0:0:0:
486,192,37634,1,0,0:0:0:0:
435,192,37634,1,0,0:0:0:0:
281,192,37634,1,0,0:0:0:0:
179,192,37634,1,0,0:0:0:0:
25,192,37634,1,0,0:0:0:0:
128,192,37719,1,0,0:0:0:0:
486,192,37762,1,0,0:0:0:0:
384,192,37762,1,0,0:0:0:0:
281,192,37762,1,0,0:0:0:0:
76,192,37804,1,0,0:0:0:0:
486,192,37889,1,0,0:0:0:0:
281,192,37889,1,0,0:0:0:0:
332,192,37889,1,0,0:0:0:0:
25,192,37889,1,0,0:0:0:0:
179,192,37889,1,0,0:0:0:0:
384,192,38017,1,0,0:0:0:0:
435,192,38017,1,0,0:0:0:0:
25,192,38017,1,0,0:0:0:0:
128,192,38017,1,0,0:0:0:0:
486,192,38145,1,0,0:0:0:0:
281,192,38145,1,0,0:0:0:0:
332,192,38145,1,0,0:0:0:0:
25,192,38145,1,0,0:0:0:0:
230,192,38145,1,0,0:0:0:0:
486,192,38272,1,0,0:0:0:0:
332,192,38272,1,0,0:0:0:0:
281,192,38272,1,0,0:0:0:0:
25,192,38272,1,0,0:0:0:0:
179,192,38272,1,0,0:0:0:0:
384,192,38400,1,0,0:0:0:0:
435,192,38400,1,0,0:0:0:0:
25,192,38400,1,0,0:0:0:0:
76,192,38400,1,0,0:0:0:0:
486,192,38528,1,0,0:0:0:0:
332,192,38528,1,0,0:0:0:0:
281,192,38528,1,0,0:0:0:0:
25,192,38528,1,0,0:0:0:0:
128,192,38528,1,0,0:0:0:0:
384,192,38655,1,0,0:0:0:0:
435,192,38655,1,0,0:0:0:0:
25,192,38655,1,0,0:0:0:0:
179,192,38655,1,0,0:0:0:0:
76,192,38740,1,0,0:0:0:0:
486,192,38783,1,0,0:0:0:0:
332,192,38783,1,0,0:0:0:0:
281,192,38783,1,0,0:0:0:0:
128,192,38825,1,0,0:0:0:0:
486,192,38911,1,0,0:0:0:0:
281,192,38911,1,0,0:0:0:0:
332,192,38911,1,0,0:0:0:0:
25,192,38911,1,0,0:0:0:0:
179,192,38911,1,0,0:0:0:0:
128,192,38996,1,0,0:0:0:0:
384,192,39038,1,0,0:0:0:0:
435,192,39038,1,0,0:0:0:0:
76,192,39081,1,0,0:0:0:0:
332,192,39166,1,0,0:0:0:0:
384,192,39166,1,0,0:0:0:0:
486,192,39166,1,0,0:0:0:0:
179,192,39166,1,0,0:0:0:0:
230,192,39166,1,0,0:0:0:0:
128,192,39166,1,0,0:0:0:0:
486,192,39294,1,0,0:0:0:0:
435,192,39294,1,0,0:0:0:0:
25,192,39294,1,0,0:0:0:0:
76,192,39325,1,0,0:0:0:0:
128,192,39357,1,0,0:0:0:0:
179,192,39389,1,0,0:0:0:0:
486,192,39421,1,0,0:0:0:0:
384,192,39421,1,0,0:0:0:0:
230,192,39421,1,0,0:0:0:0:
486,192,39549,1,0,0:0:0:0:
281,192,39549,1,0,0:0:0:0:
76,192,39549,1,0,0:0:0:0:
25,192,39549,1,0,0:0:0:0:
128,192,39549,1,0,0:0:0:0:
486,192,39677,1,0,0:0:0:0:
332,192,39677,1,0,0:0:0:0:
179,192,39677,1,0,0:0:0:0:
230,192,39677,1,0,0:0:0:0:
281,192,39804,1,0,0:0:0:0:
486,192,39804,1,0,0:0:0:0:
76,192,39804,1,0,0:0:0:0:
128,192,39804,1,0,0:0:0:0:
25,192,39804,1,0,0:0:0:0:
486,192,39932,1,0,0:0:0:0:
332,192,39932,1,0,0:0:0:0:
230,192,39932,1,0,0:0:0:0:
179,192,39932,1,0,0:0:0:0:
128,192,39932,1,0,0:0:0:0:
435,192,40017,1,0,0:0:0:0:
25,192,40059,1,0,0:0:0:0:
76,192,40091,1,0,0:0:0:0:
384,192,40102,1,0,0:0:0:0:
128,192,40123,1,0,0:0:0:0:
179,192,40155,1,0,0:0:0:0:
332,192,40187,1,0,0:0:0:0:
486,192,40187,1,0,0:0:0:0:
230,192,40187,1,0,0:0:0:0:
384,192,40272,1,0,0:0:0:0:
25,192,40315,1,0,0:0:0:0:
128,192,40315,1,0,0:0:0:0:
76,192,40315,1,0,0:0:0:0:
332,192,40357,1,0,0:0:0:0:
281,192,40442,1,0,0:0:0:0:
435,192,40442,1,0,0:0:0:0:
230,192,40442,1,0,0:0:0:0:
128,192,40442,1,0,0:0:0:0:
179,192,40442,1,0,0:0:0:0:
281,192,40570,1,0,0:0:0:0:
332,192,40570,1,0,0:0:0:0:
76,192,40570,1,0,0:0:0:0:
25,192,40570,1,0,0:0:0:0:
281,192,40698,1,0,0:0:0:0:
384,192,40698,1,0,0:0:0:0:
179,192,40698,1,0,0:0:0:0:
128,192,40698,1,0,0:0:0:0:
230,192,40698,1,0,0:0:0:0:
281,192,40825,1,0,0:0:0:0:
332,192,40825,1,0,0:0:0:0:
230,192,40825,1,0,0:0:0:0:
179,192,40857,1,0,0:0:0:0:
128,192,40889,1,0,0:0:0:0:
76,192,40921,1,0,0:0:0:0:
281,192,40953,1,0,0:0:0:0:
435,192,40953,1,0,0:0:0:0:
25,192,40953,1,0,0:0:0:0:
281,192,41081,1,0,0:0:0:0:
486,192,41081,1,0,0:0:0:0:
230,192,41081,1,0,0:0:0:0:
128,192,41081,1,0,0:0:0:0:
179,192,41081,1,0,0:0:0:0:
435,192,41208,1,0,0:0:0:0:
486,192,41208,1,0,0:0:0:0:
76,192,41208,1,0,0:0:0:0:
25,192,41208,1,0,0:0:0:0:
384,192,41294,1,0,0:0:0:0:
230,192,41336,1,0,0:0:0:0:
128,192,41336,1,0,0:0:0:0:
179,192,41336,1,0,0:0:0:0:
332,192,41379,1,0,0:0:0:0:
281,192,41464,1,0,0:0:0:0:
486,192,41464,1,0,0:0:0:0:
179,192,41464,1,0,0:0:0:0:
128,192,41464,1,0,0:0:0:0:
230,192,41464,1,0,0:0:0:0:
332,192,41549,1,0,0:0:0:0:
25,192,41591,1,0,0:0:0:0:
76,192,41591,1,0,0:0:0:0:
384,192,41634,1,0,0:0:0:0:
281,192,41719,1,0,0:0:0:0:
486,192,41719,1,0,0:0:0:0:
435,192,41719,1,0,0:0:0:0:
230,192,41719,1,0,0:0:0:0:
179,192,41719,1,0,0:0:0:0:
281,192,41847,1,0,0:0:0:0:
230,192,41847,1,0,0:0:0:0:
128,192,41847,1,0,0:0:0:0:
332,192,41879,1,0,0:0:0:0:
384,192,41911,1,0,0:0:0:0:
435,192,41942,1,0,0:0:0:0:
230,192,41974,1,0,0:0:0:0:
76,192,41974,1,0,0:0:0:0:
486,192,41974,1,0,0:0:0:0:
486,192,42102,1,0,0:0:0:0:
435,192,42102,1,0,0:0:0:0:
281,192,42102,1,0,0:0:0:0:
230,192,42102,1,0,0:0:0:0:
25,192,42102,1,0,0:0:0:0:
332,192,42230,1,0,0:0:0:0:
384,192,42230,1,0,0:0:0:0:
230,192,42230,1,0,0:0:0:0:
128,192,42230,1,0,0:0:0:0:
486,192,42357,1,0,0:0:0:0:
281,192,42357,1,0,0:0:0:0:
435,192,42357,1,0,0:0:0:0:
230,192,42357,1,0,0:0:0:0:
76,192,42357,1,0,0:0:0:0:
281,192,42485,1,0,0:0:0:0:
332,192,42517,1,0,0:0:0:0:
384,192,42549,1,0,0:0:0:0:
435,192,42581,1,0,0:0:0:0:
230,192,42613,1,0,0:0:0:0:
179,192,42645,1,0,0:0:0:0:
128,192,42677,1,0,0:0:0:0:
76,192,42708,1,0,0:0:0:0:
332,192,42740,1,0,0:0:0:0:
384,192,42772,1,0,0:0:0:0:
435,192,42804,1,0,0:0:0:0:
486,192,42836,1,0,0:0:0:0:
179,192,42868,1,0,0:0:0:0:
128,192,42900,1,0,0:0:0:0:
76,192,42932,1,0,0:0:0:0:
25,192,42964,1,0,0:0:0:0:
230,192,42996,1,0,0:0:0:0:
25,192,43123,1,0,0:0:0:0:
128,192,43251,1,0,0:0:0:0:
25,192,43379,1,0,0:0:0:0:
76,192,43506,1,0,0:0:0:0:
179,192,43570,1,0,0:0:0:0:
332,192,43634,1,0,0:0:0:0:
435,192,43698,1,0,0:0:0:0:
486,192,43762,1,0,0:0:0:0:
230,192,43825,1,0,0:0:0:0:
332,192,43889,1,0,0:0:0:0:
76,192,43953,1,0,0:0:0:0:
435,192,44017,1,0,0:0:0:0:
179,192,44081,1,0,0:0:0:0:
281,192,44145,1,0,0:0:0:0:
25,192,44208,1,0,0:0:0:0:
435,192,44272,128,0,45293:0:0:0:0:
384,192,44272,128,0,45197:0:0:0:0:
332,192,44272,128,0,45293:0:0:0:0:
76,192,44272,128,0,44399:0:0:0:0:
179,192,44272,128,0,44527:0:0:0:0:
128,192,44272,1,0,0:0:0:0:
76,192,44527,128,0,44782:0:0:0:0:
179,192,44654,128,0,44910:0:0:0:0:
25,192,44782,128,0,46059:0:0:0:0:
128,192,44910,128,0,45995:0:0:0:0:
230,192,45037,128,0,46059:0:0:0:0:
281,192,45293,128,0,45676:0:0:0:0:
384,192,45335,128,0,45591:0:0:0:0:
486,192,45357,128,0,45676:0:0:0:0:
332,192,45676,128,0,46314:0:0:0:0:
384,192,45718,128,0,46186:0:0:0:0:
435,192,45761,128,0,46314:0:0:0:0:
76,192,46059,128,0,46442:0:0:0:0:
128,192,46123,128,0,46442:0:0:0:0:
179,192,46186,128,0,46442:0:0:0:0:
230,192,46250,1,0,0:0:0:0:
384,192,46314,128,0,46697:0:0:0:0:
486,192,46314,128,0,46697:0:0:0:0:
281,192,46314,128,0,46825:0:0:0:0:
25,192,46569,128,0,46825:0:0:0:0:
76,192,46569,128,0,46825:0:0:0:0:
179,192,46569,128,0,46825:0:0:0:0:
486,192,46825,128,0,46952:0:0:0:0:
332,192,46825,128,0,46952:0:0:0:0:
384,192,46825,128,0,46952:0:0:0:0:
128,192,46952,128,0,47208:0:0:0:0:
76,192,46952,128,0,47208:0:0:0:0:
25,192,46952,128,0,47208:0:0:0:0:
435,192,47080,128,0,47208:0:0:0:0:
281,192,47080,128,0,47208:0:0:0:0:
332,192,47080,128,0,47208:0:0:0:0:
384,192,47335,128,0,47463:0:0:0:0:
486,192,47399,128,0,47527:0:0:0:0:
128,192,47463,128,0,47591:0:0:0:0:
230,192,47527,128,0,47654:0:0:0:0:
332,192,47591,128,0,47718:0:0:0:0:
435,192,47654,128,0,47782:0:0:0:0:
76,192,47718,128,0,47846:0:0:0:0:
179,192,47782,128,0,47910:0:0:0:0:
384,192,47846,128,0,47974:0:0:0:0:
281,192,47910,128,0,48037:0:0:0:0:
128,192,47974,128,0,48101:0:0:0:0:
25,192,48037,128,0,48165:0:0:0:0:
435,192,48101,128,0,48229:0:0:0:0:
332,192,48165,128,0,48293:0:0:0:0:
179,192,48229,128,0,48357:0:0:0:0:
76,192,48293,128,0,48357:0:0:0:0:
25,192,48357,1,0,0:0:0:0:
128,192,48357,1,0,0:0:0:0:
230,192,48357,1,0,0:0:0:0:
281,192,48357,1,0,0:0:0:0:
384,192,48357,1,0,0:0:0:0:
486,192,48357,1,0,0:0:0:0:
179,192,48612,1,0,0:0:0:0:
230,192,48612,1,0,0:0:0:0:
76,192,48612,1,0,0:0:0:0:
25,192,48612,1,0,0:0:0:0:
435,192,48782,1,0,0:0:0:0:
332,192,48782,1,0,0:0:0:0:
25,192,48867,1,0,0:0:0:0:
128,192,48867,1,0,0:0:0:0:
230,192,48867,1,0,0:0:0:0:
486,192,48867,1,0,0:0:0:0:
281,192,48867,1,0,0:0:0:0:
384,192,48867,1,0,0:0:0:0:
435,192,48952,1,0,0:0:0:0:
384,192,49037,1,0,0:0:0:0:
179,192,49123,1,0,0:0:0:0:
230,192,49123,1,0,0:0:0:0:
76,192,49123,1,0,0:0:0:0:
25,192,49123,1,0,0:0:0:0:
332,192,49123,1,0,0:0:0:0:
435,192,49123,1,0,0:0:0:0:
384,192,49208,1,0,0:0:0:0:
332,192,49293,1,0,0:0:0:0:
281,192,49378,1,0,0:0:0:0:
384,192,49378,1,0,0:0:0:0:
486,192,49378,1,0,0:0:0:0:
25,192,49378,1,0,0:0:0:0:
128,192,49378,1,0,0:0:0:0:
230,192,49378,1,0,0:0:0:0:
486,192,49633,1,0,0:0:0:0:
435,192,49633,1,0,0:0:0:0:
332,192,49633,1,0,0:0:0:0:
281,192,49633,1,0,0:0:0:0:
76,192,49633,1,0,0:0:0:0:
179,192,49633,1,0,0:0:0:0:
230,192,49761,1,0,0:0:0:0:
281,192,49889,1,0,0:0:0:0:
384,192,49889,1,0,0:0:0:0:
486,192,49889,1,0,0:0:0:0:
25,192,49889,1,0,0:0:0:0:
128,192,49889,1,0,0:0:0:0:
179,192,50016,1,0,0:0:0:0:
76,192,50016,1,0,0:0:0:0:
486,192,50144,1,0,0:0:0:0:
435,192,50144,1,0,0:0:0:0:
332,192,50144,1,0,0:0:0:0:
281,192,50144,1,0,0:0:0:0:
230,192,50144,1,0,0:0:0:0:
25,192,50271,1,0,0:0:0:0:
128,192,50271,1,0,0:0:0:0:
332,192,50399,1,0,0:0:0:0:
435,192,50399,1,0,0:0:0:0:
486,192,50399,1,0,0:0:0:0:
25,192,50399,1,0,0:0:0:0:
128,192,50399,1,0,0:0:0:0:
332,192,50527,1,0,0:0:0:0:
435,192,50527,1,0,0:0:0:0:
486,192,50527,1,0,0:0:0:0:
179,192,50654,1,0,0:0:0:0:
76,192,50654,1,0,0:0:0:0:
25,192,50654,1,0,0:0:0:0:
281,192,50654,1,0,0:0:0:0:
384,192,50654,1,0,0:0:0:0:
179,192,50782,1,0,0:0:0:0:
76,192,50782,1,0,0:0:0:0:
25,192,50782,1,0,0:0:0:0:
332,192,50782,1,0,0:0:0:0:
435,192,50782,1,0,0:0:0:0:
281,192,50910,1,0,0:0:0:0:
332,192,50910,1,0,0:0:0:0:
486,192,50910,1,0,0:0:0:0:
128,192,50910,1,0,0:0:0:0:
230,192,50910,1,0,0:0:0:0:
281,192,51037,1,0,0:0:0:0:
332,192,51037,1,0,0:0:0:0:
486,192,51037,1,0,0:0:0:0:
179,192,51037,1,0,0:0:0:0:
76,192,51037,1,0,0:0:0:0:
332,192,51165,1,0,0:0:0:0:
281,192,51165,1,0,0:0:0:0:
179,192,51229,1,0,0:0:0:0:
230,192,51229,1,0,0:0:0:0:
332,192,51293,1,0,0:0:0:0:
281,192,51293,1,0,0:0:0:0:
179,192,51357,1,0,0:0:0:0:
230,192,51357,1,0,0:0:0:0:
128,192,51420,128,0,51676:0:0:0:0:
76,192,51420,128,0,51931:0:0:0:0:
25,192,51420,128,0,52186:0:0:0:0:
332,192,51420,128,0,51506:0:0:0:0:
435,192,51420,128,0,51506:0:0:0:0:
384,192,51506,128,0,51591:0:0:0:0:
281,192,51506,128,0,51591:0:0:0:0:
230,192,51591,128,0,51676:0:0:0:0:
332,192,51591,128,0,51676:0:0:0:0:
486,192,51676,128,0,52442:0:0:0:0:
281,192,51676,128,0,51761:0:0:0:0:
384,192,51676,128,0,51761:0:0:0:0:
230,192,51761,128,0,51846:0:0:0:0:
332,192,51761,128,0,51846:0:0:0:0:
179,192,51846,128,0,51931:0:0:0:0:
281,192,51846,128,0,51931:0:0:0:0:
435,192,51931,128,0,52442:0:0:0:0:
230,192,51931,128,0,52016:0:0:0:0:
332,192,51931,128,0,52016:0:0:0:0:
281,192,52016,128,0,52101:0:0:0:0:
179,192,52016,128,0,52101:0:0:0:0:
230,192,52101,128,0,52186:0:0:0:0:
128,192,52101,128,0,52186:0:0:0:0:
384,192,52186,128,0,52442:0:0:0:0:
332,192,52186,1,0,0:0:0:0:
281,192,52250,1,0,0:0:0:0:
230,192,52314,1,0,0:0:0:0:
179,192,52378,1,0,0:0:0:0:
25,192,52442,128,0,52697:0:0:0:0:
128,192,52442,128,0,52697:0:0:0:0:
230,192,52442,128,0,52697:0:0:0:0:
281,192,52442,1,0,0:0:0:0:
332,192,52442,1,0,0:0:0:0:
281,192,52825,128,0,53080:0:0:0:0:
384,192,52825,128,0,53080:0:0:0:0:
486,192,52825,128,0,53080:0:0:0:0:
128,192,52825,1,0,0:0:0:0:
230,192,52825,1,0,0:0:0:0:
76,192,52952,1,0,0:0:0:0:
179,192,52952,1,0,0:0:0:0:
128,192,53080,1,0,0:0:0:0:
25,192,53080,1,0,0:0:0:0:
76,192,53208,128,0,53463:0:0:0:0:
179,192,53208,128,0,53463:0:0:0:0:
230,192,53208,128,0,53463:0:0:0:0:
332,192,53208,1,0,0:0:0:0:
486,192,53208,1,0,0:0:0:0:
281,192,53335,1,0,0:0:0:0:
435,192,53335,1,0,0:0:0:0:
384,192,53463,1,0,0:0:0:0:
486,192,53463,1,0,0:0:0:0:
128,192,53463,1,0,0:0:0:0:
25,192,53463,1,0,0:0:0:0:
281,192,53591,128,0,53846:0:0:0:0:
332,192,53591,128,0,53846:0:0:0:0:
435,192,53591,128,0,53846:0:0:0:0:
230,192,53846,1,0,0:0:0:0:
179,192,53846,1,0,0:0:0:0:
25,192,53974,128,0,54101:0:0:0:0:
128,192,53974,128,0,54101:0:0:0:0:
76,192,53974,128,0,54101:0:0:0:0:
281,192,54101,1,0,0:0:0:0:
332,192,54165,1,0,0:0:0:0:
384,192,54229,128,0,54357:0:0:0:0:
435,192,54229,128,0,54357:0:0:0:0:
486,192,54229,128,0,54357:0:0:0:0:
25,192,54229,1,0,0:0:0:0:
76,192,54293,1,0,0:0:0:0:
128,192,54357,1,0,0:0:0:0:
179,192,54420,1,0,0:0:0:0:
281,192,54484,1,0,0:0:0:0:
384,192,54484,1,0,0:0:0:0:
486,192,54484,1,0,0:0:0:0:
230,192,54484,128,0,54740:0:0:0:0:
76,192,54484,128,0,54740:0:0:0:0:
25,192,54484,128,0,54740:0:0:0:0:
332,192,54740,1,0,0:0:0:0:
384,192,54740,1,0,0:0:0:0:
281,192,54867,128,0,55123:0:0:0:0:
435,192,54867,128,0,55123:0:0:0:0:
486,192,54867,128,0,55123:0:0:0:0:
128,192,54867,1,0,0:0:0:0:
179,192,54867,1,0,0:0:0:0:
25,192,54995,1,0,0:0:0:0:
230,192,54995,1,0,0:0:0:0:
76,192,55123,1,0,0:0:0:0:
128,192,55123,1,0,0:0:0:0:
179,192,55250,128,0,55506:0:0:0:0:
230,192,55250,128,0,55506:0:0:0:0:
25,192,55250,128,0,55506:0:0:0:0:
332,192,55250,1,0,0:0:0:0:
384,192,55250,1,0,0:0:0:0:
384,192,55506,1,0,0:0:0:0:
435,192,55506,1,0,0:0:0:0:
281,192,55633,128,0,55889:0:0:0:0:
332,192,55633,128,0,55889:0:0:0:0:
486,192,55633,128,0,55889:0:0:0:0:
25,192,55761,1,0,0:0:0:0:
230,192,55761,1,0,0:0:0:0:
128,192,56016,128,0,56144:0:0:0:0:
179,192,56016,128,0,56144:0:0:0:0:
76,192,56016,128,0,56144:0:0:0:0:
435,192,56016,1,0,0:0:0:0:
384,192,56080,1,0,0:0:0:0:
332,192,56144,1,0,0:0:0:0:
281,192,56208,1,0,0:0:0:0:
332,192,56271,128,0,56399:0:0:0:0:
384,192,56271,128,0,56399:0:0:0:0:
435,192,56271,128,0,56399:0:0:0:0:
230,192,56271,1,0,0:0:0:0:
25,192,56271,1,0,0:0:0:0:
179,192,56399,1,0,0:0:0:0:
76,192,56399,1,0,0:0:0:0:
281,192,56527,128,0,56782:0:0:0:0:
25,192,56527,1,0,0:0:0:0:
230,192,56527,1,0,0:0:0:0:
179,192,56527,1,0,0:0:0:0:
384,192,56559,128,0,56750:0:0:0:0:
486,192,56591,128,0,56718:0:0:0:0:
25,192,56782,1,0,0:0:0:0:
128,192,56782,1,0,0:0:0:0:
230,192,56782,1,0,0:0:0:0:
486,192,56910,128,0,57165:0:0:0:0:
384,192,56974,128,0,57165:0:0:0:0:
230,192,57037,1,0,0:0:0:0:
76,192,57037,1,0,0:0:0:0:
25,192,57037,1,0,0:0:0:0:
281,192,57037,128,0,57293:0:0:0:0:
25,192,57293,1,0,0:0:0:0:
128,192,57293,1,0,0:0:0:0:
230,192,57293,1,0,0:0:0:0:
332,192,57293,128,0,57420:0:0:0:0:
384,192,57293,128,0,57420:0:0:0:0:
435,192,57293,128,0,57420:0:0:0:0:
281,192,57548,1,0,0:0:0:0:
486,192,57548,1,0,0:0:0:0:
435,192,57548,1,0,0:0:0:0:
25,192,57548,128,0,57931:0:0:0:0:
128,192,57591,128,0,57931:0:0:0:0:
230,192,57633,128,0,57931:0:0:0:0:
281,192,57803,1,0,0:0:0:0:
384,192,57803,1,0,0:0:0:0:
486,192,57803,1,0,0:0:0:0:
486,192,58059,1,0,0:0:0:0:
281,192,58059,1,0,0:0:0:0:
384,192,58059,1,0,0:0:0:0:
230,192,58059,1,0,0:0:0:0:
128,192,58059,1,0,0:0:0:0:
25,192,58059,1,0,0:0:0:0:
332,192,58314,1,0,0:0:0:0:
384,192,58314,1,0,0:0:0:0:
128,192,58378,1,0,0:0:0:0:
179,192,58378,1,0,0:0:0:0:
332,192,58442,1,0,0:0:0:0:
384,192,58442,1,0,0:0:0:0:
128,192,58506,1,0,0:0:0:0:
179,192,58506,1,0,0:0:0:0:
384,192,58569,1,0,0:0:0:0:
435,192,58569,1,0,0:0:0:0:
332,192,58569,1,0,0:0:0:0:
25,192,58569,128,0,58951:0:0:0:0:
230,192,58569,128,0,58951:0:0:0:0:
76,192,58569,128,0,58951:0:0:0:0:
384,192,58824,1,0,0:0:0:0:
486,192,58824,1,0,0:0:0:0:
281,192,59079,1,0,0:0:0:0:
384,192,59079,1,0,0:0:0:0:
486,192,59079,1,0,0:0:0:0:
76,192,59079,128,0,59207:0:0:0:0:
128,192,59079,128,0,59207:0:0:0:0:
179,192,59079,128,0,59207:0:0:0:0:
435,192,59207,1,0,0:0:0:0:
332,192,59207,1,0,0:0:0:0:
281,192,59334,1,0,0:0:0:0:
230,192,59334,1,0,0:0:0:0:
384,192,59334,1,0,0:0:0:0:
25,192,59334,1,0,0:0:0:0:
230,192,59462,1,0,0:0:0:0:
25,192,59462,1,0,0:0:0:0:
281,192,59590,1,0,0:0:0:0:
384,192,59590,1,0,0:0:0:0:
435,192,59717,1,0,0:0:0:0:
332,192,59717,1,0,0:0:0:0:
281,192,59845,1,0,0:0:0:0:
384,192,59845,1,0,0:0:0:0:
486,192,59845,1,0,0:0:0:0:
179,192,59845,1,0,0:0:0:0:
76,192,59845,1,0,0:0:0:0:
332,192,59973,1,0,0:0:0:0:
435,192,59973,1,0,0:0:0:0:
25,192,60037,1,0,0:0:0:0:
230,192,60037,1,0,0:0:0:0:
384,192,60100,1,0,0:0:0:0:
486,192,60100,1,0,0:0:0:0:
179,192,60100,1,0,0:0:0:0:
76,192,60100,1,0,0:0:0:0:
435,192,60228,1,0,0:0:0:0:
332,192,60228,1,0,0:0:0:0:
76,192,60228,1,0,0:0:0:0:
179,192,60228,1,0,0:0:0:0:
230,192,60292,1,0,0:0:0:0:
25,192,60292,1,0,0:0:0:0:
281,192,60356,1,0,0:0:0:0:
384,192,60356,1,0,0:0:0:0:
230,192,60420,1,0,0:0:0:0:
128,192,60420,1,0,0:0:0:0:
486,192,60483,1,0,0:0:0:0:
332,192,60483,1,0,0:0:0:0:
179,192,60483,1,0,0:0:0:0:
76,192,60483,1,0,0:0:0:0:
281,192,60611,1,0,0:0:0:0:
230,192,60611,1,0,0:0:0:0:
435,192,60611,1,0,0:0:0:0:
179,192,60675,1,0,0:0:0:0:
332,192,60739,1,0,0:0:0:0:
384,192,60739,1,0,0:0:0:0:
486,192,60739,1,0,0:0:0:0:
128,192,60739,1,0,0:0:0:0:
76,192,60739,1,0,0:0:0:0:
281,192,60866,1,0,0:0:0:0:
435,192,60866,1,0,0:0:0:0:
230,192,60930,1,0,0:0:0:0:
25,192,60930,1,0,0:0:0:0:
332,192,60994,1,0,0:0:0:0:
384,192,60994,1,0,0:0:0:0:
76,192,60994,1,0,0:0:0:0:
179,192,60994,1,0,0:0:0:0:
230,192,61122,1,0,0:0:0:0:
435,192,61122,1,0,0:0:0:0:
486,192,61122,1,0,0:0:0:0:
128,192,61122,1,0,0:0:0:0:
281,192,61249,1,0,0:0:0:0:
230,192,61249,1,0,0:0:0:0:
332,192,61249,1,0,0:0:0:0:
179,192,61313,1,0,0:0:0:0:
384,192,61377,1,0,0:0:0:0:
435,192,61377,1,0,0:0:0:0:
128,192,61377,1,0,0:0:0:0:
25,192,61377,1,0,0:0:0:0:
281,192,61505,1,0,0:0:0:0:
332,192,61505,1,0,0:0:0:0:
76,192,61505,1,0,0:0:0:0:
179,192,61505,1,0,0:0:0:0:
230,192,61632,1,0,0:0:0:0:
435,192,61632,1,0,0:0:0:0:
486,192,61632,1,0,0:0:0:0:
179,192,61696,1,0,0:0:0:0:
332,192,61760,1,0,0:0:0:0:
384,192,61760,1,0,0:0:0:0:
76,192,61760,1,0,0:0:0:0:
128,192,61824,1,0,0:0:0:0:
435,192,61888,1,0,0:0:0:0:
486,192,61888,1,0,0:0:0:0:
230,192,61888,1,0,0:0:0:0:
179,192,61951,1,0,0:0:0:0:
281,192,62015,1,0,0:0:0:0:
332,192,62015,1,0,0:0:0:0:
128,192,62015,1,0,0:0:0:0:
179,192,62079,1,0,0:0:0:0:
486,192,62143,128,0,63547:0:0:0:0:
25,192,62143,1,0,0:0:0:0:
76,192,62143,1,0,0:0:0:0:
384,192,62143,1,0,0:0:0:0:
435,192,62143,1,0,0:0:0:0:
25,192,62270,1,0,0:0:0:0:
76,192,62270,1,0,0:0:0:0:
179,192,62398,1,0,0:0:0:0:
230,192,62398,1,0,0:0:0:0:
281,192,62398,1,0,0:0:0:0:
332,192,62398,1,0,0:0:0:0:
384,192,62398,1,0,0:0:0:0:
128,192,62462,1,0,0:0:0:0:
25,192,62525,1,0,0:0:0:0:
76,192,62589,1,0,0:0:0:0:
230,192,62653,1,0,0:0:0:0:
179,192,62717,1,0,0:0:0:0:
128,192,62781,1,0,0:0:0:0:
76,192,62845,1,0,0:0:0:0:
230,192,62908,1,0,0:0:0:0:
435,192,62908,1,0,0:0:0:0:
179,192,62972,1,0,0:0:0:0:
384,192,62972,1,0,0:0:0:0:
76,192,63036,1,0,0:0:0:0:
230,192,63036,1,0,0:0:0:0:
332,192,63036,1,0,0:0:0:0:
25,192,63100,1,0,0:0:0:0:
281,192,63100,1,0,0:0:0:0:
179,192,63164,1,0,0:0:0:0:
384,192,63164,1,0,0:0:0:0:
435,192,63164,1,0,0:0:0:0:
128,192,63228,1,0,0:0:0:0:
76,192,63291,1,0,0:0:0:0:
281,192,63291,1,0,0:0:0:0:
25,192,63355,1,0,0:0:0:0:
128,192,63419,1,0,0:0:0:0:
332,192,63419,1,0,0:0:0:0:
435,192,63419,1,0,0:0:0:0:
76,192,63483,1,0,0:0:0:0:
25,192,63547,1,0,0:0:0:0:
384,192,63547,1,0,0:0:0:0:
76,192,63611,1,0,0:0:0:0:
281,192,63674,5,0,0:0:0:0:
435,192,63674,1,0,0:0:0:0:
486,192,63674,1,0,0:0:0:0:
486,192,63759,1,0,0:0:0:0:
435,192,63759,1,0,0:0:0:0:
281,192,63759,1,0,0:0:0:0:
281,192,63844,1,0,0:0:0:0:
435,192,63844,1,0,0:0:0:0:
486,192,63844,1,0,0:0:0:0:
230,192,63929,1,0,0:0:0:0:
76,192,63929,1,0,0:0:0:0:
25,192,63929,1,0,0:0:0:0:
25,192,64014,1,0,0:0:0:0:
76,192,64014,1,0,0:0:0:0:
230,192,64014,1,0,0:0:0:0:
230,192,64099,1,0,0:0:0:0:
76,192,64099,1,0,0:0:0:0:
25,192,64099,1,0,0:0:0:0:
281,192,64184,1,0,0:0:0:0:
384,192,64184,1,0,0:0:0:0:
486,192,64184,1,0,0:0:0:0:
384,192,64269,1,0,0:0:0:0:
281,192,64269,1,0,0:0:0:0:
486,192,64269,1,0,0:0:0:0:
281,192,64354,1,0,0:0:0:0:
384,192,64354,1,0,0:0:0:0:
486,192,64354,1,0,0:0:0:0:
230,192,64439,1,0,0:0:0:0:
128,192,64439,1,0,0:0:0:0:
25,192,64439,1,0,0:0:0:0:
25,192,64525,1,0,0:0:0:0:
128,192,64525,1,0,0:0:0:0:
230,192,64525,1,0,0:0:0:0:
230,192,64610,1,0,0:0:0:0:
128,192,64610,1,0,0:0:0:0:
25,192,64610,1,0,0:0:0:0:
332,192,64695,1,0,0:0:0:0:
384,192,64695,1,0,0:0:0:0:
435,192,64695,1,0,0:0:0:0:
384,192,64950,1,0,0:0:0:0:
332,192,64950,1,0,0:0:0:0:
332,192,65205,1,0,0:0:0:0:
76,192,65460,1,0,0:0:0:0:
435,192,65465,128,0,65720:0:0:0:0:
25,192,65465,1,0,0:0:0:0:
230,192,65465,1,0,0:0:0:0:
179,192,65465,1,0,0:0:0:0:
281,192,65465,128,0,65720:0:0:0:0:
76,192,65720,1,0,0:0:0:0:
128,192,65720,1,0,0:0:0:0:
179,192,65720,1,0,0:0:0:0:
332,192,65847,1,0,0:0:0:0:
384,192,65911,1,0,0:0:0:0:
25,192,65975,1,0,0:0:0:0:
230,192,65975,1,0,0:0:0:0:
435,192,65975,1,0,0:0:0:0:
281,192,65975,1,0,0:0:0:0:
332,192,66103,1,0,0:0:0:0:
384,192,66103,1,0,0:0:0:0:
76,192,66230,1,0,0:0:0:0:
179,192,66230,1,0,0:0:0:0:
128,192,66230,1,0,0:0:0:0:
281,192,66230,1,0,0:0:0:0:
486,192,66230,1,0,0:0:0:0:
435,192,66358,1,0,0:0:0:0:
332,192,66358,1,0,0:0:0:0:
25,192,66486,1,0,0:0:0:0:
230,192,66486,1,0,0:0:0:0:
281,192,66486,1,0,0:0:0:0:
486,192,66486,1,0,0:0:0:0:
332,192,66613,1,0,0:0:0:0:
384,192,66677,1,0,0:0:0:0:
179,192,66741,1,0,0:0:0:0:
128,192,66741,1,0,0:0:0:0:
76,192,66741,1,0,0:0:0:0:
435,192,66741,1,0,0:0:0:0:
486,192,66741,1,0,0:0:0:0:
281,192,66869,1,0,0:0:0:0:
332,192,66869,1,0,0:0:0:0:
25,192,66996,1,0,0:0:0:0:
230,192,66996,1,0,0:0:0:0:
486,192,66996,1,0,0:0:0:0:
435,192,66996,1,0,0:0:0:0:
179,192,67124,1,0,0:0:0:0:
230,192,67124,1,0,0:0:0:0:
332,192,67124,1,0,0:0:0:0:
435,192,67124,1,0,0:0:0:0:
25,192,67188,1,0,0:0:0:0:
76,192,67188,1,0,0:0:0:0:
128,192,67252,1,0,0:0:0:0:
179,192,67252,1,0,0:0:0:0:
230,192,67252,1,0,0:0:0:0:
332,192,67252,1,0,0:0:0:0:
435,192,67252,1,0,0:0:0:0:
25,192,67379,1,0,0:0:0:0:
76,192,67379,1,0,0:0:0:0:
281,192,67379,1,0,0:0:0:0:
384,192,67379,1,0,0:0:0:0:
25,192,67507,1,0,0:0:0:0:
128,192,67507,1,0,0:0:0:0:
435,192,67507,1,0,0:0:0:0:
332,192,67507,1,0,0:0:0:0:
281,192,67635,1,0,0:0:0:0:
76,192,67762,1,0,0:0:0:0:
179,192,67762,1,0,0:0:0:0:
230,192,67762,1,0,0:0:0:0:
332,192,67762,1,0,0:0:0:0:
384,192,67762,1,0,0:0:0:0:
332,192,67890,1,0,0:0:0:0:
384,192,67890,1,0,0:0:0:0:
25,192,68018,1,0,0:0:0:0:
128,192,68018,1,0,0:0:0:0:
281,192,68018,1,0,0:0:0:0:
435,192,68018,1,0,0:0:0:0:
332,192,68145,1,0,0:0:0:0:
384,192,68145,1,0,0:0:0:0:
384,192,68273,1,0,0:0:0:0:
230,192,68273,1,0,0:0:0:0:
179,192,68273,1,0,0:0:0:0:
76,192,68273,1,0,0:0:0:0:
435,192,68273,1,0,0:0:0:0:
128,192,68401,1,0,0:0:0:0:
25,192,68401,1,0,0:0:0:0:
332,192,68401,1,0,0:0:0:0:
281,192,68528,1,0,0:0:0:0:
25,192,68528,1,0,0:0:0:0:
128,192,68528,1,0,0:0:0:0:
435,192,68528,1,0,0:0:0:0:
281,192,68656,1,0,0:0:0:0:
435,192,68656,1,0,0:0:0:0:
332,192,68784,1,0,0:0:0:0:
384,192,68784,1,0,0:0:0:0:
76,192,68784,1,0,0:0:0:0:
179,192,68784,1,0,0:0:0:0:
230,192,68784,1,0,0:0:0:0:
435,192,68911,1,0,0:0:0:0:
76,192,68911,1,0,0:0:0:0:
384,192,68911,1,0,0:0:0:0:
128,192,68975,1,0,0:0:0:0:
486,192,69039,1,0,0:0:0:0:
332,192,69039,1,0,0:0:0:0:
179,192,69039,1,0,0:0:0:0:
230,192,69039,1,0,0:0:0:0:
25,192,69039,1,0,0:0:0:0:
76,192,69167,1,0,0:0:0:0:
128,192,69167,1,0,0:0:0:0:
435,192,69167,1,0,0:0:0:0:
384,192,69294,1,0,0:0:0:0:
281,192,69294,1,0,0:0:0:0:
179,192,69294,1,0,0:0:0:0:
230,192,69294,1,0,0:0:0:0:
435,192,69422,1,0,0:0:0:0:
128,192,69422,1,0,0:0:0:0:
76,192,69422,1,0,0:0:0:0:
332,192,69422,1,0,0:0:0:0:
486,192,69550,1,0,0:0:0:0:
230,192,69550,1,0,0:0:0:0:
25,192,69550,1,0,0:0:0:0:
179,192,69550,1,0,0:0:0:0:
384,192,69550,1,0,0:0:0:0:
435,192,69677,1,0,0:0:0:0:
332,192,69677,1,0,0:0:0:0:
435,192,69805,1,0,0:0:0:0:
25,192,69805,1,0,0:0:0:0:
76,192,69805,1,0,0:0:0:0:
230,192,69805,1,0,0:0:0:0:
332,192,69805,1,0,0:0:0:0:
384,192,69933,1,0,0:0:0:0:
281,192,69933,1,0,0:0:0:0:
384,192,70060,1,0,0:0:0:0:
128,192,70060,1,0,0:0:0:0:
179,192,70060,1,0,0:0:0:0:
281,192,70060,1,0,0:0:0:0:
332,192,70188,1,0,0:0:0:0:
435,192,70188,1,0,0:0:0:0:
332,192,70316,1,0,0:0:0:0:
230,192,70316,1,0,0:0:0:0:
76,192,70316,1,0,0:0:0:0:
25,192,70316,1,0,0:0:0:0:
435,192,70316,1,0,0:0:0:0:
281,192,70443,1,0,0:0:0:0:
179,192,70443,1,0,0:0:0:0:
486,192,70443,1,0,0:0:0:0:
128,192,70507,1,0,0:0:0:0:
435,192,70571,1,0,0:0:0:0:
332,192,70571,128,0,71082:0:0:0:0:
76,192,70571,1,0,0:0:0:0:
25,192,70571,1,0,0:0:0:0:
384,192,70762,128,0,71082:0:0:0:0:
128,192,70826,1,0,0:0:0:0:
179,192,70826,1,0,0:0:0:0:
230,192,70826,1,0,0:0:0:0:
435,192,70954,128,0,71082:0:0:0:0:
25,192,71082,1,0,0:0:0:0:
76,192,71082,1,0,0:0:0:0:
486,192,71209,1,0,0:0:0:0:
435,192,71273,1,0,0:0:0:0:
281,192,71337,1,0,0:0:0:0:
332,192,71337,1,0,0:0:0:0:
230,192,71337,1,0,0:0:0:0:
179,192,71337,1,0,0:0:0:0:
384,192,71401,1,0,0:0:0:0:
128,192,71401,1,0,0:0:0:0:
435,192,71465,1,0,0:0:0:0:
76,192,71465,1,0,0:0:0:0:
486,192,71528,1,0,0:0:0:0:
25,192,71528,1,0,0:0:0:0:
332,192,71592,5,0,0:0:0:0:
281,192,71592,1,0,0:0:0:0:
384,192,71592,1,0,0:0:0:0:
435,192,71592,1,0,0:0:0:0:
128,192,71656,1,0,0:0:0:0:
179,192,71656,1,0,0:0:0:0:
230,192,71656,1,0,0:0:0:0:
281,192,71720,1,0,0:0:0:0:
332,192,71720,1,0,0:0:0:0:
384,192,71720,1,0,0:0:0:0:
128,192,71784,1,0,0:0:0:0:
179,192,71784,1,0,0:0:0:0:
230,192,71784,1,0,0:0:0:0:
281,192,71847,1,0,0:0:0:0:
332,192,71847,1,0,0:0:0:0:
384,192,71847,1,0,0:0:0:0:
76,192,71975,1,0,0:0:0:0:
128,192,71975,1,0,0:0:0:0:
179,192,71975,1,0,0:0:0:0:
230,192,71975,1,0,0:0:0:0:
281,192,72039,1,0,0:0:0:0:
332,192,72039,1,0,0:0:0:0:
384,192,72039,1,0,0:0:0:0:
128,192,72103,1,0,0:0:0:0:
179,192,72103,1,0,0:0:0:0:
230,192,72103,1,0,0:0:0:0:
281,192,72167,1,0,0:0:0:0:
332,192,72167,1,0,0:0:0:0:
384,192,72167,1,0,0:0:0:0:
128,192,72230,1,0,0:0:0:0:
179,192,72230,1,0,0:0:0:0:
230,192,72230,1,0,0:0:0:0:
281,192,72358,1,0,0:0:0:0:
332,192,72358,1,0,0:0:0:0:
384,192,72358,1,0,0:0:0:0:
435,192,72358,1,0,0:0:0:0:
76,192,72422,1,0,0:0:0:0:
128,192,72422,1,0,0:0:0:0:
179,192,72422,1,0,0:0:0:0:
332,192,72486,1,0,0:0:0:0:
384,192,72486,1,0,0:0:0:0:
435,192,72486,1,0,0:0:0:0:
128,192,72550,1,0,0:0:0:0:
179,192,72550,1,0,0:0:0:0:
230,192,72550,1,0,0:0:0:0:
384,192,72613,1,0,0:0:0:0:
435,192,72613,1,0,0:0:0:0:
486,192,72613,1,0,0:0:0:0:
25,192,72741,1,0,0:0:0:0:
76,192,72741,1,0,0:0:0:0:
128,192,72741,1,0,0:0:0:0:
179,192,72741,1,0,0:0:0:0:
384,192,72805,1,0,0:0:0:0:
435,192,72805,1,0,0:0:0:0:
486,192,72805,1,0,0:0:0:0:
76,192,72869,1,0,0:0:0:0:
128,192,72869,1,0,0:0:0:0:
179,192,72869,1,0,0:0:0:0:
332,192,72933,1,0,0:0:0:0:
384,192,72933,1,0,0:0:0:0:
435,192,72933,1,0,0:0:0:0:
128,192,72996,1,0,0:0:0:0:
179,192,72996,1,0,0:0:0:0:
230,192,72996,1,0,0:0:0:0:
435,192,73124,1,0,0:0:0:0:
384,192,73140,1,0,0:0:0:0:
332,192,73156,1,0,0:0:0:0:
281,192,73172,1,0,0:0:0:0:
230,192,73188,1,0,0:0:0:0:
179,192,73204,1,0,0:0:0:0:
128,192,73220,1,0,0:0:0:0:
76,192,73236,1,0,0:0:0:0:
332,192,73252,1,0,0:0:0:0:
384,192,73252,1,0,0:0:0:0:
435,192,73252,1,0,0:0:0:0:
128,192,73316,1,0,0:0:0:0:
179,192,73316,1,0,0:0:0:0:
230,192,73316,1,0,0:0:0:0:
384,192,73379,1,0,0:0:0:0:
435,192,73379,1,0,0:0:0:0:
486,192,73379,1,0,0:0:0:0:
25,192,73635,128,0,73890:0:0:0:0:
128,192,73635,128,0,73890:0:0:0:0:
230,192,73635,128,0,73890:0:0:0:0:
281,192,73762,128,0,74145:0:0:0:0:
332,192,73890,128,0,74018:0:0:0:0:
384,192,74018,128,0,74145:0:0:0:0:
230,192,74018,128,0,74273:0:0:0:0:
128,192,74018,128,0,74273:0:0:0:0:
25,192,74018,128,0,74273:0:0:0:0:
332,192,74145,128,0,74528:0:0:0:0:
384,192,74273,128,0,75294:0:0:0:0:
435,192,74401,128,0,74656:0:0:0:0:
25,192,74401,128,0,74528:0:0:0:0:
128,192,74401,128,0,74528:0:0:0:0:
230,192,74401,128,0,74528:0:0:0:0:
281,192,74528,128,0,75039:0:0:0:0:
486,192,74656,128,0,75422:0:0:0:0:
76,192,74656,128,0,74911:0:0:0:0:
179,192,74688,128,0,74911:0:0:0:0:
230,192,74720,128,0,74911:0:0:0:0:
25,192,75039,1,0,0:0:0:0:
76,192,75039,1,0,0:0:0:0:
179,192,75039,1,0,0:0:0:0:
435,192,75039,128,0,75358:0:0:0:0:
230,192,75167,1,0,0:0:0:0:
179,192,75230,1,0,0:0:0:0:
128,192,75294,1,0,0:0:0:0:
281,192,75294,1,0,0:0:0:0:
76,192,75358,1,0,0:0:0:0:
332,192,75358,1,0,0:0:0:0:
25,192,75422,1,0,0:0:0:0:
384,192,75422,1,0,0:0:0:0:
76,192,75486,1,0,0:0:0:0:
435,192,75486,1,0,0:0:0:0:
128,192,75550,1,0,0:0:0:0:
486,192,75550,1,0,0:0:0:0:
179,192,75613,1,0,0:0:0:0:
281,192,75613,1,0,0:0:0:0:
332,192,75677,1,0,0:0:0:0:
435,192,75677,1,0,0:0:0:0:
384,192,75677,1,0,0:0:0:0:
230,192,75677,1,0,0:0:0:0:
76,192,75677,1,0,0:0:0:0:
25,192,75677,1,0,0:0:0:0:
486,192,75805,1,0,0:0:0:0:
281,192,75933,1,0,0:0:0:0:
384,192,75933,1,0,0:0:0:0:
76,192,75933,1,0,0:0:0:0:
128,192,75933,1,0,0:0:0:0:
179,192,75933,1,0,0:0:0:0:
384,192,76060,1,0,0:0:0:0:
281,192,76060,1,0,0:0:0:0:
332,192,76188,1,0,0:0:0:0:
435,192,76188,1,0,0:0:0:0:
230,192,76188,1,0,0:0:0:0:
25,192,76188,1,0,0:0:0:0:
332,192,76316,1,0,0:0:0:0:
435,192,76316,1,0,0:0:0:0:
281,192,76443,1,0,0:0:0:0:
486,192,76443,1,0,0:0:0:0:
76,192,76443,1,0,0:0:0:0:
128,192,76443,1,0,0:0:0:0:
179,192,76443,1,0,0:0:0:0:
25,192,76571,1,0,0:0:0:0:
230,192,76571,1,0,0:0:0:0:
384,192,76571,1,0,0:0:0:0:
25,192,76699,128,0,76784:0:0:0:0:
486,192,76699,128,0,76784:0:0:0:0:
230,192,76699,1,0,0:0:0:0:
281,192,76699,1,0,0:0:0:0:
76,192,76784,128,0,76869:0:0:0:0:
435,192,76784,128,0,76869:0:0:0:0:
128,192,76869,128,0,76954:0:0:0:0:
384,192,76869,128,0,76954:0:0:0:0:
76,192,76954,128,0,77039:0:0:0:0:
435,192,76954,128,0,77039:0:0:0:0:
281,192,76954,1,0,0:0:0:0:
230,192,76954,1,0,0:0:0:0:
128,192,77039,128,0,77124:0:0:0:0:
384,192,77039,128,0,77124:0:0:0:0:
179,192,77124,128,0,77209:0:0:0:0:
332,192,77124,128,0,77209:0:0:0:0:
486,192,77209,128,0,77294:0:0:0:0:
25,192,77209,128,0,77294:0:0:0:0:
230,192,77209,1,0,0:0:0:0:
281,192,77209,1,0,0:0:0:0:
435,192,77294,128,0,77379:0:0:0:0:
76,192,77294,128,0,77379:0:0:0:0:
384,192,77379,128,0,77464:0:0:0:0:
128,192,77379,128,0,77464:0:0:0:0:
281,192,77464,128,0,77550:0:0:0:0:
230,192,77464,128,0,77550:0:0:0:0:
25,192,77464,1,0,0:0:0:0:
486,192,77464,1,0,0:0:0:0:
332,192,77550,128,0,77635:0:0:0:0:
179,192,77550,128,0,77635:0:0:0:0:
384,192,77635,128,0,77720:0:0:0:0:
128,192,77635,128,0,77720:0:0:0:0:
486,192,77720,1,0,0:0:0:0:
76,192,77720,1,0,0:0:0:0:
435,192,77762,1,0,0:0:0:0:
384,192,77805,1,0,0:0:0:0:
25,192,77847,1,0,0:0:0:0:
76,192,77890,1,0,0:0:0:0:
128,192,77933,1,0,0:0:0:0:
435,192,77975,1,0,0:0:0:0:
384,192,78018,1,0,0:0:0:0:
332,192,78060,1,0,0:0:0:0:
76,192,78103,1,0,0:0:0:0:
128,192,78145,1,0,0:0:0:0:
179,192,78188,1,0,0:0:0:0:
230,192,78230,128,0,78316:0:0:0:0:
281,192,78230,128,0,78316:0:0:0:0:
486,192,78230,1,0,0:0:0:0:
25,192,78230,1,0,0:0:0:0:
332,192,78316,128,0,78401:0:0:0:0:
179,192,78316,128,0,78401:0:0:0:0:
384,192,78401,128,0,78486:0:0:0:0:
128,192,78401,128,0,78486:0:0:0:0:
486,192,78486,128,0,78571:0:0:0:0:
25,192,78486,128,0,78571:0:0:0:0:
230,192,78486,1,0,0:0:0:0:
281,192,78486,1,0,0:0:0:0:
435,192,78571,128,0,78656:0:0:0:0:
76,192,78571,128,0,78656:0:0:0:0:
384,192,78656,128,0,78741:0:0:0:0:
128,192,78656,128,0,78741:0:0:0:0:
230,192,78741,1,0,0:0:0:0:
281,192,78741,1,0,0:0:0:0:
179,192,78741,1,0,0:0:0:0:
332,192,78805,1,0,0:0:0:0:
384,192,78869,1,0,0:0:0:0:
179,192,78869,1,0,0:0:0:0:
230,192,78869,1,0,0:0:0:0:
281,192,78933,1,0,0:0:0:0:
332,192,78996,1,0,0:0:0:0:
25,192,78996,1,0,0:0:0:0:
76,192,78996,1,0,0:0:0:0:
384,192,79060,1,0,0:0:0:0:
435,192,79124,1,0,0:0:0:0:
76,192,79124,1,0,0:0:0:0:
25,192,79124,1,0,0:0:0:0:
486,192,79188,1,0,0:0:0:0:
332,192,79252,1,0,0:0:0:0:
230,192,79252,1,0,0:0:0:0:
384,192,79316,1,0,0:0:0:0:
179,192,79316,1,0,0:0:0:0:
435,192,79379,1,0,0:0:0:0:
76,192,79379,1,0,0:0:0:0:
281,192,79443,1,0,0:0:0:0:
128,192,79443,1,0,0:0:0:0:
332,192,79507,1,0,0:0:0:0:
230,192,79507,1,0,0:0:0:0:
384,192,79571,1,0,0:0:0:0:
179,192,79571,1,0,0:0:0:0:
332,192,79635,1,0,0:0:0:0:
25,192,79635,1,0,0:0:0:0:
281,192,79699,1,0,0:0:0:0:
76,192,79699,1,0,0:0:0:0:
486,192,79762,1,0,0:0:0:0:
179,192,79762,1,0,0:0:0:0:
76,192,79890,1,0,0:0:0:0:
435,192,80018,1,0,0:0:0:0:
128,192,80018,1,0,0:0:0:0:
486,192,80103,1,0,0:0:0:0:
179,192,80145,1,0,0:0:0:0:
435,192,80188,1,0,0:0:0:0:
384,192,80273,1,0,0:0:0:0:
230,192,80404,1,0,0:0:0:0:
281,192,80534,1,0,0:0:0:0:
25,192,80534,1,0,0:0:0:0:
230,192,80665,1,0,0:0:0:0:
332,192,80795,1,0,0:0:0:0:
25,192,80795,1,0,0:0:0:0:
76,192,80890,1,0,0:0:0:0:
128,192,80985,1,0,0:0:0:0:
281,192,81080,1,0,0:0:0:0:
25,192,81080,1,0,0:0:0:0:
76,192,81175,1,0,0:0:0:0:
179,192,81271,1,0,0:0:0:0:
281,192,81366,1,0,0:0:0:0:
25,192,81366,1,0,0:0:0:0:
128,192,81487,1,0,0:0:0:0:
230,192,81608,1,0,0:0:0:0:
384,192,81729,1,0,0:0:0:0:
76,192,81729,1,0,0:0:0:0:
128,192,81850,1,0,0:0:0:0:
179,192,81972,1,0,0:0:0:0:
230,192,82093,1,0,0:0:0:0:
384,192,82093,128,0,82843:0:0:0:0:
486,192,82093,1,0,0:0:0:0:
281,192,82093,1,0,0:0:0:0:
230,192,82343,1,0,0:0:0:0:
435,192,82343,1,0,0:0:0:0:
179,192,82593,1,0,0:0:0:0:
486,192,82593,1,0,0:0:0:0:
179,192,82718,1,0,0:0:0:0:
332,192,82843,128,0,83093:0:0:0:0:
435,192,82843,1,0,0:0:0:0:
128,192,82968,1,0,0:0:0:0:
281,192,83093,128,0,83593:0:0:0:0:
179,192,83093,1,0,0:0:0:0:
486,192,83093,1,0,0:0:0:0:
128,192,83218,1,0,0:0:0:0:
179,192,83343,1,0,0:0:0:0:
384,192,83343,1,0,0:0:0:0:
435,192,83593,128,0,84593:0:0:0:0:
230,192,83593,1,0,0:0:0:0:
486,192,83593,1,0,0:0:0:0:
230,192,83843,1,0,0:0:0:0:
332,192,83843,1,0,0:0:0:0:
179,192,84093,1,0,0:0:0:0:
384,192,84093,1,0,0:0:0:0:
179,192,84218,1,0,0:0:0:0:
281,192,84343,1,0,0:0:0:0:
128,192,84468,1,0,0:0:0:0:
486,192,84593,128,0,85093:0:0:0:0:
179,192,84593,1,0,0:0:0:0:
332,192,84593,1,0,0:0:0:0:
128,192,84718,1,0,0:0:0:0:
179,192,84843,1,0,0:0:0:0:
281,192,84843,1,0,0:0:0:0:
76,192,84968,1,0,0:0:0:0:
384,192,85093,128,0,86093:0:0:0:0:
230,192,85093,1,0,0:0:0:0:
435,192,85093,1,0,0:0:0:0:
230,192,85343,1,0,0:0:0:0:
281,192,85343,1,0,0:0:0:0:
179,192,85593,1,0,0:0:0:0:
435,192,85593,1,0,0:0:0:0:
179,192,85718,1,0,0:0:0:0:
332,192,85843,1,0,0:0:0:0:
128,192,85968,1,0,0:0:0:0:
281,192,86093,128,0,86593:0:0:0:0:
179,192,86093,1,0,0:0:0:0:
486,192,86093,1,0,0:0:0:0:
128,192,86218,1,0,0:0:0:0:
179,192,86343,1,0,0:0:0:0:
435,192,86343,1,0,0:0:0:0:
332,192,86593,128,0,88093:0:0:0:0:
76,192,86593,1,0,0:0:0:0:
486,192,86593,1,0,0:0:0:0:
128,192,86718,1,0,0:0:0:0:
179,192,86843,1,0,0:0:0:0:
384,192,86843,1,0,0:0:0:0:
128,192,86968,1,0,0:0:0:0:
76,192,87093,1,0,0:0:0:0:
435,192,87093,1,0,0:0:0:0:
25,192,87218,1,0,0:0:0:0:
179,192,87343,1,0,0:0:0:0:
281,192,87343,1,0,0:0:0:0:
128,192,87405,1,0,0:0:0:0:
76,192,87468,1,0,0:0:0:0:
230,192,87593,1,0,0:0:0:0:
435,192,87593,1,0,0:0:0:0:
179,192,87718,1,0,0:0:0:0:
128,192,87843,1,0,0:0:0:0:
384,192,87843,1,0,0:0:0:0:
76,192,87968,1,0,0:0:0:0:
281,192,88093,128,0,88593:0:0:0:0:
230,192,88093,1,0,0:0:0:0:
486,192,88093,1,0,0:0:0:0:
230,192,88343,1,0,0:0:0:0:
384,192,88343,1,0,0:0:0:0:
332,192,88593,128,0,88843:0:0:0:0:
179,192,88593,1,0,0:0:0:0:
435,192,88593,1,0,0:0:0:0:
179,192,88718,1,0,0:0:0:0:
384,192,88843,128,0,89093:0:0:0:0:
486,192,88843,1,0,0:0:0:0:
128,192,88968,1,0,0:0:0:0:
435,192,89093,128,0,89593:0:0:0:0:
179,192,89093,1,0,0:0:0:0:
281,192,89093,1,0,0:0:0:0:
128,192,89218,1,0,0:0:0:0:
179,192,89343,1,0,0:0:0:0:
332,192,89343,1,0,0:0:0:0:
281,192,89593,128,0,90093:0:0:0:0:
230,192,89593,1,0,0:0:0:0:
384,192,89593,1,0,0:0:0:0:
230,192,89843,1,0,0:0:0:0:
486,192,89843,1,0,0:0:0:0:
435,192,90093,128,0,90593:0:0:0:0:
179,192,90093,1,0,0:0:0:0:
332,192,90093,1,0,0:0:0:0:
179,192,90218,1,0,0:0:0:0:
384,192,90343,1,0,0:0:0:0:
128,192,90468,1,0,0:0:0:0:
332,192,90593,128,0,90843:0:0:0:0:
179,192,90593,1,0,0:0:0:0:
281,192,90593,1,0,0:0:0:0:
128,192,90655,1,0,0:0:0:0:
76,192,90718,1,0,0:0:0:0:
486,192,90843,128,0,92093:0:0:0:0:
179,192,90843,1,0,0:0:0:0:
435,192,90843,1,0,0:0:0:0:
230,192,91093,1,0,0:0:0:0:
281,192,91093,1,0,0:0:0:0:
230,192,91343,1,0,0:0:0:0:
435,192,91343,1,0,0:0:0:0:
179,192,91593,1,0,0:0:0:0:
281,192,91593,1,0,0:0:0:0:
179,192,91718,1,0,0:0:0:0:
332,192,91843,1,0,0:0:0:0:
128,192,91968,1,0,0:0:0:0:
384,192,92093,128,0,92593:0:0:0:0:
179,192,92093,1,0,0:0:0:0:
281,192,92093,1,0,0:0:0:0:
128,192,92218,1,0,0:0:0:0:
179,192,92343,1,0,0:0:0:0:
435,192,92343,1,0,0:0:0:0:
128,192,92405,1,0,0:0:0:0:
76,192,92468,1,0,0:0:0:0:
25,192,92530,1,0,0:0:0:0:
281,192,92593,128,0,93593:0:0:0:0:
230,192,92593,1,0,0:0:0:0:
332,192,92593,1,0,0:0:0:0:
128,192,92718,1,0,0:0:0:0:
179,192,92843,1,0,0:0:0:0:
486,192,92843,1,0,0:0:0:0:
128,192,92968,1,0,0:0:0:0:
179,192,93093,1,0,0:0:0:0:
332,192,93093,1,0,0:0:0:0:
76,192,93343,1,0,0:0:0:0:
384,192,93343,1,0,0:0:0:0:
128,192,93405,1,0,0:0:0:0:
179,192,93468,1,0,0:0:0:0:
230,192,93593,1,0,0:0:0:0:
25,192,93593,1,0,0:0:0:0:
435,192,93593,1,0,0:0:0:0:
486,192,94093,128,0,94935:0:0:0:0:
281,192,94093,1,0,0:0:0:0:
384,192,94093,1,0,0:0:0:0:
128,192,94093,1,0,0:0:0:0:
25,192,94093,1,0,0:0:0:0:
230,192,94093,1,0,0:0:0:0:
435,192,94935,128,0,95145:0:0:0:0:
179,192,94935,1,0,0:0:0:0:
230,192,95040,1,0,0:0:0:0:
486,192,95145,128,0,95356:0:0:0:0:
281,192,95145,1,0,0:0:0:0:
384,192,95356,128,0,95689:0:0:0:0:
179,192,95356,1,0,0:0:0:0:
25,192,95356,1,0,0:0:0:0:
435,192,95356,1,0,0:0:0:0:
128,192,95356,1,0,0:0:0:0:
332,192,95356,1,0,0:0:0:0:
76,192,95606,1,0,0:0:0:0:
332,192,95689,128,0,96022:0:0:0:0:
128,192,95689,1,0,0:0:0:0:
179,192,95856,1,0,0:0:0:0:
281,192,96022,128,0,96356:0:0:0:0:
128,192,96022,1,0,0:0:0:0:
435,192,96022,1,0,0:0:0:0:
384,192,96189,1,0,0:0:0:0:
230,192,96356,128,0,96956:0:0:0:0:
486,192,96356,1,0,0:0:0:0:
25,192,96356,1,0,0:0:0:0:
76,192,96356,1,0,0:0:0:0:
435,192,96356,1,0,0:0:0:0:
486,192,96656,1,0,0:0:0:0:
384,192,96656,1,0,0:0:0:0:
435,192,96656,1,0,0:0:0:0:
128,192,96956,128,0,97443:0:0:0:0:
332,192,96956,1,0,0:0:0:0:
435,192,96956,1,0,0:0:0:0:
384,192,96956,1,0,0:0:0:0:
281,192,97256,1,0,0:0:0:0:
384,192,97256,1,0,0:0:0:0:
332,192,97256,1,0,0:0:0:0:
179,192,97443,128,0,98138:0:0:0:0:
25,192,97443,1,0,0:0:0:0:
230,192,97443,1,0,0:0:0:0:
332,192,97443,1,0,0:0:0:0:
435,192,97443,1,0,0:0:0:0:
486,192,97443,1,0,0:0:0:0:
281,192,97703,1,0,0:0:0:0:
332,192,97834,1,0,0:0:0:0:
384,192,97899,1,0,0:0:0:0:
435,192,97964,1,0,0:0:0:0:
332,192,98029,1,0,0:0:0:0:
384,192,98095,1,0,0:0:0:0:
76,192,98138,128,0,98877:0:0:0:0:
435,192,98160,1,0,0:0:0:0:
486,192,98225,1,0,0:0:0:0:
435,192,98290,1,0,0:0:0:0:
281,192,98356,1,0,0:0:0:0:
128,192,98356,1,0,0:0:0:0:
332,192,98421,1,0,0:0:0:0:
179,192,98421,1,0,0:0:0:0:
384,192,98486,1,0,0:0:0:0:
230,192,98486,1,0,0:0:0:0:
281,192,98551,1,0,0:0:0:0:
128,192,98551,1,0,0:0:0:0:
332,192,98616,1,0,0:0:0:0:
179,192,98616,1,0,0:0:0:0:
435,192,98682,1,0,0:0:0:0:
230,192,98682,1,0,0:0:0:0:
281,192,98747,1,0,0:0:0:0:
128,192,98747,1,0,0:0:0:0:
179,192,98812,1,0,0:0:0:0:
332,192,98812,1,0,0:0:0:0:
25,192,98877,128,0,100408:0:0:0:0:
486,192,98877,1,0,0:0:0:0:
435,192,98877,1,0,0:0:0:0:
230,192,98877,1,0,0:0:0:0:
384,192,98877,1,0,0:0:0:0:
281,192,98877,1,0,0:0:0:0:
384,192,99004,1,0,0:0:0:0:
332,192,99068,1,0,0:0:0:0:
76,192,99132,1,0,0:0:0:0:
128,192,99132,1,0,0:0:0:0:
179,192,99132,1,0,0:0:0:0:
486,192,99132,1,0,0:0:0:0:
281,192,99132,1,0,0:0:0:0:
435,192,99196,1,0,0:0:0:0:
384,192,99259,1,0,0:0:0:0:
332,192,99323,1,0,0:0:0:0:
76,192,99387,1,0,0:0:0:0:
179,192,99387,1,0,0:0:0:0:
128,192,99387,1,0,0:0:0:0:
281,192,99387,1,0,0:0:0:0:
486,192,99387,1,0,0:0:0:0:
435,192,99451,1,0,0:0:0:0:
384,192,99515,1,0,0:0:0:0:
332,192,99579,1,0,0:0:0:0:
281,192,99642,1,0,0:0:0:0:
435,192,99642,1,0,0:0:0:0:
76,192,99642,1,0,0:0:0:0:
230,192,99642,1,0,0:0:0:0:
384,192,99685,1,0,0:0:0:0:
332,192,99728,1,0,0:0:0:0:
76,192,99770,1,0,0:0:0:0:
128,192,99813,1,0,0:0:0:0:
179,192,99855,1,0,0:0:0:0:
435,192,99898,1,0,0:0:0:0:
384,192,99940,1,0,0:0:0:0:
332,192,99983,1,0,0:0:0:0:
76,192,100025,1,0,0:0:0:0:
128,192,100068,1,0,0:0:0:0:
179,192,100111,1,0,0:0:0:0:
435,192,100153,1,0,0:0:0:0:
384,192,100196,1,0,0:0:0:0:
332,192,100238,1,0,0:0:0:0:
76,192,100281,1,0,0:0:0:0:
128,192,100323,1,0,0:0:0:0:
179,192,100366,1,0,0:0:0:0:
76,192,100408,1,0,0:0:0:0:
230,192,100408,1,0,0:0:0:0:
435,192,100408,1,0,0:0:0:0:
486,192,100408,1,0,0:0:0:0:
230,192,100535,1,0,0:0:0:0:
76,192,100535,1,0,0:0:0:0:
25,192,100535,1,0,0:0:0:0:
435,192,100535,1,0,0:0:0:0:
384,192,100599,1,0,0:0:0:0:
25,192,100663,1,0,0:0:0:0:
76,192,100663,1,0,0:0:0:0:
230,192,100663,1,0,0:0:0:0:
332,192,100663,1,0,0:0:0:0:
281,192,100727,1,0,0:0:0:0:
230,192,100790,1,0,0:0:0:0:
76,192,100790,1,0,0:0:0:0:
25,192,100790,1,0,0:0:0:0:
384,192,100790,1,0,0:0:0:0:
332,192,100854,1,0,0:0:0:0:
281,192,100918,1,0,0:0:0:0:
435,192,100918,1,0,0:0:0:0:
486,192,100918,1,0,0:0:0:0:
25,192,100918,1,0,0:0:0:0:
230,192,100918,1,0,0:0:0:0:
76,192,100982,1,0,0:0:0:0:
281,192,101046,1,0,0:0:0:0:
486,192,101046,1,0,0:0:0:0:
435,192,101046,1,0,0:0:0:0:
128,192,101046,1,0,0:0:0:0:
179,192,101110,1,0,0:0:0:0:
486,192,101173,1,0,0:0:0:0:
435,192,101173,1,0,0:0:0:0:
281,192,101173,1,0,0:0:0:0:
76,192,101173,1,0,0:0:0:0:
128,192,101237,1,0,0:0:0:0:
281,192,101301,1,0,0:0:0:0:
435,192,101301,1,0,0:0:0:0:
486,192,101301,1,0,0:0:0:0:
25,192,101301,1,0,0:0:0:0:
76,192,101365,1,0,0:0:0:0:
179,192,101429,1,0,0:0:0:0:
230,192,101429,1,0,0:0:0:0:
281,192,101429,1,0,0:0:0:0:
435,192,101429,1,0,0:0:0:0:
128,192,101493,1,0,0:0:0:0:
25,192,101556,1,0,0:0:0:0:
76,192,101556,1,0,0:0:0:0:
486,192,101556,1,0,0:0:0:0:
128,192,101620,1,0,0:0:0:0:
435,192,101620,1,0,0:0:0:0:
179,192,101684,1,0,0:0:0:0:
230,192,101684,1,0,0:0:0:0:
384,192,101684,1,0,0:0:0:0:
25,192,101748,1,0,0:0:0:0:
332,192,101748,1,0,0:0:0:0:
76,192,101812,1,0,0:0:0:0:
128,192,101812,1,0,0:0:0:0:
435,192,101812,1,0,0:0:0:0:
179,192,101876,1,0,0:0:0:0:
384,192,101876,1,0,0:0:0:0:
486,192,101939,1,0,0:0:0:0:
281,192,101939,1,0,0:0:0:0:
230,192,101939,1,0,0:0:0:0:
25,192,101939,1,0,0:0:0:0:
332,192,102003,1,0,0:0:0:0:
179,192,102003,1,0,0:0:0:0:
384,192,102067,1,0,0:0:0:0:
435,192,102067,1,0,0:0:0:0:
128,192,102067,1,0,0:0:0:0:
486,192,102131,1,0,0:0:0:0:
76,192,102131,1,0,0:0:0:0:
281,192,102195,1,0,0:0:0:0:
332,192,102195,1,0,0:0:0:0:
25,192,102195,1,0,0:0:0:0:
384,192,102259,1,0,0:0:0:0:
76,192,102259,1,0,0:0:0:0:
435,192,102322,1,0,0:0:0:0:
281,192,102322,1,0,0:0:0:0:
128,192,102322,1,0,0:0:0:0:
486,192,102386,1,0,0:0:0:0:
179,192,102386,1,0,0:0:0:0:
25,192,102450,1,0,0:0:0:0:
230,192,102450,1,0,0:0:0:0:
281,192,102450,1,0,0:0:0:0:
332,192,102450,1,0,0:0:0:0:
384,192,102450,1,0,0:0:0:0:
76,192,102450,1,0,0:0:0:0:
25,192,102578,1,0,0:0:0:0:
281,192,102578,1,0,0:0:0:0:
332,192,102705,1,0,0:0:0:0:
76,192,102705,1,0,0:0:0:0:
128,192,102833,1,0,0:0:0:0:
384,192,102833,1,0,0:0:0:0:
332,192,102961,1,0,0:0:0:0:
76,192,102961,1,0,0:0:0:0:
435,192,103088,1,0,0:0:0:0:
179,192,103088,1,0,0:0:0:0:
486,192,103216,1,0,0:0:0:0:
230,192,103216,1,0,0:0:0:0:
281,192,103344,1,0,0:0:0:0:
25,192,103344,1,0,0:0:0:0:
179,192,103471,1,0,0:0:0:0:
76,192,103471,1,0,0:0:0:0:
128,192,103471,1,0,0:0:0:0:
230,192,103471,1,0,0:0:0:0:
435,192,103535,1,0,0:0:0:0:
384,192,103535,1,0,0:0:0:0:
332,192,103535,1,0,0:0:0:0:
179,192,103599,1,0,0:0:0:0:
128,192,103599,1,0,0:0:0:0:
76,192,103599,1,0,0:0:0:0:
332,192,103663,1,0,0:0:0:0:
384,192,103663,1,0,0:0:0:0:
435,192,103663,1,0,0:0:0:0:
179,192,103727,1,0,0:0:0:0:
128,192,103727,1,0,0:0:0:0:
76,192,103727,1,0,0:0:0:0:
332,192,103790,1,0,0:0:0:0:
384,192,103790,1,0,0:0:0:0:
435,192,103790,1,0,0:0:0:0:
128,192,103854,1,0,0:0:0:0:
179,192,103854,1,0,0:0:0:0:
76,192,103854,1,0,0:0:0:0:
25,192,103854,1,0,0:0:0:0:
332,192,103918,1,0,0:0:0:0:
384,192,103918,1,0,0:0:0:0:
435,192,103918,1,0,0:0:0:0:
179,192,103982,1,0,0:0:0:0:
128,192,103982,1,0,0:0:0:0:
76,192,103982,1,0,0:0:0:0:
332,192,104110,1,0,0:0:0:0:
384,192,104110,1,0,0:0:0:0:
435,192,104110,1,0,0:0:0:0:
76,192,104110,1,0,0:0:0:0:
128,192,104110,1,0,0:0:0:0:
179,192,104110,1,0,0:0:0:0:
281,192,104237,1,0,0:0:0:0:
486,192,104237,1,0,0:0:0:0:
230,192,104237,1,0,0:0:0:0:
128,192,104237,1,0,0:0:0:0:
25,192,104237,1,0,0:0:0:0:
332,192,104301,1,0,0:0:0:0:
384,192,104365,1,0,0:0:0:0:
435,192,104429,1,0,0:0:0:0:
486,192,104493,1,0,0:0:0:0:
281,192,104493,1,0,0:0:0:0:
230,192,104493,1,0,0:0:0:0:
25,192,104493,1,0,0:0:0:0:
76,192,104493,1,0,0:0:0:0:
435,192,104620,1,0,0:0:0:0:
281,192,104748,1,0,0:0:0:0:
384,192,104748,1,0,0:0:0:0:
25,192,104748,1,0,0:0:0:0:
128,192,104748,1,0,0:0:0:0:
179,192,104748,1,0,0:0:0:0:
230,192,104748,1,0,0:0:0:0:
281,192,104876,1,0,0:0:0:0:
384,192,104876,1,0,0:0:0:0:
332,192,105003,1,0,0:0:0:0:
435,192,105003,1,0,0:0:0:0:
25,192,105003,1,0,0:0:0:0:
76,192,105003,1,0,0:0:0:0:
230,192,105003,1,0,0:0:0:0:
435,192,105131,1,0,0:0:0:0:
332,192,105131,1,0,0:0:0:0:
384,192,105259,1,0,0:0:0:0:
486,192,105259,1,0,0:0:0:0:
230,192,105259,1,0,0:0:0:0:
179,192,105259,1,0,0:0:0:0:
128,192,105259,1,0,0:0:0:0:
25,192,105259,1,0,0:0:0:0:
435,192,105386,1,0,0:0:0:0:
25,192,105514,128,0,105599:0:0:0:0:
486,192,105514,128,0,105599:0:0:0:0:
230,192,105514,1,0,0:0:0:0:
281,192,105514,1,0,0:0:0:0:
76,192,105599,128,0,105684:0:0:0:0:
435,192,105599,128,0,105684:0:0:0:0:
128,192,105684,128,0,105769:0:0:0:0:
384,192,105684,128,0,105769:0:0:0:0:
76,192,105769,128,0,105854:0:0:0:0:
435,192,105769,128,0,105854:0:0:0:0:
281,192,105769,1,0,0:0:0:0:
230,192,105769,1,0,0:0:0:0:
128,192,105854,128,0,105939:0:0:0:0:
384,192,105854,128,0,105939:0:0:0:0:
179,192,105939,128,0,106025:0:0:0:0:
332,192,105939,128,0,106025:0:0:0:0:
486,192,106025,128,0,106110:0:0:0:0:
230,192,106025,1,0,0:0:0:0:
281,192,106025,1,0,0:0:0:0:
25,192,106025,1,0,0:0:0:0:
76,192,106088,1,0,0:0:0:0:
435,192,106110,128,0,106195:0:0:0:0:
128,192,106152,1,0,0:0:0:0:
384,192,106195,128,0,106280:0:0:0:0:
76,192,106216,1,0,0:0:0:0:
281,192,106280,128,0,106365:0:0:0:0:
230,192,106280,128,0,106365:0:0:0:0:
25,192,106280,1,0,0:0:0:0:
486,192,106280,1,0,0:0:0:0:
332,192,106365,128,0,106450:0:0:0:0:
179,192,106365,128,0,106450:0:0:0:0:
384,192,106450,128,0,106535:0:0:0:0:
128,192,106450,128,0,106535:0:0:0:0:
486,192,106535,1,0,0:0:0:0:
76,192,106535,1,0,0:0:0:0:
435,192,106578,1,0,0:0:0:0:
384,192,106620,1,0,0:0:0:0:
25,192,106663,1,0,0:0:0:0:
76,192,106705,1,0,0:0:0:0:
128,192,106748,1,0,0:0:0:0:
435,192,106790,1,0,0:0:0:0:
384,192,106833,1,0,0:0:0:0:
332,192,106876,1,0,0:0:0:0:
76,192,106918,1,0,0:0:0:0:
128,192,106961,1,0,0:0:0:0:
179,192,107003,1,0,0:0:0:0:
230,192,107046,128,0,107131:0:0:0:0:
281,192,107046,128,0,107131:0:0:0:0:
486,192,107046,1,0,0:0:0:0:
25,192,107046,1,0,0:0:0:0:
332,192,107131,128,0,107216:0:0:0:0:
179,192,107131,128,0,107216:0:0:0:0:
384,192,107216,128,0,107301:0:0:0:0:
128,192,107216,128,0,107301:0:0:0:0:
486,192,107301,128,0,107386:0:0:0:0:
25,192,107301,128,0,107386:0:0:0:0:
230,192,107301,1,0,0:0:0:0:
281,192,107301,1,0,0:0:0:0:
435,192,107386,128,0,107471:0:0:0:0:
76,192,107386,128,0,107471:0:0:0:0:
384,192,107471,128,0,107556:0:0:0:0:
128,192,107471,128,0,107556:0:0:0:0:
230,192,107556,1,0,0:0:0:0:
281,192,107556,1,0,0:0:0:0:
179,192,107556,1,0,0:0:0:0:
332,192,107620,1,0,0:0:0:0:
384,192,107684,1,0,0:0:0:0:
179,192,107684,1,0,0:0:0:0:
230,192,107684,1,0,0:0:0:0:
435,192,107748,1,0,0:0:0:0:
332,192,107812,1,0,0:0:0:0:
76,192,107812,1,0,0:0:0:0:
25,192,107812,1,0,0:0:0:0:
384,192,107876,1,0,0:0:0:0:
25,192,107939,1,0,0:0:0:0:
435,192,107939,1,0,0:0:0:0:
76,192,107939,1,0,0:0:0:0:
486,192,108003,1,0,0:0:0:0:
384,192,108067,1,0,0:0:0:0:
332,192,108110,1,0,0:0:0:0:
281,192,108152,1,0,0:0:0:0:
128,192,108195,1,0,0:0:0:0:
179,192,108237,1,0,0:0:0:0:
230,192,108280,1,0,0:0:0:0:
384,192,108322,1,0,0:0:0:0:
332,192,108365,1,0,0:0:0:0:
281,192,108408,1,0,0:0:0:0:
128,192,108450,1,0,0:0:0:0:
179,192,108493,1,0,0:0:0:0:
230,192,108535,1,0,0:0:0:0:
281,192,108578,1,0,0:0:0:0:
332,192,108578,1,0,0:0:0:0:
25,192,108578,1,0,0:0:0:0:
76,192,108578,1,0,0:0:0:0:
281,192,108705,1,0,0:0:0:0:
384,192,108705,1,0,0:0:0:0:
179,192,108705,1,0,0:0:0:0:
128,192,108769,1,0,0:0:0:0:
281,192,108833,1,0,0:0:0:0:
435,192,108833,1,0,0:0:0:0:
76,192,108833,1,0,0:0:0:0:
25,192,108833,1,0,0:0:0:0:
281,192,108960,1,0,0:0:0:0:
486,192,108960,1,0,0:0:0:0:
179,192,108960,1,0,0:0:0:0:
230,192,108960,1,0,0:0:0:0:
435,192,109088,1,0,0:0:0:0:
281,192,109088,1,0,0:0:0:0:
76,192,109088,1,0,0:0:0:0:
128,192,109152,1,0,0:0:0:0:
281,192,109216,1,0,0:0:0:0:
384,192,109216,1,0,0:0:0:0:
179,192,109216,1,0,0:0:0:0:
25,192,109216,1,0,0:0:0:0:
332,192,109343,1,0,0:0:0:0:
486,192,109343,1,0,0:0:0:0:
76,192,109343,1,0,0:0:0:0:
230,192,109343,1,0,0:0:0:0:
281,192,109471,1,0,0:0:0:0:
486,192,109471,1,0,0:0:0:0:
179,192,109471,1,0,0:0:0:0:
25,192,109471,1,0,0:0:0:0:
332,192,109599,1,0,0:0:0:0:
486,192,109599,1,0,0:0:0:0:
76,192,109599,1,0,0:0:0:0:
128,192,109599,1,0,0:0:0:0:
486,192,109726,1,0,0:0:0:0:
384,192,109726,1,0,0:0:0:0:
179,192,109726,1,0,0:0:0:0:
230,192,109726,1,0,0:0:0:0:
25,192,109854,1,0,0:0:0:0:
128,192,109854,1,0,0:0:0:0:
281,192,109854,1,0,0:0:0:0:
435,192,109854,1,0,0:0:0:0:
25,192,109982,1,0,0:0:0:0:
76,192,109982,1,0,0:0:0:0:
332,192,109982,1,0,0:0:0:0:
384,192,110046,1,0,0:0:0:0:
25,192,110109,1,0,0:0:0:0:
128,192,110109,1,0,0:0:0:0:
435,192,110109,1,0,0:0:0:0:
486,192,110109,1,0,0:0:0:0:
25,192,110237,1,0,0:0:0:0:
179,192,110237,1,0,0:0:0:0:
281,192,110237,1,0,0:0:0:0:
332,192,110237,1,0,0:0:0:0:
25,192,110365,1,0,0:0:0:0:
128,192,110365,1,0,0:0:0:0:
435,192,110365,1,0,0:0:0:0:
384,192,110429,1,0,0:0:0:0:
25,192,110492,1,0,0:0:0:0:
179,192,110492,1,0,0:0:0:0:
332,192,110492,1,0,0:0:0:0:
486,192,110492,1,0,0:0:0:0:
230,192,110620,1,0,0:0:0:0:
76,192,110620,1,0,0:0:0:0:
332,192,110620,1,0,0:0:0:0:
384,192,110684,1,0,0:0:0:0:
230,192,110748,1,0,0:0:0:0:
128,192,110748,1,0,0:0:0:0:
435,192,110748,1,0,0:0:0:0:
281,192,110748,1,0,0:0:0:0:
76,192,110875,1,0,0:0:0:0:
230,192,110875,1,0,0:0:0:0:
486,192,110875,1,0,0:0:0:0:
435,192,110891,1,0,0:0:0:0:
384,192,110907,1,0,0:0:0:0:
332,192,110923,1,0,0:0:0:0:
281,192,110939,1,0,0:0:0:0:
25,192,111003,1,0,0:0:0:0:
76,192,111019,1,0,0:0:0:0:
128,192,111035,1,0,0:0:0:0:
179,192,111051,1,0,0:0:0:0:
230,192,111067,1,0,0:0:0:0:
25,192,111131,1,0,0:0:0:0:
76,192,111131,1,0,0:0:0:0:
486,192,111131,1,0,0:0:0:0:
435,192,111131,1,0,0:0:0:0:
384,192,111216,1,0,0:0:0:0:
128,192,111216,1,0,0:0:0:0:
179,192,111301,1,0,0:0:0:0:
332,192,111301,1,0,0:0:0:0:
230,192,111386,1,0,0:0:0:0:
281,192,111386,1,0,0:0:0:0:
435,192,111386,1,0,0:0:0:0:
76,192,111386,1,0,0:0:0:0:
384,192,111429,1,0,0:0:0:0:
128,192,111429,1,0,0:0:0:0:
332,192,111471,1,0,0:0:0:0:
179,192,111471,1,0,0:0:0:0:
281,192,111514,1,0,0:0:0:0:
230,192,111514,1,0,0:0:0:0:
179,192,111556,1,0,0:0:0:0:
332,192,111556,1,0,0:0:0:0:
128,192,111599,1,0,0:0:0:0:
384,192,111599,1,0,0:0:0:0:
486,192,111641,1,0,0:0:0:0:
435,192,111673,1,0,0:0:0:0:
384,192,111705,1,0,0:0:0:0:
332,192,111737,1,0,0:0:0:0:
25,192,111769,1,0,0:0:0:0:
76,192,111801,1,0,0:0:0:0:
128,192,111833,1,0,0:0:0:0:
179,192,111865,1,0,0:0:0:0:
230,192,111897,1,0,0:0:0:0:
281,192,111897,1,0,0:0:0:0:
332,192,111939,1,0,0:0:0:0:
179,192,111939,1,0,0:0:0:0:
128,192,111982,1,0,0:0:0:0:
384,192,111982,1,0,0:0:0:0:
486,192,112024,1,0,0:0:0:0:
25,192,112024,1,0,0:0:0:0:
435,192,112067,1,0,0:0:0:0:
76,192,112067,1,0,0:0:0:0:
384,192,112109,1,0,0:0:0:0:
128,192,112109,1,0,0:0:0:0:
281,192,112152,1,0,0:0:0:0:
230,192,112152,1,0,0:0:0:0:
332,192,112195,1,0,0:0:0:0:
179,192,112195,1,0,0:0:0:0:
384,192,112237,1,0,0:0:0:0:
128,192,112237,1,0,0:0:0:0:
486,192,112280,1,0,0:0:0:0:
25,192,112280,1,0,0:0:0:0:
435,192,112322,1,0,0:0:0:0:
76,192,112322,1,0,0:0:0:0:
384,192,112365,1,0,0:0:0:0:
128,192,112365,1,0,0:0:0:0:
179,192,112407,1,0,0:0:0:0:
230,192,112407,1,0,0:0:0:0:
281,192,112407,1,0,0:0:0:0:
332,192,112407,1,0,0:0:0:0:
384,192,112492,1,0,0:0:0:0:
128,192,112492,1,0,0:0:0:0:
76,192,112578,1,0,0:0:0:0:
435,192,112578,1,0,0:0:0:0:
332,192,112663,1,0,0:0:0:0:
179,192,112663,1,0,0:0:0:0:
230,192,112663,1,0,0:0:0:0:
281,192,112663,1,0,0:0:0:0:
128,192,112705,1,0,0:0:0:0:
384,192,112705,1,0,0:0:0:0:
435,192,112748,1,0,0:0:0:0:
76,192,112748,1,0,0:0:0:0:
25,192,112790,1,0,0:0:0:0:
486,192,112790,1,0,0:0:0:0:
435,192,112833,1,0,0:0:0:0:
76,192,112833,1,0,0:0:0:0:
128,192,112875,1,0,0:0:0:0:
384,192,112875,1,0,0:0:0:0:
281,192,112918,1,0,0:0:0:0:
332,192,112950,1,0,0:0:0:0:
384,192,112982,1,0,0:0:0:0:
435,192,113014,1,0,0:0:0:0:
230,192,113046,1,0,0:0:0:0:
179,192,113078,1,0,0:0:0:0:
128,192,113109,1,0,0:0:0:0:
76,192,113141,1,0,0:0:0:0:
486,192,113173,1,0,0:0:0:0:
25,192,113173,1,0,0:0:0:0:
230,192,113173,1,0,0:0:0:0:
281,192,113173,1,0,0:0:0:0:
25,192,113301,1,0,0:0:0:0:
486,192,113301,1,0,0:0:0:0:
230,192,113301,1,0,0:0:0:0:
179,192,113301,1,0,0:0:0:0:
281,192,113301,1,0,0:0:0:0:
332,192,113301,1,0,0:0:0:0:
486,192,113429,1,0,0:0:0:0:
25,192,113429,1,0,0:0:0:0:
384,192,113429,1,0,0:0:0:0:
281,192,113429,1,0,0:0:0:0:
230,192,113429,1,0,0:0:0:0:
128,192,113429,1,0,0:0:0:0:
25,192,113556,1,0,0:0:0:0:
486,192,113556,1,0,0:0:0:0:
435,192,113556,1,0,0:0:0:0:
281,192,113556,1,0,0:0:0:0:
230,192,113556,1,0,0:0:0:0:
76,192,113556,1,0,0:0:0:0:
332,192,113685,1,0,0:0:0:0:
179,192,113685,1,0,0:0:0:0:
281,192,114146,1,0,0:0:0:0:
332,192,114146,1,0,0:0:0:0:
435,192,114146,1,0,0:0:0:0:
486,192,114146,1,0,0:0:0:0:
230,192,114146,128,0,115805:0:0:0:0:
25,192,114146,128,0,115805:0:0:0:0:
281,192,114656,1,0,0:0:0:0:
332,192,114656,1,0,0:0:0:0:
435,192,114656,1,0,0:0:0:0:
486,192,114656,1,0,0:0:0:0:
486,192,115039,1,0,0:0:0:0:
435,192,115039,1,0,0:0:0:0:
332,192,115039,1,0,0:0:0:0:
281,192,115039,1,0,0:0:0:0:
281,192,115422,1,0,0:0:0:0:
332,192,115422,1,0,0:0:0:0:
435,192,115422,1,0,0:0:0:0:
486,192,115422,1,0,0:0:0:0:
435,192,115677,1,0,0:0:0:0:
486,192,115677,1,0,0:0:0:0:
332,192,115677,1,0,0:0:0:0:
281,192,115677,1,0,0:0:0:0:
25,192,115933,1,0,0:0:0:0:
76,192,115933,1,0,0:0:0:0:
179,192,115933,1,0,0:0:0:0:
230,192,115933,1,0,0:0:0:0:
281,192,115933,128,0,116571:0:0:0:0:
486,192,115933,128,0,116571:0:0:0:0:
230,192,116316,1,0,0:0:0:0:
179,192,116316,1,0,0:0:0:0:
76,192,116316,1,0,0:0:0:0:
25,192,116316,1,0,0:0:0:0:
332,192,116699,1,0,0:0:0:0:
384,192,116699,1,0,0:0:0:0:
435,192,116699,1,0,0:0:0:0:
486,192,116699,1,0,0:0:0:0:
486,192,116826,5,0,0:0:0:0:
435,192,116826,1,0,0:0:0:0:
384,192,116826,1,0,0:0:0:0:
332,192,116826,1,0,0:0:0:0:
179,192,116954,1,0,0:0:0:0:
128,192,116954,1,0,0:0:0:0:
76,192,116954,1,0,0:0:0:0:
25,192,116954,1,0,0:0:0:0:
25,192,117082,1,0,0:0:0:0:
76,192,117082,1,0,0:0:0:0:
128,192,117082,1,0,0:0:0:0:
179,192,117082,1,0,0:0:0:0:
281,192,117209,1,0,0:0:0:0:
230,192,117209,1,0,0:0:0:0:
486,192,117209,1,0,0:0:0:0:
25,192,117209,1,0,0:0:0:0:
76,192,117209,1,0,0:0:0:0:
435,192,117209,1,0,0:0:0:0:
230,192,117337,1,0,0:0:0:0:
281,192,117337,1,0,0:0:0:0:
25,192,117337,1,0,0:0:0:0:
486,192,117337,1,0,0:0:0:0:
76,192,117337,1,0,0:0:0:0:
435,192,117337,1,0,0:0:0:0:
281,192,117465,1,0,0:0:0:0:
332,192,117465,1,0,0:0:0:0:
384,192,117465,1,0,0:0:0:0:
25,192,117528,1,0,0:0:0:0:
76,192,117528,1,0,0:0:0:0:
128,192,117528,1,0,0:0:0:0:
384,192,117592,1,0,0:0:0:0:
435,192,117592,1,0,0:0:0:0:
332,192,117592,1,0,0:0:0:0:
128,192,117656,1,0,0:0:0:0:
179,192,117656,1,0,0:0:0:0:
76,192,117656,1,0,0:0:0:0:
384,192,117720,1,0,0:0:0:0:
435,192,117720,1,0,0:0:0:0:
486,192,117720,1,0,0:0:0:0:
179,192,117784,1,0,0:0:0:0:
230,192,117784,1,0,0:0:0:0:
128,192,117784,1,0,0:0:0:0:
384,192,117848,1,0,0:0:0:0:
435,192,117848,1,0,0:0:0:0:
332,192,117848,1,0,0:0:0:0:
179,192,117911,1,0,0:0:0:0:
128,192,117911,1,0,0:0:0:0:
76,192,117911,1,0,0:0:0:0:
