osu file format v14

[General]
AudioFilename: audio.ogg
AudioLeadIn: 0
PreviewTime: 104570
Countdown: 0
SampleSet: Soft
StackLeniency: 0.7
Mode: 3
LetterboxInBreaks: 0
SpecialStyle: 0
WidescreenStoryboard: 1

[Editor]
Bookmarks: 1175,10775,20375,27575,34775,41975,49175,59675,69275,74075,88475,95675,104675,114275,123575,130775,137975
DistanceSpacing: 0.8
BeatDivisor: 4
GridSize: 32
TimelineZoom: 2.999999

[Metadata]
Title:Shirohana no Tenshi
TitleUnicode:白花の天使
Artist:Yu-dachi
ArtistUnicode:Yu-dachi
Creator:Hytex
Version:Normal
Source:maimai でらっくす UNiVERSE PLUS
Tags:dx deluxe sega 7srefちほー2 7sref chiho area 2 long notes ln electronic instrumental rhythm video game ucitysm tigerinity indoroid
BeatmapID:4254523
BeatmapSetID:2038105

[Difficulty]
HPDrainRate:7
CircleSize:4
OverallDifficulty:7
ApproachRate:5
SliderMultiplier:1.4
SliderTickRate:1

[Events]
//Background and Video events
0,0,"slay.jpg",0,0
//Break Periods
//Storyboard Layer 0 (Background)
//Storyboard Layer 1 (Fail)
//Storyboard Layer 2 (Pass)
//Storyboard Layer 3 (Foreground)
//Storyboard Layer 4 (Overlay)
//Storyboard Sound Samples

[TimingPoints]
1220,300,4,2,1,75,1,0
20420,300,3,2,1,75,1,0
34820,300,6,2,1,75,1,0
50120,300,4,2,1,75,1,0
77720,300,3,2,1,75,1,0
81320,300,4,2,1,75,1,0
84920,300,3,2,1,75,1,0
95720,300,5,2,1,75,1,0
98720,300,4,2,1,75,1,0
102320,300,4,2,1,75,1,0
104720,300,4,2,1,75,1,1
119120,300,3,2,1,75,1,1
120020,300,4,2,1,75,1,1
121220,300,4,2,1,75,1,0
123620,300,6,2,1,75,1,0
134420,300,3,2,1,75,1,0

[HitObjects]
64,192,1220,5,0,0:0:0:0:
448,192,1220,1,0,0:0:0:0:
192,192,1370,1,0,0:0:0:0:
320,192,1520,1,0,0:0:0:0:
448,192,1670,1,0,0:0:0:0:
192,192,1820,1,0,0:0:0:0:
64,192,2045,1,0,0:0:0:0:
448,192,2120,1,0,0:0:0:0:
320,192,2270,1,0,0:0:0:0:
192,192,2420,1,0,0:0:0:0:
448,192,2570,1,0,0:0:0:0:
64,192,2720,1,0,0:0:0:0:
320,192,2870,1,0,0:0:0:0:
448,192,3020,1,0,0:0:0:0:
192,192,3170,1,0,0:0:0:0:
192,192,3470,1,0,0:0:0:0:
64,192,3620,1,0,0:0:0:0:
448,192,3620,1,0,0:0:0:0:
320,192,3770,1,0,0:0:0:0:
192,192,3920,1,0,0:0:0:0:
64,192,4070,1,0,0:0:0:0:
320,192,4220,1,0,0:0:0:0:
448,192,4445,1,0,0:0:0:0:
64,192,4520,1,0,0:0:0:0:
192,192,4670,1,0,0:0:0:0:
448,192,4820,1,0,0:0:0:0:
64,192,4970,1,0,0:0:0:0:
320,192,5120,1,0,0:0:0:0:
192,192,5270,1,0,0:0:0:0:
448,192,5420,128,0,5570:0:0:0:0:
448,192,5870,128,0,6020:0:0:0:0:
192,192,6020,1,0,0:0:0:0:
64,192,6020,1,0,0:0:0:0:
320,192,6170,1,0,0:0:0:0:
192,192,6320,1,0,0:0:0:0:
448,192,6470,1,0,0:0:0:0:
64,192,6620,128,0,6920:0:0:0:0:
320,192,6920,1,0,0:0:0:0:
448,192,6920,1,0,0:0:0:0:
192,192,7070,1,0,0:0:0:0:
320,192,7220,1,0,0:0:0:0:
64,192,7370,1,0,0:0:0:0:
448,192,7520,1,0,0:0:0:0:
192,192,7670,1,0,0:0:0:0:
64,192,7820,1,0,0:0:0:0:
320,192,7970,1,0,0:0:0:0:
192,192,8120,1,0,0:0:0:0:
64,192,8420,1,0,0:0:0:0:
448,192,8420,1,0,0:0:0:0:
192,192,8570,1,0,0:0:0:0:
320,192,8720,1,0,0:0:0:0:
192,192,8870,1,0,0:0:0:0:
448,192,9020,1,0,0:0:0:0:
320,192,9095,1,0,0:0:0:0:
64,192,9170,1,0,0:0:0:0:
448,192,9320,1,0,0:0:0:0:
192,192,9395,1,0,0:0:0:0:
64,192,9470,1,0,0:0:0:0:
448,192,9620,1,0,0:0:0:0:
320,192,9845,1,0,0:0:0:0:
192,192,10070,1,0,0:0:0:0:
448,192,10220,1,0,0:0:0:0:
64,192,10370,1,0,0:0:0:0:
320,192,10520,128,0,10670:0:0:0:0:
192,192,10670,1,0,0:0:0:0:
448,192,10820,1,0,0:0:0:0:
64,192,10820,128,0,11120:0:0:0:0:
64,192,11270,1,0,0:0:0:0:
448,192,11420,1,0,0:0:0:0:
192,192,11570,1,0,0:0:0:0:
320,192,11720,128,0,12020:0:0:0:0:
320,192,12170,128,0,12470:0:0:0:0:
192,192,12470,1,0,0:0:0:0:
448,192,12620,1,0,0:0:0:0:
320,192,12620,1,0,0:0:0:0:
64,192,12770,1,0,0:0:0:0:
448,192,12920,1,0,0:0:0:0:
192,192,13070,1,0,0:0:0:0:
448,192,13220,1,0,0:0:0:0:
320,192,13220,128,0,13520:0:0:0:0:
64,192,13520,1,0,0:0:0:0:
448,192,13670,1,0,0:0:0:0:
320,192,13820,1,0,0:0:0:0:
192,192,13820,128,0,13970:0:0:0:0:
448,192,14120,1,0,0:0:0:0:
64,192,14120,128,0,14720:0:0:0:0:
320,192,14420,1,0,0:0:0:0:
448,192,14720,1,0,0:0:0:0:
192,192,14870,1,0,0:0:0:0:
320,192,15020,1,0,0:0:0:0:
64,192,15020,1,0,0:0:0:0:
448,192,15170,1,0,0:0:0:0:
192,192,15320,128,0,15620:0:0:0:0:
320,192,15620,1,0,0:0:0:0:
448,192,15620,1,0,0:0:0:0:
320,192,15920,1,0,0:0:0:0:
448,192,15920,1,0,0:0:0:0:
64,192,16220,1,0,0:0:0:0:
448,192,16220,1,0,0:0:0:0:
192,192,16445,1,0,0:0:0:0:
320,192,16445,1,0,0:0:0:0:
192,192,16670,1,0,0:0:0:0:
64,192,16670,1,0,0:0:0:0:
320,192,16970,1,0,0:0:0:0:
448,192,16970,1,0,0:0:0:0:
192,192,17120,1,0,0:0:0:0:
64,192,17120,1,0,0:0:0:0:
64,192,17420,1,0,0:0:0:0:
448,192,17420,1,0,0:0:0:0:
192,192,17570,1,0,0:0:0:0:
320,192,17720,128,0,17870:0:0:0:0:
192,192,17870,128,0,18020:0:0:0:0:
448,192,18020,1,0,0:0:0:0:
64,192,18170,1,0,0:0:0:0:
192,192,18245,1,0,0:0:0:0:
448,192,18320,1,0,0:0:0:0:
64,192,18470,1,0,0:0:0:0:
320,192,18545,1,0,0:0:0:0:
448,192,18620,1,0,0:0:0:0:
192,192,18770,1,0,0:0:0:0:
320,192,18845,1,0,0:0:0:0:
64,192,18920,128,0,19070:0:0:0:0:
448,192,19070,1,0,0:0:0:0:
320,192,19145,1,0,0:0:0:0:
192,192,19220,1,0,0:0:0:0:
320,192,19445,1,0,0:0:0:0:
192,192,19670,1,0,0:0:0:0:
64,192,19820,1,0,0:0:0:0:
448,192,19820,1,0,0:0:0:0:
320,192,19970,1,0,0:0:0:0:
192,192,20120,1,0,0:0:0:0:
64,192,20270,1,0,0:0:0:0:
320,192,20420,1,0,0:0:0:0:
448,192,20420,1,0,0:0:0:0:
192,192,20570,1,0,0:0:0:0:
320,192,20720,1,0,0:0:0:0:
320,192,21020,128,0,21320:0:0:0:0:
64,192,21320,1,0,0:0:0:0:
192,192,21320,128,0,21620:0:0:0:0:
448,192,21620,1,0,0:0:0:0:
448,192,21920,1,0,0:0:0:0:
320,192,22070,1,0,0:0:0:0:
192,192,22220,1,0,0:0:0:0:
64,192,22220,1,0,0:0:0:0:
320,192,22370,1,0,0:0:0:0:
192,192,22520,1,0,0:0:0:0:
192,192,22820,128,0,23120:0:0:0:0:
448,192,23120,1,0,0:0:0:0:
320,192,23120,128,0,23420:0:0:0:0:
64,192,23420,1,0,0:0:0:0:
64,192,23720,1,0,0:0:0:0:
192,192,23870,1,0,0:0:0:0:
320,192,24020,1,0,0:0:0:0:
448,192,24020,1,0,0:0:0:0:
192,192,24320,1,0,0:0:0:0:
64,192,24320,1,0,0:0:0:0:
64,192,24620,1,0,0:0:0:0:
448,192,24620,1,0,0:0:0:0:
192,192,24770,1,0,0:0:0:0:
448,192,24920,1,0,0:0:0:0:
320,192,25070,1,0,0:0:0:0:
192,192,25220,1,0,0:0:0:0:
64,192,25220,1,0,0:0:0:0:
192,192,25520,1,0,0:0:0:0:
192,192,25670,1,0,0:0:0:0:
448,192,25820,1,0,0:0:0:0:
320,192,25970,1,0,0:0:0:0:
192,192,26120,1,0,0:0:0:0:
64,192,26270,1,0,0:0:0:0:
320,192,26420,1,0,0:0:0:0:
448,192,26570,1,0,0:0:0:0:
64,192,26720,1,0,0:0:0:0:
192,192,26720,128,0,26870:0:0:0:0:
320,192,27020,1,0,0:0:0:0:
320,192,27170,1,0,0:0:0:0:
64,192,27320,128,0,27470:0:0:0:0:
448,192,27470,1,0,0:0:0:0:
192,192,27620,1,0,0:0:0:0:
64,192,27620,1,0,0:0:0:0:
320,192,27770,1,0,0:0:0:0:
192,192,27920,1,0,0:0:0:0:
192,192,28220,128,0,28520:0:0:0:0:
448,192,28520,1,0,0:0:0:0:
320,192,28520,128,0,28820:0:0:0:0:
64,192,28820,128,0,29120:0:0:0:0:
448,192,29120,1,0,0:0:0:0:
192,192,29270,1,0,0:0:0:0:
320,192,29420,1,0,0:0:0:0:
448,192,29420,128,0,29720:0:0:0:0:
64,192,29720,1,0,0:0:0:0:
192,192,30020,128,0,30320:0:0:0:0:
448,192,30170,1,0,0:0:0:0:
320,192,30320,128,0,30620:0:0:0:0:
64,192,30320,1,0,0:0:0:0:
192,192,30620,128,0,30920:0:0:0:0:
448,192,30920,1,0,0:0:0:0:
448,192,31070,1,0,0:0:0:0:
192,192,31220,1,0,0:0:0:0:
64,192,31220,1,0,0:0:0:0:
320,192,31370,1,0,0:0:0:0:
64,192,31520,1,0,0:0:0:0:
448,192,31670,1,0,0:0:0:0:
192,192,31820,1,0,0:0:0:0:
64,192,31970,1,0,0:0:0:0:
448,192,32120,1,0,0:0:0:0:
320,192,32120,1,0,0:0:0:0:
64,192,32345,1,0,0:0:0:0:
448,192,32420,1,0,0:0:0:0:
320,192,32570,1,0,0:0:0:0:
192,192,32720,1,0,0:0:0:0:
320,192,32870,1,0,0:0:0:0:
64,192,33020,1,0,0:0:0:0:
448,192,33170,1,0,0:0:0:0:
192,192,33320,1,0,0:0:0:0:
64,192,33470,1,0,0:0:0:0:
320,192,33620,128,0,33920:0:0:0:0:
192,192,33920,1,0,0:0:0:0:
64,192,33920,1,0,0:0:0:0:
192,192,34220,128,0,34520:0:0:0:0:
320,192,34520,128,0,34820:0:0:0:0:
64,192,34820,1,0,0:0:0:0:
448,192,34820,1,0,0:0:0:0:
320,192,34970,1,0,0:0:0:0:
448,192,35270,1,0,0:0:0:0:
192,192,35420,1,0,0:0:0:0:
320,192,35720,1,0,0:0:0:0:
64,192,35870,1,0,0:0:0:0:
192,192,36020,1,0,0:0:0:0:
448,192,36170,1,0,0:0:0:0:
64,192,36320,1,0,0:0:0:0:
320,192,36470,1,0,0:0:0:0:
448,192,36620,1,0,0:0:0:0:
192,192,36770,1,0,0:0:0:0:
320,192,37070,1,0,0:0:0:0:
64,192,37220,1,0,0:0:0:0:
192,192,37520,1,0,0:0:0:0:
448,192,37670,1,0,0:0:0:0:
320,192,37820,1,0,0:0:0:0:
64,192,37970,1,0,0:0:0:0:
448,192,38120,1,0,0:0:0:0:
192,192,38270,1,0,0:0:0:0:
64,192,38420,1,0,0:0:0:0:
448,192,38570,1,0,0:0:0:0:
320,192,38870,1,0,0:0:0:0:
192,192,39020,1,0,0:0:0:0:
448,192,39320,1,0,0:0:0:0:
64,192,39470,1,0,0:0:0:0:
192,192,39620,1,0,0:0:0:0:
448,192,39770,1,0,0:0:0:0:
320,192,39920,1,0,0:0:0:0:
192,192,40070,1,0,0:0:0:0:
448,192,40220,1,0,0:0:0:0:
64,192,40370,1,0,0:0:0:0:
320,192,40520,1,0,0:0:0:0:
192,192,40670,1,0,0:0:0:0:
320,192,40820,128,0,41120:0:0:0:0:
64,192,41120,1,0,0:0:0:0:
192,192,41195,1,0,0:0:0:0:
448,192,41270,1,0,0:0:0:0:
64,192,41420,1,0,0:0:0:0:
320,192,41495,1,0,0:0:0:0:
448,192,41570,1,0,0:0:0:0:
192,192,41720,1,0,0:0:0:0:
320,192,41795,1,0,0:0:0:0:
448,192,41870,1,0,0:0:0:0:
192,192,42020,1,0,0:0:0:0:
64,192,42020,1,0,0:0:0:0:
320,192,42170,1,0,0:0:0:0:
64,192,42320,1,0,0:0:0:0:
448,192,42470,1,0,0:0:0:0:
192,192,42620,1,0,0:0:0:0:
448,192,42770,1,0,0:0:0:0:
64,192,42920,1,0,0:0:0:0:
320,192,43070,1,0,0:0:0:0:
448,192,43220,1,0,0:0:0:0:
192,192,43220,128,0,43520:0:0:0:0:
64,192,43520,128,0,43820:0:0:0:0:
320,192,43820,1,0,0:0:0:0:
448,192,43820,1,0,0:0:0:0:
192,192,43970,1,0,0:0:0:0:
448,192,44120,1,0,0:0:0:0:
64,192,44270,1,0,0:0:0:0:
320,192,44420,1,0,0:0:0:0:
64,192,44570,1,0,0:0:0:0:
448,192,44720,1,0,0:0:0:0:
192,192,44870,1,0,0:0:0:0:
64,192,45020,1,0,0:0:0:0:
320,192,45020,128,0,45320:0:0:0:0:
448,192,45320,128,0,45620:0:0:0:0:
192,192,45620,1,0,0:0:0:0:
64,192,45620,1,0,0:0:0:0:
320,192,45770,1,0,0:0:0:0:
448,192,45920,1,0,0:0:0:0:
64,192,46070,1,0,0:0:0:0:
320,192,46220,1,0,0:0:0:0:
64,192,46370,1,0,0:0:0:0:
448,192,46520,1,0,0:0:0:0:
320,192,46670,1,0,0:0:0:0:
192,192,46820,1,0,0:0:0:0:
448,192,46970,1,0,0:0:0:0:
64,192,47120,1,0,0:0:0:0:
320,192,47270,1,0,0:0:0:0:
64,192,47420,1,0,0:0:0:0:
192,192,47420,128,0,48020:0:0:0:0:
448,192,48020,1,0,0:0:0:0:
64,192,48170,1,0,0:0:0:0:
320,192,48320,1,0,0:0:0:0:
192,192,48620,1,0,0:0:0:0:
320,192,48920,1,0,0:0:0:0:
448,192,49070,1,0,0:0:0:0:
192,192,49220,1,0,0:0:0:0:
64,192,49220,1,0,0:0:0:0:
192,192,49520,128,0,50120:0:0:0:0:
64,192,50120,1,0,0:0:0:0:
448,192,50120,128,0,50645:0:0:0:0:
320,192,50645,1,0,0:0:0:0:
64,192,50720,1,0,0:0:0:0:
448,192,50870,1,0,0:0:0:0:
192,192,51020,1,0,0:0:0:0:
64,192,51020,1,0,0:0:0:0:
320,192,51170,1,0,0:0:0:0:
64,192,51320,128,0,51620:0:0:0:0:
448,192,51620,1,0,0:0:0:0:
448,192,51770,1,0,0:0:0:0:
320,192,51845,1,0,0:0:0:0:
64,192,51920,1,0,0:0:0:0:
448,192,52070,1,0,0:0:0:0:
192,192,52070,1,0,0:0:0:0:
320,192,52220,1,0,0:0:0:0:
64,192,52370,1,0,0:0:0:0:
448,192,52520,1,0,0:0:0:0:
320,192,52520,128,0,52970:0:0:0:0:
64,192,52970,1,0,0:0:0:0:
192,192,53045,1,0,0:0:0:0:
448,192,53120,1,0,0:0:0:0:
448,192,53270,1,0,0:0:0:0:
64,192,53420,1,0,0:0:0:0:
192,192,53420,128,0,54020:0:0:0:0:
448,192,54020,1,0,0:0:0:0:
64,192,54320,128,0,54620:0:0:0:0:
448,192,54470,1,0,0:0:0:0:
320,192,54620,1,0,0:0:0:0:
192,192,54770,1,0,0:0:0:0:
64,192,54920,1,0,0:0:0:0:
448,192,54920,128,0,55370:0:0:0:0:
320,192,55370,1,0,0:0:0:0:
320,192,55520,1,0,0:0:0:0:
192,192,55595,1,0,0:0:0:0:
448,192,55745,1,0,0:0:0:0:
64,192,55820,1,0,0:0:0:0:
192,192,55820,128,0,56120:0:0:0:0:
320,192,56120,1,0,0:0:0:0:
320,192,56270,1,0,0:0:0:0:
448,192,56420,1,0,0:0:0:0:
64,192,56420,128,0,56720:0:0:0:0:
192,192,56720,1,0,0:0:0:0:
448,192,56870,1,0,0:0:0:0:
320,192,56870,128,0,57170:0:0:0:0:
192,192,57170,1,0,0:0:0:0:
64,192,57320,1,0,0:0:0:0:
448,192,57320,128,0,57770:0:0:0:0:
64,192,57770,1,0,0:0:0:0:
192,192,57770,1,0,0:0:0:0:
320,192,57920,128,0,58220:0:0:0:0:
64,192,58220,1,0,0:0:0:0:
448,192,58220,1,0,0:0:0:0:
192,192,58370,1,0,0:0:0:0:
192,192,58670,128,0,58970:0:0:0:0:
64,192,58670,1,0,0:0:0:0:
320,192,58970,1,0,0:0:0:0:
448,192,59120,1,0,0:0:0:0:
64,192,59270,1,0,0:0:0:0:
320,192,59420,1,0,0:0:0:0:
192,192,59570,1,0,0:0:0:0:
64,192,59720,1,0,0:0:0:0:
448,192,59720,128,0,60020:0:0:0:0:
192,192,60020,1,0,0:0:0:0:
64,192,60020,1,0,0:0:0:0:
448,192,60170,1,0,0:0:0:0:
192,192,60320,1,0,0:0:0:0:
320,192,60470,1,0,0:0:0:0:
64,192,60620,1,0,0:0:0:0:
448,192,60620,1,0,0:0:0:0:
192,192,60770,1,0,0:0:0:0:
448,192,60845,128,0,61070:0:0:0:0:
320,192,61070,1,0,0:0:0:0:
64,192,61145,1,0,0:0:0:0:
192,192,61295,1,0,0:0:0:0:
320,192,61370,1,0,0:0:0:0:
64,192,61520,1,0,0:0:0:0:
320,192,61670,1,0,0:0:0:0:
448,192,61820,1,0,0:0:0:0:
192,192,61820,1,0,0:0:0:0:
64,192,61970,1,0,0:0:0:0:
320,192,62120,1,0,0:0:0:0:
64,192,62420,1,0,0:0:0:0:
192,192,62420,1,0,0:0:0:0:
448,192,62570,1,0,0:0:0:0:
320,192,62720,1,0,0:0:0:0:
64,192,62870,1,0,0:0:0:0:
448,192,62945,128,0,63170:0:0:0:0:
192,192,63170,1,0,0:0:0:0:
320,192,63320,1,0,0:0:0:0:
448,192,63320,1,0,0:0:0:0:
64,192,63470,1,0,0:0:0:0:
64,192,63620,1,0,0:0:0:0:
448,192,63770,1,0,0:0:0:0:
320,192,63845,1,0,0:0:0:0:
192,192,63920,1,0,0:0:0:0:
320,192,64145,1,0,0:0:0:0:
448,192,64145,1,0,0:0:0:0:
64,192,64295,1,0,0:0:0:0:
448,192,64370,1,0,0:0:0:0:
192,192,64520,1,0,0:0:0:0:
64,192,64520,1,0,0:0:0:0:
192,192,64745,1,0,0:0:0:0:
320,192,64745,1,0,0:0:0:0:
64,192,64970,1,0,0:0:0:0:
448,192,64970,1,0,0:0:0:0:
320,192,65120,1,0,0:0:0:0:
192,192,65270,1,0,0:0:0:0:
320,192,65420,1,0,0:0:0:0:
64,192,65720,1,0,0:0:0:0:
320,192,65870,1,0,0:0:0:0:
64,192,65945,1,0,0:0:0:0:
448,192,66170,1,0,0:0:0:0:
192,192,66320,1,0,0:0:0:0:
448,192,66395,1,0,0:0:0:0:
64,192,66545,1,0,0:0:0:0:
320,192,66620,128,0,66770:0:0:0:0:
192,192,66770,1,0,0:0:0:0:
64,192,66920,1,0,0:0:0:0:
448,192,66920,1,0,0:0:0:0:
320,192,67145,1,0,0:0:0:0:
448,192,67145,1,0,0:0:0:0:
192,192,67370,1,0,0:0:0:0:
64,192,67370,1,0,0:0:0:0:
448,192,67520,1,0,0:0:0:0:
320,192,67670,1,0,0:0:0:0:
64,192,67820,1,0,0:0:0:0:
448,192,68120,1,0,0:0:0:0:
320,192,68120,1,0,0:0:0:0:
192,192,68270,1,0,0:0:0:0:
448,192,68345,1,0,0:0:0:0:
192,192,68570,1,0,0:0:0:0:
64,192,68570,1,0,0:0:0:0:
320,192,68720,1,0,0:0:0:0:
64,192,68795,1,0,0:0:0:0:
448,192,68945,1,0,0:0:0:0:
192,192,69020,1,0,0:0:0:0:
320,192,69170,1,0,0:0:0:0:
64,192,69320,1,0,0:0:0:0:
448,192,69320,1,0,0:0:0:0:
448,192,69545,1,0,0:0:0:0:
192,192,69770,1,0,0:0:0:0:
192,192,69995,1,0,0:0:0:0:
320,192,70220,1,0,0:0:0:0:
320,192,70445,1,0,0:0:0:0:
64,192,70670,1,0,0:0:0:0:
64,192,70895,1,0,0:0:0:0:
320,192,71120,1,0,0:0:0:0:
448,192,71120,1,0,0:0:0:0:
320,192,71420,1,0,0:0:0:0:
192,192,71420,1,0,0:0:0:0:
64,192,71720,1,0,0:0:0:0:
192,192,71720,128,0,72620:0:0:0:0:
448,192,72920,1,0,0:0:0:0:
320,192,72920,1,0,0:0:0:0:
192,192,73120,1,0,0:0:0:0:
448,192,73220,1,0,0:0:0:0:
320,192,73420,1,0,0:0:0:0:
192,192,73520,1,0,0:0:0:0:
64,192,73520,1,0,0:0:0:0:
320,192,73720,1,0,0:0:0:0:
64,192,73820,1,0,0:0:0:0:
192,192,74020,1,0,0:0:0:0:
320,192,74120,1,0,0:0:0:0:
448,192,74120,1,0,0:0:0:0:
64,192,74420,1,0,0:0:0:0:
320,192,74570,1,0,0:0:0:0:
192,192,74720,1,0,0:0:0:0:
448,192,74870,1,0,0:0:0:0:
64,192,75170,1,0,0:0:0:0:
320,192,75320,1,0,0:0:0:0:
192,192,75470,1,0,0:0:0:0:
64,192,75620,1,0,0:0:0:0:
448,192,75770,1,0,0:0:0:0:
320,192,76070,1,0,0:0:0:0:
64,192,76220,1,0,0:0:0:0:
320,192,76370,1,0,0:0:0:0:
448,192,76670,1,0,0:0:0:0:
64,192,76820,1,0,0:0:0:0:
192,192,77120,1,0,0:0:0:0:
320,192,77270,1,0,0:0:0:0:
192,192,77420,1,0,0:0:0:0:
64,192,77570,1,0,0:0:0:0:
320,192,77720,1,0,0:0:0:0:
448,192,77720,1,0,0:0:0:0:
192,192,78020,1,0,0:0:0:0:
448,192,78320,1,0,0:0:0:0:
192,192,78620,1,0,0:0:0:0:
64,192,78620,1,0,0:0:0:0:
320,192,78920,1,0,0:0:0:0:
64,192,79220,1,0,0:0:0:0:
448,192,79520,1,0,0:0:0:0:
320,192,79520,128,0,79970:0:0:0:0:
192,192,79970,1,0,0:0:0:0:
64,192,79970,1,0,0:0:0:0:
448,192,80120,1,0,0:0:0:0:
64,192,80270,1,0,0:0:0:0:
320,192,80420,1,0,0:0:0:0:
192,192,80420,1,0,0:0:0:0:
448,192,80720,1,0,0:0:0:0:
64,192,80870,1,0,0:0:0:0:
320,192,81020,1,0,0:0:0:0:
64,192,81320,1,0,0:0:0:0:
448,192,81320,1,0,0:0:0:0:
192,192,81620,1,0,0:0:0:0:
320,192,81770,1,0,0:0:0:0:
64,192,81920,1,0,0:0:0:0:
448,192,82070,1,0,0:0:0:0:
320,192,82370,128,0,82520:0:0:0:0:
448,192,82370,1,0,0:0:0:0:
192,192,82520,1,0,0:0:0:0:
64,192,82670,1,0,0:0:0:0:
448,192,82820,1,0,0:0:0:0:
64,192,82970,1,0,0:0:0:0:
320,192,83270,1,0,0:0:0:0:
192,192,83270,1,0,0:0:0:0:
448,192,83420,1,0,0:0:0:0:
64,192,83570,1,0,0:0:0:0:
192,192,83570,128,0,83720:0:0:0:0:
64,192,83870,1,0,0:0:0:0:
448,192,84020,1,0,0:0:0:0:
320,192,84020,128,0,84320:0:0:0:0:
64,192,84320,1,0,0:0:0:0:
448,192,84470,1,0,0:0:0:0:
320,192,84620,1,0,0:0:0:0:
192,192,84770,1,0,0:0:0:0:
64,192,84920,1,0,0:0:0:0:
448,192,84920,128,0,85220:0:0:0:0:
192,192,85220,128,0,85520:0:0:0:0:
320,192,85520,128,0,85820:0:0:0:0:
448,192,85820,1,0,0:0:0:0:
64,192,85820,128,0,86120:0:0:0:0:
192,192,86120,128,0,86420:0:0:0:0:
320,192,86420,128,0,86720:0:0:0:0:
64,192,86720,1,0,0:0:0:0:
448,192,86720,128,0,87020:0:0:0:0:
192,192,87020,128,0,87320:0:0:0:0:
64,192,87320,128,0,87620:0:0:0:0:
320,192,87620,1,0,0:0:0:0:
448,192,87620,1,0,0:0:0:0:
320,192,87920,128,0,88220:0:0:0:0:
64,192,88070,1,0,0:0:0:0:
192,192,88220,128,0,88370:0:0:0:0:
320,192,88370,1,0,0:0:0:0:
64,192,88520,1,0,0:0:0:0:
448,192,88520,128,0,88820:0:0:0:0:
192,192,88820,1,0,0:0:0:0:
448,192,88970,1,0,0:0:0:0:
320,192,89120,1,0,0:0:0:0:
64,192,89270,1,0,0:0:0:0:
192,192,89420,128,0,89720:0:0:0:0:
448,192,89720,1,0,0:0:0:0:
320,192,89870,1,0,0:0:0:0:
64,192,90020,1,0,0:0:0:0:
192,192,90170,1,0,0:0:0:0:
320,192,90320,128,0,90620:0:0:0:0:
64,192,90620,1,0,0:0:0:0:
448,192,90770,1,0,0:0:0:0:
192,192,90920,1,0,0:0:0:0:
320,192,91070,1,0,0:0:0:0:
448,192,91220,128,0,91445:0:0:0:0:
320,192,91445,1,0,0:0:0:0:
64,192,91520,1,0,0:0:0:0:
192,192,91670,1,0,0:0:0:0:
448,192,91820,1,0,0:0:0:0:
320,192,91970,1,0,0:0:0:0:
192,192,92120,1,0,0:0:0:0:
64,192,92120,128,0,92420:0:0:0:0:
448,192,92420,1,0,0:0:0:0:
64,192,92570,1,0,0:0:0:0:
192,192,92720,1,0,0:0:0:0:
448,192,92870,1,0,0:0:0:0:
320,192,93020,128,0,93320:0:0:0:0:
64,192,93320,1,0,0:0:0:0:
192,192,93470,1,0,0:0:0:0:
448,192,93620,1,0,0:0:0:0:
320,192,93770,1,0,0:0:0:0:
192,192,93920,128,0,94220:0:0:0:0:
64,192,93920,1,0,0:0:0:0:
320,192,94370,1,0,0:0:0:0:
192,192,94520,1,0,0:0:0:0:
320,192,94670,1,0,0:0:0:0:
64,192,94820,1,0,0:0:0:0:
448,192,94820,128,0,95420:0:0:0:0:
320,192,95420,1,0,0:0:0:0:
64,192,95720,1,0,0:0:0:0:
192,192,95720,1,0,0:0:0:0:
320,192,96020,1,0,0:0:0:0:
64,192,96470,1,0,0:0:0:0:
448,192,96620,1,0,0:0:0:0:
320,192,96795,1,0,0:0:0:0:
192,192,96920,1,0,0:0:0:0:
448,192,97220,1,0,0:0:0:0:
64,192,97220,1,0,0:0:0:0:
192,192,97420,1,0,0:0:0:0:
448,192,97520,1,0,0:0:0:0:
64,192,97720,1,0,0:0:0:0:
320,192,97820,1,0,0:0:0:0:
448,192,98020,1,0,0:0:0:0:
192,192,98120,128,0,98420:0:0:0:0:
320,192,98420,1,0,0:0:0:0:
64,192,98720,1,0,0:0:0:0:
448,192,98720,1,0,0:0:0:0:
64,192,99020,1,0,0:0:0:0:
192,192,99020,1,0,0:0:0:0:
448,192,99170,1,0,0:0:0:0:
64,192,99320,1,0,0:0:0:0:
192,192,99320,1,0,0:0:0:0:
320,192,99620,1,0,0:0:0:0:
192,192,99770,1,0,0:0:0:0:
64,192,99920,1,0,0:0:0:0:
448,192,99920,1,0,0:0:0:0:
320,192,100220,1,0,0:0:0:0:
448,192,100220,1,0,0:0:0:0:
64,192,100370,1,0,0:0:0:0:
320,192,100520,1,0,0:0:0:0:
448,192,100520,1,0,0:0:0:0:
192,192,100820,1,0,0:0:0:0:
320,192,100970,1,0,0:0:0:0:
64,192,101120,1,0,0:0:0:0:
448,192,101120,1,0,0:0:0:0:
192,192,101270,1,0,0:0:0:0:
320,192,101420,1,0,0:0:0:0:
192,192,101570,1,0,0:0:0:0:
448,192,101720,1,0,0:0:0:0:
320,192,101795,1,0,0:0:0:0:
64,192,101870,1,0,0:0:0:0:
448,192,102020,1,0,0:0:0:0:
192,192,102095,1,0,0:0:0:0:
64,192,102170,1,0,0:0:0:0:
320,192,102320,1,0,0:0:0:0:
448,192,102320,1,0,0:0:0:0:
320,192,102620,1,0,0:0:0:0:
192,192,102770,1,0,0:0:0:0:
448,192,102920,1,0,0:0:0:0:
320,192,103070,1,0,0:0:0:0:
64,192,103220,1,0,0:0:0:0:
192,192,103370,1,0,0:0:0:0:
320,192,103520,1,0,0:0:0:0:
448,192,103670,1,0,0:0:0:0:
192,192,103820,1,0,0:0:0:0:
64,192,103970,1,0,0:0:0:0:
320,192,104120,128,0,104420:0:0:0:0:
64,192,104720,1,0,0:0:0:0:
448,192,104720,128,0,105020:0:0:0:0:
64,192,105020,1,0,0:0:0:0:
192,192,105020,1,0,0:0:0:0:
192,192,105170,1,0,0:0:0:0:
320,192,105320,1,0,0:0:0:0:
64,192,105470,1,0,0:0:0:0:
192,192,105620,1,0,0:0:0:0:
448,192,105620,1,0,0:0:0:0:
320,192,105770,1,0,0:0:0:0:
64,192,105920,1,0,0:0:0:0:
448,192,106070,1,0,0:0:0:0:
64,192,106220,1,0,0:0:0:0:
192,192,106220,1,0,0:0:0:0:
320,192,106370,128,0,106670:0:0:0:0:
192,192,106670,1,0,0:0:0:0:
448,192,106820,1,0,0:0:0:0:
64,192,106820,128,0,107120:0:0:0:0:
320,192,107120,1,0,0:0:0:0:
448,192,107120,1,0,0:0:0:0:
192,192,107270,1,0,0:0:0:0:
448,192,107345,1,0,0:0:0:0:
64,192,107420,1,0,0:0:0:0:
64,192,107570,1,0,0:0:0:0:
320,192,107720,1,0,0:0:0:0:
192,192,107870,1,0,0:0:0:0:
64,192,108020,1,0,0:0:0:0:
448,192,108020,1,0,0:0:0:0:
192,192,108170,1,0,0:0:0:0:
320,192,108320,1,0,0:0:0:0:
64,192,108470,1,0,0:0:0:0:
320,192,108620,1,0,0:0:0:0:
448,192,108620,1,0,0:0:0:0:
192,192,108770,1,0,0:0:0:0:
320,192,108920,1,0,0:0:0:0:
448,192,109145,1,0,0:0:0:0:
64,192,109145,128,0,109370:0:0:0:0:
192,192,109370,1,0,0:0:0:0:
320,192,109520,1,0,0:0:0:0:
448,192,109520,1,0,0:0:0:0:
64,192,109670,1,0,0:0:0:0:
320,192,109820,1,0,0:0:0:0:
448,192,109820,1,0,0:0:0:0:
192,192,109970,1,0,0:0:0:0:
320,192,110120,1,0,0:0:0:0:
448,192,110270,1,0,0:0:0:0:
64,192,110420,1,0,0:0:0:0:
192,192,110420,1,0,0:0:0:0:
320,192,110570,1,0,0:0:0:0:
192,192,110720,1,0,0:0:0:0:
448,192,110795,1,0,0:0:0:0:
64,192,110870,1,0,0:0:0:0:
320,192,111020,1,0,0:0:0:0:
448,192,111020,1,0,0:0:0:0:
192,192,111170,128,0,111470:0:0:0:0:
448,192,111470,1,0,0:0:0:0:
64,192,111620,1,0,0:0:0:0:
320,192,111620,1,0,0:0:0:0:
192,192,111770,1,0,0:0:0:0:
64,192,111920,1,0,0:0:0:0:
448,192,111920,1,0,0:0:0:0:
448,192,112145,1,0,0:0:0:0:
320,192,112145,1,0,0:0:0:0:
64,192,112370,1,0,0:0:0:0:
448,192,112370,1,0,0:0:0:0:
64,192,112595,1,0,0:0:0:0:
192,192,112595,1,0,0:0:0:0:
320,192,112820,1,0,0:0:0:0:
192,192,112895,1,0,0:0:0:0:
64,192,113045,1,0,0:0:0:0:
448,192,113120,1,0,0:0:0:0:
320,192,113120,128,0,113345:0:0:0:0:
192,192,113345,1,0,0:0:0:0:
64,192,113495,1,0,0:0:0:0:
448,192,113570,128,0,113795:0:0:0:0:
192,192,113795,1,0,0:0:0:0:
64,192,113945,1,0,0:0:0:0:
320,192,114020,1,0,0:0:0:0:
192,192,114170,1,0,0:0:0:0:
64,192,114320,1,0,0:0:0:0:
448,192,114320,128,0,114620:0:0:0:0:
320,192,114620,1,0,0:0:0:0:
192,192,114620,1,0,0:0:0:0:
192,192,114770,1,0,0:0:0:0:
448,192,114920,1,0,0:0:0:0:
64,192,115070,1,0,0:0:0:0:
320,192,115220,1,0,0:0:0:0:
64,192,115370,1,0,0:0:0:0:
448,192,115370,1,0,0:0:0:0:
192,192,115670,1,0,0:0:0:0:
320,192,115820,1,0,0:0:0:0:
448,192,115820,1,0,0:0:0:0:
64,192,115970,1,0,0:0:0:0:
192,192,116120,1,0,0:0:0:0:
448,192,116270,1,0,0:0:0:0:
320,192,116420,1,0,0:0:0:0:
64,192,116420,1,0,0:0:0:0:
192,192,116570,1,0,0:0:0:0:
448,192,116720,1,0,0:0:0:0:
64,192,116720,128,0,117020:0:0:0:0:
320,192,117020,1,0,0:0:0:0:
448,192,117020,1,0,0:0:0:0:
320,192,117170,1,0,0:0:0:0:
64,192,117320,1,0,0:0:0:0:
448,192,117470,128,0,117770:0:0:0:0:
192,192,117620,1,0,0:0:0:0:
64,192,117770,1,0,0:0:0:0:
320,192,117770,128,0,118070:0:0:0:0:
192,192,118070,128,0,118370:0:0:0:0:
448,192,118220,1,0,0:0:0:0:
320,192,118370,1,0,0:0:0:0:
64,192,118370,1,0,0:0:0:0:
64,192,118520,1,0,0:0:0:0:
448,192,118670,1,0,0:0:0:0:
320,192,118820,1,0,0:0:0:0:
192,192,118970,1,0,0:0:0:0:
64,192,119120,1,0,0:0:0:0:
448,192,119120,1,0,0:0:0:0:
320,192,119320,1,0,0:0:0:0:
192,192,119420,1,0,0:0:0:0:
64,192,119420,1,0,0:0:0:0:
192,192,119620,1,0,0:0:0:0:
448,192,119720,1,0,0:0:0:0:
320,192,119720,1,0,0:0:0:0:
448,192,120020,1,0,0:0:0:0:
64,192,120020,1,0,0:0:0:0:
64,192,120220,1,0,0:0:0:0:
320,192,120320,1,0,0:0:0:0:
448,192,120320,1,0,0:0:0:0:
448,192,120520,1,0,0:0:0:0:
192,192,120620,1,0,0:0:0:0:
64,192,120620,128,0,120920:0:0:0:0:
320,192,120920,1,0,0:0:0:0:
192,192,121070,1,0,0:0:0:0:
64,192,121220,1,0,0:0:0:0:
448,192,121220,128,0,121520:0:0:0:0:
320,192,121520,1,0,0:0:0:0:
192,192,121820,1,0,0:0:0:0:
320,192,122120,1,0,0:0:0:0:
64,192,122420,1,0,0:0:0:0:
448,192,122420,1,0,0:0:0:0:
192,192,122570,1,0,0:0:0:0:
320,192,122720,1,0,0:0:0:0:
192,192,122870,1,0,0:0:0:0:
448,192,123020,128,0,123320:0:0:0:0:
64,192,123320,1,0,0:0:0:0:
192,192,123470,1,0,0:0:0:0:
320,192,123620,1,0,0:0:0:0:
448,192,123620,1,0,0:0:0:0:
320,192,123920,1,0,0:0:0:0:
64,192,124220,128,0,125120:0:0:0:0:
192,192,124220,1,0,0:0:0:0:
448,192,124520,1,0,0:0:0:0:
320,192,124820,1,0,0:0:0:0:
320,192,125120,1,0,0:0:0:0:
192,192,125270,1,0,0:0:0:0:
64,192,125420,1,0,0:0:0:0:
448,192,125420,1,0,0:0:0:0:
320,192,125570,128,0,126020:0:0:0:0:
64,192,125720,1,0,0:0:0:0:
192,192,126020,128,0,126170:0:0:0:0:
448,192,126020,1,0,0:0:0:0:
448,192,126320,128,0,126920:0:0:0:0:
320,192,126320,1,0,0:0:0:0:
192,192,126470,1,0,0:0:0:0:
64,192,126620,1,0,0:0:0:0:
64,192,126920,1,0,0:0:0:0:
448,192,127070,1,0,0:0:0:0:
320,192,127220,1,0,0:0:0:0:
192,192,127220,128,0,127820:0:0:0:0:
320,192,127520,1,0,0:0:0:0:
64,192,127820,128,0,128120:0:0:0:0:
448,192,127820,1,0,0:0:0:0:
448,192,128120,128,0,128720:0:0:0:0:
320,192,128120,1,0,0:0:0:0:
192,192,128270,1,0,0:0:0:0:
64,192,128420,1,0,0:0:0:0:
64,192,128720,1,0,0:0:0:0:
320,192,128870,1,0,0:0:0:0:
448,192,129020,1,0,0:0:0:0:
192,192,129020,128,0,129620:0:0:0:0:
448,192,129320,1,0,0:0:0:0:
64,192,129620,128,0,129920:0:0:0:0:
320,192,129620,1,0,0:0:0:0:
448,192,129920,128,0,130220:0:0:0:0:
192,192,130220,1,0,0:0:0:0:
192,192,130520,1,0,0:0:0:0:
64,192,130670,1,0,0:0:0:0:
320,192,130820,1,0,0:0:0:0:
448,192,130820,128,0,131120:0:0:0:0:
192,192,131120,1,0,0:0:0:0:
320,192,131270,1,0,0:0:0:0:
64,192,131420,1,0,0:0:0:0:
320,192,131570,1,0,0:0:0:0:
192,192,131720,128,0,132020:0:0:0:0:
64,192,131720,1,0,0:0:0:0:
448,192,132020,1,0,0:0:0:0:
64,192,132170,1,0,0:0:0:0:
320,192,132320,1,0,0:0:0:0:
192,192,132470,1,0,0:0:0:0:
64,192,132620,128,0,132920:0:0:0:0:
448,192,132620,1,0,0:0:0:0:
448,192,132920,1,0,0:0:0:0:
320,192,133070,1,0,0:0:0:0:
64,192,133220,1,0,0:0:0:0:
192,192,133370,1,0,0:0:0:0:
448,192,133520,1,0,0:0:0:0:
320,192,133595,1,0,0:0:0:0:
64,192,133670,1,0,0:0:0:0:
448,192,133820,1,0,0:0:0:0:
192,192,133895,1,0,0:0:0:0:
64,192,133970,1,0,0:0:0:0:
320,192,134120,1,0,0:0:0:0:
192,192,134195,1,0,0:0:0:0:
64,192,134270,1,0,0:0:0:0:
320,192,134420,1,0,0:0:0:0:
448,192,134420,1,0,0:0:0:0:
192,192,134570,1,0,0:0:0:0:
448,192,134720,1,0,0:0:0:0:
64,192,134870,1,0,0:0:0:0:
320,192,135020,1,0,0:0:0:0:
64,192,135320,1,0,0:0:0:0:
448,192,135320,1,0,0:0:0:0:
192,192,135470,1,0,0:0:0:0:
64,192,135620,1,0,0:0:0:0:
320,192,135770,1,0,0:0:0:0:
192,192,135920,1,0,0:0:0:0:
448,192,136070,1,0,0:0:0:0:
64,192,136220,1,0,0:0:0:0:
192,192,136370,1,0,0:0:0:0:
320,192,136520,1,0,0:0:0:0:
448,192,136670,1,0,0:0:0:0:
192,192,136820,1,0,0:0:0:0:
320,192,136920,1,0,0:0:0:0:
448,192,137120,1,0,0:0:0:0:
64,192,137220,1,0,0:0:0:0:
192,192,137420,1,0,0:0:0:0:
320,192,137420,1,0,0:0:0:0:
448,192,137620,1,0,0:0:0:0:
64,192,137870,1,0,0:0:0:0:
192,192,137870,128,0,142745:0:0:0:0:
448,192,138713,1,0,0:0:0:0:
320,192,139645,1,0,0:0:0:0:
448,192,140770,128,0,142745:0:0:0:0:
