osu file format v14

[General]
AudioFilename: audio.ogg
AudioLeadIn: 0
PreviewTime: 104570
Countdown: 0
SampleSet: Soft
StackLeniency: 0.7
Mode: 3
LetterboxInBreaks: 0
SpecialStyle: 0
WidescreenStoryboard: 1

[Editor]
Bookmarks: 1175,10775,20375,27575,34775,41975,49175,59675,69275,74075,88475,95675,104675,114275,123575,130775,137975
DistanceSpacing: 0.8
BeatDivisor: 4
GridSize: 32
TimelineZoom: 2.999999

[Metadata]
Title:Shirohana no Tenshi
TitleUnicode:白花の天使
Artist:Yu-dachi
ArtistUnicode:Yu-dachi
Creator:Hytex
Version:Hard
Source:maimai でらっくす UNiVERSE PLUS
Tags:dx deluxe sega 7srefちほー2 7sref chiho area 2 long notes ln electronic instrumental rhythm video game ucitysm tigerinity indoroid
BeatmapID:4254522
BeatmapSetID:2038105

[Difficulty]
HPDrainRate:7.5
CircleSize:4
OverallDifficulty:7.5
ApproachRate:5
SliderMultiplier:1.4
SliderTickRate:1

[Events]
//Background and Video events
0,0,"slay.jpg",0,0
//Break Periods
//Storyboard Layer 0 (Background)
//Storyboard Layer 1 (Fail)
//Storyboard Layer 2 (Pass)
//Storyboard Layer 3 (Foreground)
//Storyboard Layer 4 (Overlay)
//Storyboard Sound Samples

[TimingPoints]
1220,300,4,2,1,75,1,0
20420,300,3,2,1,75,1,0
34820,300,6,2,1,75,1,0
50120,300,4,2,1,75,1,0
77720,300,3,2,1,75,1,0
81320,300,4,2,1,75,1,0
84920,300,3,2,1,75,1,0
95720,300,5,2,1,75,1,0
98720,300,4,2,1,75,1,0
102320,300,4,2,1,75,1,0
104720,300,4,2,1,75,1,1
119120,300,3,2,1,75,1,1
120020,300,4,2,1,75,1,1
121220,300,4,2,1,75,1,0
123620,300,6,2,1,75,1,0
134420,300,3,2,1,75,1,0

[HitObjects]
192,192,1220,5,0,0:0:0:0:
320,192,1220,128,0,1370:0:0:0:0:
64,192,1370,1,0,0:0:0:0:
320,192,1520,1,0,0:0:0:0:
448,192,1670,1,0,0:0:0:0:
64,192,1820,1,0,0:0:0:0:
192,192,1820,128,0,1970:0:0:0:0:
448,192,2070,1,0,0:0:0:0:
320,192,2120,1,0,0:0:0:0:
64,192,2120,128,0,2270:0:0:0:0:
192,192,2270,1,0,0:0:0:0:
320,192,2420,1,0,0:0:0:0:
448,192,2570,1,0,0:0:0:0:
192,192,2645,1,0,0:0:0:0:
64,192,2720,1,0,0:0:0:0:
320,192,2870,1,0,0:0:0:0:
192,192,3020,1,0,0:0:0:0:
448,192,3170,1,0,0:0:0:0:
320,192,3170,128,0,3320:0:0:0:0:
64,192,3320,1,0,0:0:0:0:
192,192,3470,1,0,0:0:0:0:
64,192,3620,1,0,0:0:0:0:
448,192,3620,128,0,3770:0:0:0:0:
320,192,3770,1,0,0:0:0:0:
192,192,3920,1,0,0:0:0:0:
448,192,4070,1,0,0:0:0:0:
64,192,4220,1,0,0:0:0:0:
320,192,4220,128,0,4370:0:0:0:0:
192,192,4370,1,0,0:0:0:0:
320,192,4470,1,0,0:0:0:0:
448,192,4520,1,0,0:0:0:0:
64,192,4520,128,0,4670:0:0:0:0:
192,192,4670,1,0,0:0:0:0:
448,192,4820,1,0,0:0:0:0:
64,192,4895,1,0,0:0:0:0:
448,192,4970,1,0,0:0:0:0:
192,192,5120,1,0,0:0:0:0:
320,192,5145,1,0,0:0:0:0:
192,192,5270,1,0,0:0:0:0:
448,192,5420,128,0,5570:0:0:0:0:
448,192,5645,1,0,0:0:0:0:
192,192,5720,1,0,0:0:0:0:
320,192,5795,1,0,0:0:0:0:
448,192,5870,128,0,5945:0:0:0:0:
448,192,6020,1,0,0:0:0:0:
192,192,6020,1,0,0:0:0:0:
64,192,6020,1,0,0:0:0:0:
64,192,6170,1,0,0:0:0:0:
320,192,6320,1,0,0:0:0:0:
448,192,6320,1,0,0:0:0:0:
192,192,6470,1,0,0:0:0:0:
64,192,6620,1,0,0:0:0:0:
320,192,6620,128,0,6870:0:0:0:0:
448,192,6870,1,0,0:0:0:0:
64,192,6920,1,0,0:0:0:0:
192,192,6920,1,0,0:0:0:0:
320,192,7070,1,0,0:0:0:0:
192,192,7220,1,0,0:0:0:0:
448,192,7220,1,0,0:0:0:0:
64,192,7370,1,0,0:0:0:0:
320,192,7420,1,0,0:0:0:0:
192,192,7520,1,0,0:0:0:0:
64,192,7520,1,0,0:0:0:0:
448,192,7670,1,0,0:0:0:0:
320,192,7820,1,0,0:0:0:0:
192,192,7820,1,0,0:0:0:0:
64,192,7970,1,0,0:0:0:0:
320,192,8120,1,0,0:0:0:0:
448,192,8120,1,0,0:0:0:0:
192,192,8270,1,0,0:0:0:0:
64,192,8420,1,0,0:0:0:0:
448,192,8420,1,0,0:0:0:0:
64,192,8570,1,0,0:0:0:0:
192,192,8645,1,0,0:0:0:0:
320,192,8720,1,0,0:0:0:0:
448,192,8720,1,0,0:0:0:0:
448,192,8870,1,0,0:0:0:0:
64,192,9020,1,0,0:0:0:0:
448,192,9095,1,0,0:0:0:0:
192,192,9170,1,0,0:0:0:0:
320,192,9245,1,0,0:0:0:0:
64,192,9320,1,0,0:0:0:0:
192,192,9395,1,0,0:0:0:0:
448,192,9470,1,0,0:0:0:0:
320,192,9545,1,0,0:0:0:0:
192,192,9620,1,0,0:0:0:0:
64,192,9620,1,0,0:0:0:0:
192,192,9845,1,0,0:0:0:0:
448,192,9845,1,0,0:0:0:0:
320,192,10070,1,0,0:0:0:0:
448,192,10145,1,0,0:0:0:0:
192,192,10220,1,0,0:0:0:0:
64,192,10220,1,0,0:0:0:0:
64,192,10370,1,0,0:0:0:0:
448,192,10520,1,0,0:0:0:0:
320,192,10595,1,0,0:0:0:0:
64,192,10670,1,0,0:0:0:0:
192,192,10745,1,0,0:0:0:0:
320,192,10820,1,0,0:0:0:0:
448,192,10820,128,0,11120:0:0:0:0:
64,192,10895,1,0,0:0:0:0:
192,192,10970,1,0,0:0:0:0:
64,192,11120,1,0,0:0:0:0:
448,192,11270,1,0,0:0:0:0:
192,192,11420,1,0,0:0:0:0:
64,192,11570,1,0,0:0:0:0:
320,192,11720,128,0,12020:0:0:0:0:
64,192,11870,1,0,0:0:0:0:
192,192,12020,1,0,0:0:0:0:
320,192,12170,128,0,12470:0:0:0:0:
64,192,12245,1,0,0:0:0:0:
448,192,12320,1,0,0:0:0:0:
192,192,12470,1,0,0:0:0:0:
448,192,12620,1,0,0:0:0:0:
64,192,12620,128,0,12920:0:0:0:0:
448,192,12770,1,0,0:0:0:0:
192,192,12920,1,0,0:0:0:0:
320,192,12995,1,0,0:0:0:0:
192,192,13070,1,0,0:0:0:0:
64,192,13220,1,0,0:0:0:0:
448,192,13220,1,0,0:0:0:0:
320,192,13220,128,0,13520:0:0:0:0:
64,192,13370,1,0,0:0:0:0:
448,192,13520,1,0,0:0:0:0:
192,192,13670,128,0,13745:0:0:0:0:
192,192,13820,128,0,13970:0:0:0:0:
320,192,13820,1,0,0:0:0:0:
448,192,13970,1,0,0:0:0:0:
192,192,14120,1,0,0:0:0:0:
64,192,14120,128,0,14720:0:0:0:0:
320,192,14270,1,0,0:0:0:0:
192,192,14420,1,0,0:0:0:0:
448,192,14570,1,0,0:0:0:0:
320,192,14720,1,0,0:0:0:0:
192,192,14795,1,0,0:0:0:0:
64,192,14870,1,0,0:0:0:0:
320,192,15020,1,0,0:0:0:0:
448,192,15020,1,0,0:0:0:0:
64,192,15170,1,0,0:0:0:0:
448,192,15170,1,0,0:0:0:0:
320,192,15295,1,0,0:0:0:0:
192,192,15320,128,0,15620:0:0:0:0:
448,192,15470,1,0,0:0:0:0:
64,192,15620,1,0,0:0:0:0:
320,192,15620,128,0,15770:0:0:0:0:
448,192,15620,128,0,15770:0:0:0:0:
192,192,15770,1,0,0:0:0:0:
64,192,15920,128,0,16070:0:0:0:0:
448,192,15920,128,0,16070:0:0:0:0:
192,192,16070,1,0,0:0:0:0:
64,192,16220,1,0,0:0:0:0:
320,192,16220,1,0,0:0:0:0:
448,192,16220,1,0,0:0:0:0:
448,192,16445,1,0,0:0:0:0:
192,192,16445,1,0,0:0:0:0:
64,192,16670,1,0,0:0:0:0:
192,192,16670,128,0,16820:0:0:0:0:
320,192,16670,128,0,16820:0:0:0:0:
64,192,16970,1,0,0:0:0:0:
448,192,16970,1,0,0:0:0:0:
448,192,17120,1,0,0:0:0:0:
320,192,17120,128,0,17270:0:0:0:0:
192,192,17120,128,0,17270:0:0:0:0:
64,192,17420,1,0,0:0:0:0:
448,192,17457,1,0,0:0:0:0:
192,192,17570,1,0,0:0:0:0:
320,192,17645,1,0,0:0:0:0:
192,192,17720,1,0,0:0:0:0:
448,192,17795,1,0,0:0:0:0:
64,192,17870,1,0,0:0:0:0:
320,192,17945,1,0,0:0:0:0:
192,192,18020,1,0,0:0:0:0:
448,192,18020,1,0,0:0:0:0:
192,192,18170,1,0,0:0:0:0:
64,192,18245,1,0,0:0:0:0:
320,192,18320,1,0,0:0:0:0:
448,192,18320,1,0,0:0:0:0:
320,192,18470,1,0,0:0:0:0:
448,192,18545,1,0,0:0:0:0:
192,192,18620,1,0,0:0:0:0:
64,192,18620,1,0,0:0:0:0:
64,192,18770,1,0,0:0:0:0:
192,192,18845,1,0,0:0:0:0:
320,192,18920,1,0,0:0:0:0:
64,192,18995,1,0,0:0:0:0:
448,192,19070,1,0,0:0:0:0:
192,192,19145,1,0,0:0:0:0:
64,192,19220,1,0,0:0:0:0:
64,192,19370,1,0,0:0:0:0:
320,192,19445,1,0,0:0:0:0:
448,192,19445,1,0,0:0:0:0:
448,192,19595,1,0,0:0:0:0:
192,192,19670,1,0,0:0:0:0:
320,192,19745,1,0,0:0:0:0:
64,192,19820,1,0,0:0:0:0:
448,192,19820,1,0,0:0:0:0:
192,192,19970,1,0,0:0:0:0:
64,192,20045,1,0,0:0:0:0:
320,192,20120,1,0,0:0:0:0:
448,192,20195,1,0,0:0:0:0:
192,192,20270,1,0,0:0:0:0:
320,192,20345,1,0,0:0:0:0:
448,192,20420,1,0,0:0:0:0:
192,192,20420,1,0,0:0:0:0:
64,192,20420,128,0,20720:0:0:0:0:
320,192,20570,1,0,0:0:0:0:
192,192,20720,1,0,0:0:0:0:
448,192,20720,1,0,0:0:0:0:
192,192,21020,1,0,0:0:0:0:
448,192,21020,128,0,21320:0:0:0:0:
320,192,21320,1,0,0:0:0:0:
192,192,21320,128,0,21620:0:0:0:0:
64,192,21620,1,0,0:0:0:0:
64,192,21920,1,0,0:0:0:0:
192,192,22070,1,0,0:0:0:0:
320,192,22220,1,0,0:0:0:0:
448,192,22220,128,0,22520:0:0:0:0:
192,192,22370,1,0,0:0:0:0:
64,192,22520,1,0,0:0:0:0:
320,192,22520,1,0,0:0:0:0:
320,192,22820,1,0,0:0:0:0:
64,192,22820,128,0,23120:0:0:0:0:
192,192,23120,1,0,0:0:0:0:
320,192,23120,128,0,23420:0:0:0:0:
448,192,23420,1,0,0:0:0:0:
192,192,23420,128,0,24020:0:0:0:0:
320,192,23720,1,0,0:0:0:0:
64,192,23870,1,0,0:0:0:0:
320,192,24020,1,0,0:0:0:0:
448,192,24020,1,0,0:0:0:0:
192,192,24320,1,0,0:0:0:0:
320,192,24320,1,0,0:0:0:0:
64,192,24620,1,0,0:0:0:0:
192,192,24620,128,0,24920:0:0:0:0:
320,192,24770,1,0,0:0:0:0:
448,192,24920,1,0,0:0:0:0:
64,192,24920,1,0,0:0:0:0:
192,192,25070,1,0,0:0:0:0:
320,192,25220,1,0,0:0:0:0:
448,192,25220,1,0,0:0:0:0:
448,192,25520,1,0,0:0:0:0:
64,192,25595,1,0,0:0:0:0:
320,192,25670,1,0,0:0:0:0:
448,192,25745,1,0,0:0:0:0:
192,192,25820,1,0,0:0:0:0:
192,192,25970,1,0,0:0:0:0:
320,192,26120,1,0,0:0:0:0:
320,192,26270,1,0,0:0:0:0:
64,192,26420,128,0,26570:0:0:0:0:
448,192,26570,1,0,0:0:0:0:
192,192,26720,128,0,26870:0:0:0:0:
64,192,26720,128,0,26870:0:0:0:0:
448,192,27020,1,0,0:0:0:0:
64,192,27095,1,0,0:0:0:0:
320,192,27170,1,0,0:0:0:0:
192,192,27245,1,0,0:0:0:0:
64,192,27320,1,0,0:0:0:0:
448,192,27320,128,0,27470:0:0:0:0:
64,192,27470,1,0,0:0:0:0:
192,192,27620,1,0,0:0:0:0:
320,192,27620,1,0,0:0:0:0:
448,192,27620,1,0,0:0:0:0:
448,192,27770,1,0,0:0:0:0:
192,192,27920,1,0,0:0:0:0:
64,192,27920,1,0,0:0:0:0:
192,192,28220,128,0,28520:0:0:0:0:
320,192,28220,1,0,0:0:0:0:
448,192,28520,1,0,0:0:0:0:
320,192,28520,128,0,28820:0:0:0:0:
64,192,28820,128,0,29120:0:0:0:0:
192,192,28820,1,0,0:0:0:0:
448,192,29120,1,0,0:0:0:0:
192,192,29120,1,0,0:0:0:0:
64,192,29270,1,0,0:0:0:0:
320,192,29420,1,0,0:0:0:0:
448,192,29420,128,0,29720:0:0:0:0:
64,192,29720,1,0,0:0:0:0:
192,192,29720,1,0,0:0:0:0:
192,192,30020,128,0,30320:0:0:0:0:
448,192,30020,1,0,0:0:0:0:
320,192,30170,1,0,0:0:0:0:
64,192,30320,1,0,0:0:0:0:
448,192,30320,128,0,30620:0:0:0:0:
64,192,30620,128,0,30920:0:0:0:0:
320,192,30620,1,0,0:0:0:0:
320,192,30920,1,0,0:0:0:0:
192,192,30995,1,0,0:0:0:0:
448,192,31070,1,0,0:0:0:0:
192,192,31145,1,0,0:0:0:0:
64,192,31220,1,0,0:0:0:0:
320,192,31220,1,0,0:0:0:0:
448,192,31220,1,0,0:0:0:0:
192,192,31370,1,0,0:0:0:0:
192,192,31520,1,0,0:0:0:0:
448,192,31520,1,0,0:0:0:0:
320,192,31670,1,0,0:0:0:0:
64,192,31820,1,0,0:0:0:0:
320,192,31820,1,0,0:0:0:0:
64,192,31970,1,0,0:0:0:0:
192,192,32120,1,0,0:0:0:0:
320,192,32120,1,0,0:0:0:0:
448,192,32120,1,0,0:0:0:0:
320,192,32270,1,0,0:0:0:0:
64,192,32345,1,0,0:0:0:0:
192,192,32420,1,0,0:0:0:0:
448,192,32420,1,0,0:0:0:0:
192,192,32570,1,0,0:0:0:0:
448,192,32720,1,0,0:0:0:0:
320,192,32795,1,0,0:0:0:0:
192,192,32870,1,0,0:0:0:0:
64,192,32870,1,0,0:0:0:0:
64,192,33020,1,0,0:0:0:0:
448,192,33020,1,0,0:0:0:0:
320,192,33170,1,0,0:0:0:0:
448,192,33245,1,0,0:0:0:0:
64,192,33320,1,0,0:0:0:0:
192,192,33320,1,0,0:0:0:0:
320,192,33470,1,0,0:0:0:0:
64,192,33620,1,0,0:0:0:0:
448,192,33620,1,0,0:0:0:0:
192,192,33695,1,0,0:0:0:0:
448,192,33770,1,0,0:0:0:0:
320,192,33845,1,0,0:0:0:0:
192,192,33920,1,0,0:0:0:0:
64,192,33920,1,0,0:0:0:0:
448,192,34220,1,0,0:0:0:0:
64,192,34295,1,0,0:0:0:0:
320,192,34370,1,0,0:0:0:0:
192,192,34445,1,0,0:0:0:0:
448,192,34520,1,0,0:0:0:0:
320,192,34595,1,0,0:0:0:0:
64,192,34670,1,0,0:0:0:0:
192,192,34745,1,0,0:0:0:0:
64,192,34820,1,0,0:0:0:0:
320,192,34820,1,0,0:0:0:0:
448,192,34820,1,0,0:0:0:0:
192,192,34970,1,0,0:0:0:0:
192,192,35120,1,0,0:0:0:0:
448,192,35270,1,0,0:0:0:0:
192,192,35420,1,0,0:0:0:0:
192,192,35570,1,0,0:0:0:0:
448,192,35720,1,0,0:0:0:0:
64,192,35870,1,0,0:0:0:0:
320,192,36020,1,0,0:0:0:0:
192,192,36095,1,0,0:0:0:0:
448,192,36170,1,0,0:0:0:0:
64,192,36245,1,0,0:0:0:0:
320,192,36320,1,0,0:0:0:0:
448,192,36395,1,0,0:0:0:0:
192,192,36470,1,0,0:0:0:0:
64,192,36545,1,0,0:0:0:0:
320,192,36620,1,0,0:0:0:0:
448,192,36770,1,0,0:0:0:0:
448,192,36920,1,0,0:0:0:0:
192,192,37070,1,0,0:0:0:0:
64,192,37220,1,0,0:0:0:0:
64,192,37370,1,0,0:0:0:0:
320,192,37520,1,0,0:0:0:0:
192,192,37670,1,0,0:0:0:0:
448,192,37820,1,0,0:0:0:0:
64,192,37895,1,0,0:0:0:0:
320,192,37970,1,0,0:0:0:0:
192,192,38045,1,0,0:0:0:0:
448,192,38120,1,0,0:0:0:0:
320,192,38195,1,0,0:0:0:0:
64,192,38270,1,0,0:0:0:0:
192,192,38345,1,0,0:0:0:0:
448,192,38420,1,0,0:0:0:0:
64,192,38570,1,0,0:0:0:0:
64,192,38720,1,0,0:0:0:0:
448,192,38870,1,0,0:0:0:0:
64,192,39020,1,0,0:0:0:0:
64,192,39170,1,0,0:0:0:0:
192,192,39320,1,0,0:0:0:0:
320,192,39470,1,0,0:0:0:0:
64,192,39620,1,0,0:0:0:0:
448,192,39695,1,0,0:0:0:0:
192,192,39770,1,0,0:0:0:0:
64,192,39845,1,0,0:0:0:0:
320,192,39920,1,0,0:0:0:0:
192,192,39995,1,0,0:0:0:0:
448,192,40070,1,0,0:0:0:0:
320,192,40145,1,0,0:0:0:0:
64,192,40220,1,0,0:0:0:0:
448,192,40370,128,0,40520:0:0:0:0:
192,192,40520,128,0,40670:0:0:0:0:
320,192,40670,128,0,40820:0:0:0:0:
64,192,40820,1,0,0:0:0:0:
448,192,40895,1,0,0:0:0:0:
192,192,40970,1,0,0:0:0:0:
64,192,41045,1,0,0:0:0:0:
320,192,41120,1,0,0:0:0:0:
192,192,41195,1,0,0:0:0:0:
320,192,41270,1,0,0:0:0:0:
64,192,41420,1,0,0:0:0:0:
448,192,41495,1,0,0:0:0:0:
64,192,41570,1,0,0:0:0:0:
320,192,41720,1,0,0:0:0:0:
448,192,41795,1,0,0:0:0:0:
192,192,41870,1,0,0:0:0:0:
320,192,41945,1,0,0:0:0:0:
448,192,42020,1,0,0:0:0:0:
64,192,42020,1,0,0:0:0:0:
192,192,42020,1,0,0:0:0:0:
320,192,42170,1,0,0:0:0:0:
320,192,42320,1,0,0:0:0:0:
64,192,42320,1,0,0:0:0:0:
64,192,42470,1,0,0:0:0:0:
192,192,42470,1,0,0:0:0:0:
320,192,42620,1,0,0:0:0:0:
320,192,42770,1,0,0:0:0:0:
192,192,42920,1,0,0:0:0:0:
448,192,42920,1,0,0:0:0:0:
64,192,43070,1,0,0:0:0:0:
192,192,43145,1,0,0:0:0:0:
448,192,43220,1,0,0:0:0:0:
320,192,43295,1,0,0:0:0:0:
64,192,43370,1,0,0:0:0:0:
448,192,43445,1,0,0:0:0:0:
192,192,43520,1,0,0:0:0:0:
64,192,43670,1,0,0:0:0:0:
320,192,43820,1,0,0:0:0:0:
448,192,43820,1,0,0:0:0:0:
192,192,43970,1,0,0:0:0:0:
448,192,44120,1,0,0:0:0:0:
192,192,44120,1,0,0:0:0:0:
448,192,44270,1,0,0:0:0:0:
320,192,44270,1,0,0:0:0:0:
64,192,44420,1,0,0:0:0:0:
64,192,44570,1,0,0:0:0:0:
192,192,44720,1,0,0:0:0:0:
320,192,44720,1,0,0:0:0:0:
448,192,44870,1,0,0:0:0:0:
320,192,44945,1,0,0:0:0:0:
64,192,45020,1,0,0:0:0:0:
448,192,45095,1,0,0:0:0:0:
192,192,45170,1,0,0:0:0:0:
320,192,45320,1,0,0:0:0:0:
64,192,45395,1,0,0:0:0:0:
448,192,45470,1,0,0:0:0:0:
320,192,45545,1,0,0:0:0:0:
192,192,45620,1,0,0:0:0:0:
64,192,45620,1,0,0:0:0:0:
448,192,45770,1,0,0:0:0:0:
448,192,45920,1,0,0:0:0:0:
192,192,45920,1,0,0:0:0:0:
192,192,46070,1,0,0:0:0:0:
64,192,46220,1,0,0:0:0:0:
64,192,46370,1,0,0:0:0:0:
320,192,46370,1,0,0:0:0:0:
320,192,46520,1,0,0:0:0:0:
448,192,46520,1,0,0:0:0:0:
192,192,46670,1,0,0:0:0:0:
64,192,46670,1,0,0:0:0:0:
320,192,46820,1,0,0:0:0:0:
64,192,46895,1,0,0:0:0:0:
448,192,46970,1,0,0:0:0:0:
192,192,47045,1,0,0:0:0:0:
320,192,47120,1,0,0:0:0:0:
448,192,47195,1,0,0:0:0:0:
64,192,47270,1,0,0:0:0:0:
192,192,47345,1,0,0:0:0:0:
320,192,47420,1,0,0:0:0:0:
448,192,47420,128,0,47720:0:0:0:0:
320,192,47720,1,0,0:0:0:0:
64,192,47820,1,0,0:0:0:0:
192,192,47920,1,0,0:0:0:0:
320,192,48020,1,0,0:0:0:0:
448,192,48020,1,0,0:0:0:0:
192,192,48170,1,0,0:0:0:0:
64,192,48170,1,0,0:0:0:0:
448,192,48320,1,0,0:0:0:0:
192,192,48395,1,0,0:0:0:0:
448,192,48470,1,0,0:0:0:0:
64,192,48620,1,0,0:0:0:0:
320,192,48695,1,0,0:0:0:0:
64,192,48770,1,0,0:0:0:0:
448,192,48920,1,0,0:0:0:0:
192,192,48995,1,0,0:0:0:0:
320,192,49070,1,0,0:0:0:0:
448,192,49145,1,0,0:0:0:0:
192,192,49220,1,0,0:0:0:0:
64,192,49220,1,0,0:0:0:0:
448,192,49520,1,0,0:0:0:0:
320,192,49595,1,0,0:0:0:0:
64,192,49670,1,0,0:0:0:0:
448,192,49820,1,0,0:0:0:0:
192,192,49895,1,0,0:0:0:0:
64,192,49970,1,0,0:0:0:0:
320,192,50120,128,0,50645:0:0:0:0:
448,192,50120,128,0,50645:0:0:0:0:
192,192,50645,1,0,0:0:0:0:
64,192,50720,1,0,0:0:0:0:
448,192,50757,1,0,0:0:0:0:
192,192,50870,1,0,0:0:0:0:
320,192,50945,1,0,0:0:0:0:
448,192,51020,1,0,0:0:0:0:
64,192,51095,1,0,0:0:0:0:
320,192,51170,1,0,0:0:0:0:
192,192,51245,1,0,0:0:0:0:
64,192,51320,128,0,51620:0:0:0:0:
448,192,51320,128,0,51620:0:0:0:0:
320,192,51620,1,0,0:0:0:0:
192,192,51695,1,0,0:0:0:0:
320,192,51770,1,0,0:0:0:0:
192,192,51845,1,0,0:0:0:0:
448,192,51920,1,0,0:0:0:0:
64,192,51957,1,0,0:0:0:0:
320,192,52070,1,0,0:0:0:0:
448,192,52145,1,0,0:0:0:0:
192,192,52220,128,0,52520:0:0:0:0:
64,192,52370,128,0,52520:0:0:0:0:
320,192,52520,128,0,52970:0:0:0:0:
448,192,52520,128,0,52970:0:0:0:0:
192,192,52970,1,0,0:0:0:0:
320,192,53045,1,0,0:0:0:0:
64,192,53120,1,0,0:0:0:0:
448,192,53157,1,0,0:0:0:0:
64,192,53270,1,0,0:0:0:0:
192,192,53420,128,0,54020:0:0:0:0:
320,192,53420,128,0,54320:0:0:0:0:
448,192,54020,1,0,0:0:0:0:
64,192,54020,1,0,0:0:0:0:
192,192,54320,1,0,0:0:0:0:
64,192,54357,1,0,0:0:0:0:
192,192,54470,1,0,0:0:0:0:
448,192,54620,1,0,0:0:0:0:
64,192,54695,1,0,0:0:0:0:
320,192,54770,1,0,0:0:0:0:
448,192,54845,1,0,0:0:0:0:
192,192,54920,128,0,55370:0:0:0:0:
64,192,54920,128,0,55370:0:0:0:0:
448,192,55370,1,0,0:0:0:0:
64,192,55445,1,0,0:0:0:0:
448,192,55520,1,0,0:0:0:0:
64,192,55595,1,0,0:0:0:0:
320,192,55670,1,0,0:0:0:0:
192,192,55770,1,0,0:0:0:0:
64,192,55820,128,0,56120:0:0:0:0:
448,192,55820,128,0,56120:0:0:0:0:
192,192,56120,1,0,0:0:0:0:
320,192,56195,1,0,0:0:0:0:
192,192,56270,1,0,0:0:0:0:
64,192,56345,1,0,0:0:0:0:
320,192,56420,128,0,56720:0:0:0:0:
448,192,56420,128,0,56720:0:0:0:0:
64,192,56720,1,0,0:0:0:0:
192,192,56757,1,0,0:0:0:0:
64,192,56870,1,0,0:0:0:0:
320,192,56870,128,0,57170:0:0:0:0:
448,192,57170,1,0,0:0:0:0:
192,192,57245,1,0,0:0:0:0:
64,192,57320,128,0,57470:0:0:0:0:
448,192,57320,1,0,0:0:0:0:
320,192,57320,128,0,57620:0:0:0:0:
320,192,57770,1,0,0:0:0:0:
448,192,57770,128,0,57920:0:0:0:0:
64,192,57845,1,0,0:0:0:0:
192,192,57920,128,0,58220:0:0:0:0:
64,192,58220,128,0,58370:0:0:0:0:
448,192,58220,1,0,0:0:0:0:
320,192,58370,128,0,58520:0:0:0:0:
192,192,58670,1,0,0:0:0:0:
320,192,58670,128,0,58895:0:0:0:0:
64,192,58670,1,0,0:0:0:0:
192,192,58895,1,0,0:0:0:0:
448,192,58970,1,0,0:0:0:0:
192,192,59045,1,0,0:0:0:0:
64,192,59120,1,0,0:0:0:0:
320,192,59120,1,0,0:0:0:0:
320,192,59270,1,0,0:0:0:0:
64,192,59345,1,0,0:0:0:0:
448,192,59420,1,0,0:0:0:0:
192,192,59420,1,0,0:0:0:0:
320,192,59570,1,0,0:0:0:0:
192,192,59645,1,0,0:0:0:0:
320,192,59720,1,0,0:0:0:0:
448,192,59720,128,0,60020:0:0:0:0:
64,192,59720,128,0,59870:0:0:0:0:
64,192,60020,1,0,0:0:0:0:
192,192,60020,1,0,0:0:0:0:
448,192,60170,1,0,0:0:0:0:
320,192,60245,1,0,0:0:0:0:
64,192,60320,1,0,0:0:0:0:
448,192,60395,1,0,0:0:0:0:
192,192,60470,1,0,0:0:0:0:
448,192,60620,1,0,0:0:0:0:
320,192,60620,1,0,0:0:0:0:
64,192,60695,1,0,0:0:0:0:
448,192,60770,1,0,0:0:0:0:
192,192,60845,1,0,0:0:0:0:
320,192,60920,1,0,0:0:0:0:
192,192,61070,1,0,0:0:0:0:
64,192,61145,1,0,0:0:0:0:
320,192,61220,1,0,0:0:0:0:
448,192,61220,1,0,0:0:0:0:
192,192,61370,1,0,0:0:0:0:
448,192,61445,1,0,0:0:0:0:
64,192,61520,1,0,0:0:0:0:
320,192,61520,128,0,61670:0:0:0:0:
192,192,61670,1,0,0:0:0:0:
320,192,61745,1,0,0:0:0:0:
448,192,61820,1,0,0:0:0:0:
64,192,61895,1,0,0:0:0:0:
320,192,61970,1,0,0:0:0:0:
64,192,62120,1,0,0:0:0:0:
192,192,62120,1,0,0:0:0:0:
320,192,62270,1,0,0:0:0:0:
192,192,62345,1,0,0:0:0:0:
320,192,62420,1,0,0:0:0:0:
448,192,62495,1,0,0:0:0:0:
64,192,62570,1,0,0:0:0:0:
192,192,62645,1,0,0:0:0:0:
320,192,62720,1,0,0:0:0:0:
448,192,62720,128,0,62870:0:0:0:0:
192,192,62870,1,0,0:0:0:0:
320,192,62945,128,0,63095:0:0:0:0:
64,192,63020,1,0,0:0:0:0:
192,192,63170,1,0,0:0:0:0:
320,192,63320,1,0,0:0:0:0:
448,192,63320,1,0,0:0:0:0:
64,192,63320,1,0,0:0:0:0:
192,192,63470,1,0,0:0:0:0:
448,192,63545,1,0,0:0:0:0:
320,192,63620,1,0,0:0:0:0:
64,192,63695,1,0,0:0:0:0:
448,192,63770,1,0,0:0:0:0:
192,192,63845,1,0,0:0:0:0:
320,192,63920,1,0,0:0:0:0:
64,192,63920,128,0,64070:0:0:0:0:
192,192,64145,1,0,0:0:0:0:
448,192,64145,128,0,64295:0:0:0:0:
320,192,64295,1,0,0:0:0:0:
64,192,64370,1,0,0:0:0:0:
192,192,64445,1,0,0:0:0:0:
320,192,64520,1,0,0:0:0:0:
448,192,64520,1,0,0:0:0:0:
64,192,64520,1,0,0:0:0:0:
320,192,64670,1,0,0:0:0:0:
64,192,64745,1,0,0:0:0:0:
192,192,64745,1,0,0:0:0:0:
192,192,64895,1,0,0:0:0:0:
64,192,64970,1,0,0:0:0:0:
448,192,64970,1,0,0:0:0:0:
448,192,65120,1,0,0:0:0:0:
64,192,65195,1,0,0:0:0:0:
320,192,65270,1,0,0:0:0:0:
192,192,65345,1,0,0:0:0:0:
320,192,65420,1,0,0:0:0:0:
448,192,65420,1,0,0:0:0:0:
64,192,65570,1,0,0:0:0:0:
320,192,65645,1,0,0:0:0:0:
192,192,65720,1,0,0:0:0:0:
64,192,65720,1,0,0:0:0:0:
448,192,65870,1,0,0:0:0:0:
192,192,65945,1,0,0:0:0:0:
320,192,66095,1,0,0:0:0:0:
192,192,66170,1,0,0:0:0:0:
64,192,66320,1,0,0:0:0:0:
448,192,66395,1,0,0:0:0:0:
320,192,66545,1,0,0:0:0:0:
192,192,66620,128,0,66770:0:0:0:0:
448,192,66770,1,0,0:0:0:0:
64,192,66845,1,0,0:0:0:0:
320,192,66920,1,0,0:0:0:0:
448,192,66920,1,0,0:0:0:0:
192,192,66920,1,0,0:0:0:0:
192,192,67070,1,0,0:0:0:0:
320,192,67145,1,0,0:0:0:0:
448,192,67145,1,0,0:0:0:0:
320,192,67295,1,0,0:0:0:0:
448,192,67370,1,0,0:0:0:0:
64,192,67370,1,0,0:0:0:0:
64,192,67520,1,0,0:0:0:0:
448,192,67595,1,0,0:0:0:0:
192,192,67670,1,0,0:0:0:0:
320,192,67745,1,0,0:0:0:0:
192,192,67820,1,0,0:0:0:0:
64,192,67820,1,0,0:0:0:0:
448,192,67970,1,0,0:0:0:0:
192,192,68045,1,0,0:0:0:0:
320,192,68120,1,0,0:0:0:0:
448,192,68120,1,0,0:0:0:0:
64,192,68270,1,0,0:0:0:0:
192,192,68345,1,0,0:0:0:0:
448,192,68420,1,0,0:0:0:0:
64,192,68495,1,0,0:0:0:0:
320,192,68570,1,0,0:0:0:0:
192,192,68720,1,0,0:0:0:0:
64,192,68720,1,0,0:0:0:0:
448,192,68870,1,0,0:0:0:0:
320,192,68945,1,0,0:0:0:0:
192,192,69020,1,0,0:0:0:0:
448,192,69095,1,0,0:0:0:0:
64,192,69170,1,0,0:0:0:0:
320,192,69245,1,0,0:0:0:0:
448,192,69320,1,0,0:0:0:0:
192,192,69320,1,0,0:0:0:0:
64,192,69395,1,0,0:0:0:0:
320,192,69545,1,0,0:0:0:0:
448,192,69620,1,0,0:0:0:0:
192,192,69770,1,0,0:0:0:0:
320,192,69845,1,0,0:0:0:0:
448,192,69995,1,0,0:0:0:0:
64,192,70070,1,0,0:0:0:0:
320,192,70220,1,0,0:0:0:0:
448,192,70295,1,0,0:0:0:0:
192,192,70445,1,0,0:0:0:0:
64,192,70520,1,0,0:0:0:0:
320,192,70670,1,0,0:0:0:0:
192,192,70745,1,0,0:0:0:0:
448,192,70895,1,0,0:0:0:0:
64,192,70970,1,0,0:0:0:0:
320,192,71120,1,0,0:0:0:0:
448,192,71120,128,0,71270:0:0:0:0:
192,192,71420,1,0,0:0:0:0:
64,192,71420,128,0,71570:0:0:0:0:
192,192,71720,1,0,0:0:0:0:
320,192,71720,128,0,72470:0:0:0:0:
192,192,72320,128,0,72620:0:0:0:0:
320,192,72920,1,0,0:0:0:0:
448,192,72920,1,0,0:0:0:0:
192,192,73120,1,0,0:0:0:0:
448,192,73220,1,0,0:0:0:0:
64,192,73320,1,0,0:0:0:0:
320,192,73420,1,0,0:0:0:0:
192,192,73520,1,0,0:0:0:0:
64,192,73520,1,0,0:0:0:0:
320,192,73720,1,0,0:0:0:0:
64,192,73820,1,0,0:0:0:0:
448,192,73920,1,0,0:0:0:0:
192,192,74020,1,0,0:0:0:0:
320,192,74120,1,0,0:0:0:0:
448,192,74170,1,0,0:0:0:0:
64,192,74420,1,0,0:0:0:0:
320,192,74570,1,0,0:0:0:0:
192,192,74720,1,0,0:0:0:0:
448,192,74870,1,0,0:0:0:0:
64,192,74870,1,0,0:0:0:0:
448,192,75170,1,0,0:0:0:0:
192,192,75320,1,0,0:0:0:0:
64,192,75320,1,0,0:0:0:0:
320,192,75470,1,0,0:0:0:0:
64,192,75620,1,0,0:0:0:0:
320,192,75770,1,0,0:0:0:0:
448,192,75770,1,0,0:0:0:0:
192,192,76070,1,0,0:0:0:0:
320,192,76070,1,0,0:0:0:0:
64,192,76220,1,0,0:0:0:0:
320,192,76370,1,0,0:0:0:0:
448,192,76370,1,0,0:0:0:0:
448,192,76670,1,0,0:0:0:0:
192,192,76820,1,0,0:0:0:0:
64,192,76820,1,0,0:0:0:0:
192,192,77120,1,0,0:0:0:0:
64,192,77270,1,0,0:0:0:0:
448,192,77270,1,0,0:0:0:0:
320,192,77420,1,0,0:0:0:0:
192,192,77570,1,0,0:0:0:0:
320,192,77720,1,0,0:0:0:0:
448,192,77720,1,0,0:0:0:0:
64,192,78020,1,0,0:0:0:0:
448,192,78020,1,0,0:0:0:0:
320,192,78170,1,0,0:0:0:0:
448,192,78320,1,0,0:0:0:0:
64,192,78470,1,0,0:0:0:0:
192,192,78620,1,0,0:0:0:0:
320,192,78620,1,0,0:0:0:0:
64,192,78920,1,0,0:0:0:0:
448,192,78920,1,0,0:0:0:0:
192,192,79070,1,0,0:0:0:0:
448,192,79220,1,0,0:0:0:0:
320,192,79370,1,0,0:0:0:0:
64,192,79520,1,0,0:0:0:0:
448,192,79595,1,0,0:0:0:0:
192,192,79670,1,0,0:0:0:0:
320,192,79745,1,0,0:0:0:0:
64,192,79820,1,0,0:0:0:0:
320,192,79970,1,0,0:0:0:0:
448,192,79970,1,0,0:0:0:0:
192,192,80120,1,0,0:0:0:0:
320,192,80270,1,0,0:0:0:0:
64,192,80420,1,0,0:0:0:0:
448,192,80470,1,0,0:0:0:0:
192,192,80720,1,0,0:0:0:0:
320,192,80720,1,0,0:0:0:0:
448,192,80870,1,0,0:0:0:0:
192,192,81020,1,0,0:0:0:0:
64,192,81045,1,0,0:0:0:0:
64,192,81320,1,0,0:0:0:0:
448,192,81320,1,0,0:0:0:0:
320,192,81320,1,0,0:0:0:0:
448,192,81545,1,0,0:0:0:0:
64,192,81620,1,0,0:0:0:0:
320,192,81770,1,0,0:0:0:0:
192,192,81920,1,0,0:0:0:0:
320,192,82070,1,0,0:0:0:0:
448,192,82070,1,0,0:0:0:0:
448,192,82370,128,0,82520:0:0:0:0:
64,192,82420,1,0,0:0:0:0:
320,192,82520,128,0,82670:0:0:0:0:
192,192,82670,128,0,82820:0:0:0:0:
448,192,82820,1,0,0:0:0:0:
192,192,82970,1,0,0:0:0:0:
64,192,82970,1,0,0:0:0:0:
192,192,83270,1,0,0:0:0:0:
320,192,83320,1,0,0:0:0:0:
192,192,83420,1,0,0:0:0:0:
64,192,83570,128,0,83720:0:0:0:0:
448,192,83570,128,0,83720:0:0:0:0:
192,192,83870,128,0,84020:0:0:0:0:
448,192,84020,1,0,0:0:0:0:
320,192,84020,128,0,84320:0:0:0:0:
64,192,84320,128,0,84470:0:0:0:0:
192,192,84470,128,0,84620:0:0:0:0:
448,192,84470,1,0,0:0:0:0:
320,192,84620,128,0,84770:0:0:0:0:
192,192,84770,128,0,84920:0:0:0:0:
64,192,84770,1,0,0:0:0:0:
320,192,84920,1,0,0:0:0:0:
448,192,84920,128,0,85220:0:0:0:0:
64,192,84920,1,0,0:0:0:0:
192,192,85020,1,0,0:0:0:0:
64,192,85220,128,0,85520:0:0:0:0:
320,192,85520,128,0,85820:0:0:0:0:
64,192,85820,1,0,0:0:0:0:
192,192,85820,128,0,86120:0:0:0:0:
448,192,86120,128,0,86420:0:0:0:0:
64,192,86220,1,0,0:0:0:0:
320,192,86420,128,0,86720:0:0:0:0:
64,192,86620,1,0,0:0:0:0:
448,192,86720,1,0,0:0:0:0:
192,192,86720,128,0,87020:0:0:0:0:
320,192,86920,1,0,0:0:0:0:
64,192,87020,128,0,87320:0:0:0:0:
192,192,87220,1,0,0:0:0:0:
448,192,87320,1,0,0:0:0:0:
320,192,87420,1,0,0:0:0:0:
192,192,87520,1,0,0:0:0:0:
64,192,87620,1,0,0:0:0:0:
320,192,87620,1,0,0:0:0:0:
448,192,87620,1,0,0:0:0:0:
64,192,87920,1,0,0:0:0:0:
192,192,87995,1,0,0:0:0:0:
448,192,88070,1,0,0:0:0:0:
320,192,88145,1,0,0:0:0:0:
64,192,88220,1,0,0:0:0:0:
320,192,88370,1,0,0:0:0:0:
192,192,88445,1,0,0:0:0:0:
448,192,88520,1,0,0:0:0:0:
64,192,88520,1,0,0:0:0:0:
320,192,88520,128,0,88820:0:0:0:0:
64,192,88820,1,0,0:0:0:0:
448,192,88895,1,0,0:0:0:0:
320,192,88970,1,0,0:0:0:0:
192,192,88970,1,0,0:0:0:0:
64,192,89120,1,0,0:0:0:0:
320,192,89270,1,0,0:0:0:0:
64,192,89420,1,0,0:0:0:0:
192,192,89420,128,0,89720:0:0:0:0:
448,192,89495,1,0,0:0:0:0:
320,192,89645,1,0,0:0:0:0:
64,192,89720,1,0,0:0:0:0:
448,192,89720,1,0,0:0:0:0:
192,192,89870,1,0,0:0:0:0:
320,192,90020,1,0,0:0:0:0:
192,192,90170,1,0,0:0:0:0:
320,192,90320,1,0,0:0:0:0:
448,192,90320,128,0,90620:0:0:0:0:
64,192,90470,1,0,0:0:0:0:
320,192,90545,1,0,0:0:0:0:
64,192,90620,1,0,0:0:0:0:
192,192,90770,1,0,0:0:0:0:
320,192,90770,1,0,0:0:0:0:
448,192,90920,1,0,0:0:0:0:
192,192,91070,1,0,0:0:0:0:
320,192,91220,1,0,0:0:0:0:
448,192,91220,128,0,91445:0:0:0:0:
320,192,91445,1,0,0:0:0:0:
192,192,91520,1,0,0:0:0:0:
64,192,91520,128,0,91670:0:0:0:0:
448,192,91670,1,0,0:0:0:0:
320,192,91745,1,0,0:0:0:0:
64,192,91820,1,0,0:0:0:0:
448,192,91895,1,0,0:0:0:0:
192,192,91970,1,0,0:0:0:0:
320,192,92045,1,0,0:0:0:0:
64,192,92120,1,0,0:0:0:0:
448,192,92120,128,0,92420:0:0:0:0:
192,192,92420,1,0,0:0:0:0:
320,192,92570,1,0,0:0:0:0:
448,192,92570,1,0,0:0:0:0:
64,192,92720,1,0,0:0:0:0:
448,192,92870,1,0,0:0:0:0:
192,192,93020,1,0,0:0:0:0:
64,192,93020,128,0,93320:0:0:0:0:
320,192,93320,1,0,0:0:0:0:
448,192,93320,1,0,0:0:0:0:
64,192,93470,1,0,0:0:0:0:
320,192,93620,1,0,0:0:0:0:
64,192,93770,1,0,0:0:0:0:
192,192,93920,128,0,94220:0:0:0:0:
448,192,93920,128,0,94220:0:0:0:0:
64,192,94295,1,0,0:0:0:0:
320,192,94370,1,0,0:0:0:0:
192,192,94520,1,0,0:0:0:0:
448,192,94670,1,0,0:0:0:0:
320,192,94820,128,0,94970:0:0:0:0:
64,192,94820,128,0,95345:0:0:0:0:
320,192,95120,128,0,95195:0:0:0:0:
320,192,95270,128,0,95420:0:0:0:0:
64,192,95420,1,0,0:0:0:0:
192,192,95495,1,0,0:0:0:0:
448,192,95570,1,0,0:0:0:0:
320,192,95645,1,0,0:0:0:0:
448,192,95720,1,0,0:0:0:0:
64,192,95720,1,0,0:0:0:0:
192,192,95720,128,0,96620:0:0:0:0:
320,192,96020,1,0,0:0:0:0:
448,192,96470,128,0,96620:0:0:0:0:
64,192,96620,1,0,0:0:0:0:
320,192,96620,128,0,96795:0:0:0:0:
192,192,96795,128,0,96920:0:0:0:0:
448,192,96920,1,0,0:0:0:0:
64,192,96920,128,0,97220:0:0:0:0:
320,192,97220,1,0,0:0:0:0:
448,192,97220,1,0,0:0:0:0:
192,192,97320,1,0,0:0:0:0:
448,192,97420,1,0,0:0:0:0:
64,192,97520,1,0,0:0:0:0:
320,192,97620,1,0,0:0:0:0:
64,192,97720,1,0,0:0:0:0:
448,192,97820,1,0,0:0:0:0:
192,192,97920,1,0,0:0:0:0:
320,192,98020,1,0,0:0:0:0:
448,192,98120,1,0,0:0:0:0:
64,192,98120,128,0,98420:0:0:0:0:
320,192,98270,1,0,0:0:0:0:
192,192,98420,1,0,0:0:0:0:
448,192,98570,1,0,0:0:0:0:
320,192,98720,1,0,0:0:0:0:
192,192,98720,1,0,0:0:0:0:
64,192,98720,1,0,0:0:0:0:
448,192,98870,1,0,0:0:0:0:
320,192,98945,1,0,0:0:0:0:
192,192,99020,1,0,0:0:0:0:
64,192,99020,1,0,0:0:0:0:
320,192,99170,1,0,0:0:0:0:
192,192,99245,1,0,0:0:0:0:
64,192,99320,1,0,0:0:0:0:
448,192,99320,1,0,0:0:0:0:
192,192,99470,1,0,0:0:0:0:
320,192,99545,1,0,0:0:0:0:
64,192,99620,1,0,0:0:0:0:
448,192,99695,1,0,0:0:0:0:
192,192,99770,1,0,0:0:0:0:
448,192,99920,1,0,0:0:0:0:
320,192,99920,1,0,0:0:0:0:
64,192,100070,1,0,0:0:0:0:
192,192,100145,1,0,0:0:0:0:
320,192,100220,1,0,0:0:0:0:
448,192,100220,1,0,0:0:0:0:
192,192,100370,1,0,0:0:0:0:
320,192,100445,1,0,0:0:0:0:
64,192,100520,1,0,0:0:0:0:
448,192,100520,1,0,0:0:0:0:
320,192,100670,1,0,0:0:0:0:
192,192,100745,1,0,0:0:0:0:
448,192,100820,1,0,0:0:0:0:
64,192,100820,1,0,0:0:0:0:
320,192,100970,1,0,0:0:0:0:
64,192,101120,1,0,0:0:0:0:
192,192,101120,1,0,0:0:0:0:
448,192,101195,1,0,0:0:0:0:
64,192,101270,1,0,0:0:0:0:
320,192,101345,1,0,0:0:0:0:
192,192,101420,1,0,0:0:0:0:
448,192,101495,1,0,0:0:0:0:
64,192,101570,1,0,0:0:0:0:
320,192,101645,1,0,0:0:0:0:
192,192,101720,1,0,0:0:0:0:
448,192,101795,1,0,0:0:0:0:
192,192,101870,1,0,0:0:0:0:
448,192,101945,1,0,0:0:0:0:
64,192,102020,1,0,0:0:0:0:
320,192,102095,1,0,0:0:0:0:
64,192,102170,1,0,0:0:0:0:
320,192,102245,1,0,0:0:0:0:
192,192,102320,1,0,0:0:0:0:
64,192,102357,1,0,0:0:0:0:
320,192,102620,128,0,102770:0:0:0:0:
192,192,102770,128,0,102920:0:0:0:0:
448,192,102920,128,0,103070:0:0:0:0:
320,192,103070,128,0,103220:0:0:0:0:
64,192,103220,128,0,103370:0:0:0:0:
192,192,103370,128,0,103520:0:0:0:0:
448,192,103520,1,0,0:0:0:0:
320,192,103520,128,0,103820:0:0:0:0:
64,192,103595,1,0,0:0:0:0:
448,192,103670,128,0,103820:0:0:0:0:
192,192,103820,128,0,104120:0:0:0:0:
64,192,103970,128,0,104120:0:0:0:0:
448,192,104045,1,0,0:0:0:0:
320,192,104120,128,0,104570:0:0:0:0:
320,192,104720,128,0,104870:0:0:0:0:
64,192,104720,1,0,0:0:0:0:
448,192,104720,128,0,104870:0:0:0:0:
192,192,104870,1,0,0:0:0:0:
320,192,104945,1,0,0:0:0:0:
64,192,105020,1,0,0:0:0:0:
448,192,105095,1,0,0:0:0:0:
192,192,105170,1,0,0:0:0:0:
64,192,105245,1,0,0:0:0:0:
448,192,105320,1,0,0:0:0:0:
320,192,105320,128,0,105470:0:0:0:0:
192,192,105470,128,0,105620:0:0:0:0:
64,192,105620,1,0,0:0:0:0:
448,192,105620,128,0,105770:0:0:0:0:
192,192,105770,1,0,0:0:0:0:
320,192,105845,1,0,0:0:0:0:
192,192,105920,1,0,0:0:0:0:
64,192,105920,128,0,106070:0:0:0:0:
320,192,106070,128,0,106220:0:0:0:0:
448,192,106220,1,0,0:0:0:0:
192,192,106220,128,0,106370:0:0:0:0:
320,192,106370,128,0,106670:0:0:0:0:
64,192,106520,1,0,0:0:0:0:
192,192,106520,1,0,0:0:0:0:
448,192,106595,1,0,0:0:0:0:
64,192,106670,128,0,106820:0:0:0:0:
320,192,106820,1,0,0:0:0:0:
448,192,106820,128,0,107045:0:0:0:0:
320,192,107045,1,0,0:0:0:0:
192,192,107120,1,0,0:0:0:0:
64,192,107120,1,0,0:0:0:0:
64,192,107270,1,0,0:0:0:0:
448,192,107345,1,0,0:0:0:0:
320,192,107420,1,0,0:0:0:0:
192,192,107495,1,0,0:0:0:0:
320,192,107570,1,0,0:0:0:0:
192,192,107645,1,0,0:0:0:0:
448,192,107720,1,0,0:0:0:0:
64,192,107720,128,0,107870:0:0:0:0:
320,192,107870,1,0,0:0:0:0:
192,192,107945,1,0,0:0:0:0:
320,192,108020,1,0,0:0:0:0:
448,192,108020,128,0,108170:0:0:0:0:
192,192,108170,1,0,0:0:0:0:
320,192,108245,1,0,0:0:0:0:
64,192,108320,1,0,0:0:0:0:
192,192,108320,128,0,108470:0:0:0:0:
448,192,108470,1,0,0:0:0:0:
64,192,108545,1,0,0:0:0:0:
320,192,108620,1,0,0:0:0:0:
448,192,108695,1,0,0:0:0:0:
192,192,108770,1,0,0:0:0:0:
64,192,108845,1,0,0:0:0:0:
320,192,108920,1,0,0:0:0:0:
448,192,108920,1,0,0:0:0:0:
64,192,109145,1,0,0:0:0:0:
320,192,109145,128,0,109370:0:0:0:0:
192,192,109370,1,0,0:0:0:0:
64,192,109445,1,0,0:0:0:0:
320,192,109520,1,0,0:0:0:0:
448,192,109520,128,0,109670:0:0:0:0:
64,192,109670,1,0,0:0:0:0:
192,192,109745,1,0,0:0:0:0:
448,192,109820,1,0,0:0:0:0:
320,192,109820,128,0,109970:0:0:0:0:
192,192,109970,128,0,110120:0:0:0:0:
320,192,110120,1,0,0:0:0:0:
448,192,110120,1,0,0:0:0:0:
64,192,110195,1,0,0:0:0:0:
320,192,110270,128,0,110420:0:0:0:0:
192,192,110420,1,0,0:0:0:0:
64,192,110420,128,0,110570:0:0:0:0:
320,192,110570,128,0,110720:0:0:0:0:
64,192,110720,1,0,0:0:0:0:
448,192,110720,1,0,0:0:0:0:
320,192,110870,1,0,0:0:0:0:
64,192,110945,1,0,0:0:0:0:
448,192,111020,1,0,0:0:0:0:
192,192,111095,1,0,0:0:0:0:
320,192,111170,128,0,111320:0:0:0:0:
64,192,111320,1,0,0:0:0:0:
448,192,111320,1,0,0:0:0:0:
192,192,111395,1,0,0:0:0:0:
448,192,111470,1,0,0:0:0:0:
320,192,111545,1,0,0:0:0:0:
64,192,111620,1,0,0:0:0:0:
192,192,111620,128,0,111770:0:0:0:0:
320,192,111770,128,0,111920:0:0:0:0:
64,192,111920,1,0,0:0:0:0:
448,192,111920,128,0,112070:0:0:0:0:
192,192,112070,1,0,0:0:0:0:
448,192,112145,1,0,0:0:0:0:
320,192,112145,1,0,0:0:0:0:
64,192,112220,1,0,0:0:0:0:
448,192,112370,1,0,0:0:0:0:
64,192,112370,128,0,112520:0:0:0:0:
320,192,112520,1,0,0:0:0:0:
192,192,112595,1,0,0:0:0:0:
64,192,112595,1,0,0:0:0:0:
448,192,112670,1,0,0:0:0:0:
64,192,112820,1,0,0:0:0:0:
320,192,112820,1,0,0:0:0:0:
192,192,112895,1,0,0:0:0:0:
192,192,113045,1,0,0:0:0:0:
320,192,113120,1,0,0:0:0:0:
448,192,113120,1,0,0:0:0:0:
64,192,113195,1,0,0:0:0:0:
448,192,113270,1,0,0:0:0:0:
192,192,113345,1,0,0:0:0:0:
192,192,113495,1,0,0:0:0:0:
320,192,113570,1,0,0:0:0:0:
64,192,113645,1,0,0:0:0:0:
448,192,113720,1,0,0:0:0:0:
192,192,113795,1,0,0:0:0:0:
192,192,113945,1,0,0:0:0:0:
320,192,114020,1,0,0:0:0:0:
448,192,114095,1,0,0:0:0:0:
64,192,114170,1,0,0:0:0:0:
192,192,114245,1,0,0:0:0:0:
64,192,114320,1,0,0:0:0:0:
320,192,114320,128,0,114620:0:0:0:0:
448,192,114320,1,0,0:0:0:0:
64,192,114620,1,0,0:0:0:0:
192,192,114620,1,0,0:0:0:0:
448,192,114695,1,0,0:0:0:0:
192,192,114770,1,0,0:0:0:0:
320,192,114920,1,0,0:0:0:0:
448,192,114920,1,0,0:0:0:0:
64,192,114995,1,0,0:0:0:0:
448,192,115070,1,0,0:0:0:0:
192,192,115145,1,0,0:0:0:0:
64,192,115220,1,0,0:0:0:0:
320,192,115220,1,0,0:0:0:0:
192,192,115370,128,0,115520:0:0:0:0:
320,192,115370,1,0,0:0:0:0:
448,192,115595,1,0,0:0:0:0:
64,192,115670,1,0,0:0:0:0:
320,192,115745,1,0,0:0:0:0:
64,192,115820,1,0,0:0:0:0:
192,192,115820,128,0,115970:0:0:0:0:
448,192,115970,1,0,0:0:0:0:
64,192,116045,1,0,0:0:0:0:
320,192,116120,1,0,0:0:0:0:
448,192,116120,1,0,0:0:0:0:
320,192,116270,1,0,0:0:0:0:
64,192,116420,1,0,0:0:0:0:
192,192,116420,1,0,0:0:0:0:
64,192,116570,1,0,0:0:0:0:
448,192,116570,1,0,0:0:0:0:
192,192,116720,1,0,0:0:0:0:
320,192,116720,128,0,117020:0:0:0:0:
64,192,117020,1,0,0:0:0:0:
192,192,117020,1,0,0:0:0:0:
448,192,117095,1,0,0:0:0:0:
64,192,117170,1,0,0:0:0:0:
448,192,117245,1,0,0:0:0:0:
192,192,117320,1,0,0:0:0:0:
320,192,117320,1,0,0:0:0:0:
192,192,117470,1,0,0:0:0:0:
448,192,117545,1,0,0:0:0:0:
320,192,117620,1,0,0:0:0:0:
64,192,117695,1,0,0:0:0:0:
448,192,117770,128,0,118070:0:0:0:0:
192,192,117770,128,0,117920:0:0:0:0:
320,192,118070,128,0,118220:0:0:0:0:
64,192,118070,128,0,118370:0:0:0:0:
448,192,118220,1,0,0:0:0:0:
192,192,118370,1,0,0:0:0:0:
448,192,118445,1,0,0:0:0:0:
320,192,118520,1,0,0:0:0:0:
192,192,118595,1,0,0:0:0:0:
320,192,118670,128,0,118820:0:0:0:0:
64,192,118820,1,0,0:0:0:0:
192,192,118895,1,0,0:0:0:0:
448,192,118970,1,0,0:0:0:0:
320,192,119045,1,0,0:0:0:0:
192,192,119120,1,0,0:0:0:0:
64,192,119120,1,0,0:0:0:0:
448,192,119220,1,0,0:0:0:0:
64,192,119320,1,0,0:0:0:0:
192,192,119420,1,0,0:0:0:0:
320,192,119420,1,0,0:0:0:0:
448,192,119520,1,0,0:0:0:0:
64,192,119620,1,0,0:0:0:0:
320,192,119720,1,0,0:0:0:0:
448,192,119720,1,0,0:0:0:0:
64,192,120020,1,0,0:0:0:0:
448,192,120020,1,0,0:0:0:0:
192,192,120120,1,0,0:0:0:0:
448,192,120220,1,0,0:0:0:0:
320,192,120320,1,0,0:0:0:0:
192,192,120320,1,0,0:0:0:0:
64,192,120420,1,0,0:0:0:0:
320,192,120520,1,0,0:0:0:0:
64,192,120620,128,0,120770:0:0:0:0:
448,192,120620,128,0,120920:0:0:0:0:
64,192,120920,128,0,121070:0:0:0:0:
192,192,121070,128,0,121220:0:0:0:0:
64,192,121220,1,0,0:0:0:0:
448,192,121220,1,0,0:0:0:0:
320,192,121220,128,0,121520:0:0:0:0:
192,192,121520,1,0,0:0:0:0:
448,192,121620,1,0,0:0:0:0:
64,192,121720,1,0,0:0:0:0:
320,192,121820,1,0,0:0:0:0:
320,192,122020,1,0,0:0:0:0:
448,192,122120,1,0,0:0:0:0:
192,192,122220,1,0,0:0:0:0:
64,192,122320,1,0,0:0:0:0:
320,192,122420,1,0,0:0:0:0:
448,192,122420,1,0,0:0:0:0:
192,192,122570,1,0,0:0:0:0:
320,192,122645,1,0,0:0:0:0:
448,192,122720,1,0,0:0:0:0:
64,192,122795,1,0,0:0:0:0:
320,192,122870,1,0,0:0:0:0:
192,192,122945,1,0,0:0:0:0:
448,192,123020,128,0,123320:0:0:0:0:
64,192,123170,1,0,0:0:0:0:
320,192,123320,1,0,0:0:0:0:
192,192,123470,1,0,0:0:0:0:
64,192,123620,1,0,0:0:0:0:
320,192,123620,1,0,0:0:0:0:
448,192,123620,1,0,0:0:0:0:
192,192,123770,1,0,0:0:0:0:
320,192,123920,1,0,0:0:0:0:
448,192,123920,1,0,0:0:0:0:
192,192,124070,1,0,0:0:0:0:
448,192,124220,128,0,125120:0:0:0:0:
64,192,124220,1,0,0:0:0:0:
320,192,124370,1,0,0:0:0:0:
64,192,124520,1,0,0:0:0:0:
320,192,124520,1,0,0:0:0:0:
192,192,124670,1,0,0:0:0:0:
192,192,124820,1,0,0:0:0:0:
320,192,124820,1,0,0:0:0:0:
64,192,124970,1,0,0:0:0:0:
64,192,125120,1,0,0:0:0:0:
320,192,125120,1,0,0:0:0:0:
192,192,125270,1,0,0:0:0:0:
64,192,125345,1,0,0:0:0:0:
320,192,125420,1,0,0:0:0:0:
448,192,125420,128,0,125645:0:0:0:0:
320,192,125645,128,0,126020:0:0:0:0:
192,192,125720,1,0,0:0:0:0:
64,192,125720,1,0,0:0:0:0:
448,192,125870,1,0,0:0:0:0:
448,192,126020,1,0,0:0:0:0:
64,192,126020,128,0,126170:0:0:0:0:
192,192,126170,1,0,0:0:0:0:
448,192,126320,128,0,126920:0:0:0:0:
192,192,126320,1,0,0:0:0:0:
64,192,126395,1,0,0:0:0:0:
64,192,126545,1,0,0:0:0:0:
320,192,126620,1,0,0:0:0:0:
320,192,126770,1,0,0:0:0:0:
64,192,126920,1,0,0:0:0:0:
192,192,126920,1,0,0:0:0:0:
192,192,127070,1,0,0:0:0:0:
320,192,127145,1,0,0:0:0:0:
448,192,127220,1,0,0:0:0:0:
64,192,127220,128,0,127820:0:0:0:0:
192,192,127370,1,0,0:0:0:0:
192,192,127520,1,0,0:0:0:0:
448,192,127520,1,0,0:0:0:0:
320,192,127670,1,0,0:0:0:0:
320,192,127820,1,0,0:0:0:0:
192,192,127820,128,0,128120:0:0:0:0:
64,192,127970,1,0,0:0:0:0:
320,192,128120,1,0,0:0:0:0:
448,192,128120,128,0,128720:0:0:0:0:
64,192,128195,1,0,0:0:0:0:
192,192,128270,1,0,0:0:0:0:
64,192,128420,1,0,0:0:0:0:
320,192,128420,1,0,0:0:0:0:
320,192,128645,1,0,0:0:0:0:
192,192,128720,1,0,0:0:0:0:
64,192,128720,1,0,0:0:0:0:
192,192,128870,1,0,0:0:0:0:
64,192,128945,1,0,0:0:0:0:
448,192,129020,1,0,0:0:0:0:
320,192,129020,128,0,129320:0:0:0:0:
64,192,129170,1,0,0:0:0:0:
64,192,129320,1,0,0:0:0:0:
448,192,129320,1,0,0:0:0:0:
320,192,129470,1,0,0:0:0:0:
320,192,129620,1,0,0:0:0:0:
192,192,129620,128,0,129770:0:0:0:0:
64,192,129770,1,0,0:0:0:0:
448,192,129845,1,0,0:0:0:0:
192,192,129920,1,0,0:0:0:0:
320,192,129995,1,0,0:0:0:0:
192,192,130070,1,0,0:0:0:0:
320,192,130220,1,0,0:0:0:0:
448,192,130220,1,0,0:0:0:0:
320,192,130370,1,0,0:0:0:0:
64,192,130520,1,0,0:0:0:0:
448,192,130520,1,0,0:0:0:0:
192,192,130670,1,0,0:0:0:0:
320,192,130745,1,0,0:0:0:0:
448,192,130820,1,0,0:0:0:0:
192,192,130820,1,0,0:0:0:0:
64,192,130820,128,0,131120:0:0:0:0:
448,192,130970,1,0,0:0:0:0:
192,192,131120,1,0,0:0:0:0:
320,192,131120,128,0,131270:0:0:0:0:
192,192,131270,128,0,131420:0:0:0:0:
64,192,131420,1,0,0:0:0:0:
320,192,131420,128,0,131720:0:0:0:0:
448,192,131570,1,0,0:0:0:0:
192,192,131720,1,0,0:0:0:0:
64,192,131720,128,0,132020:0:0:0:0:
192,192,131870,1,0,0:0:0:0:
448,192,132020,1,0,0:0:0:0:
320,192,132020,128,0,132320:0:0:0:0:
448,192,132170,1,0,0:0:0:0:
64,192,132320,1,0,0:0:0:0:
192,192,132320,128,0,132620:0:0:0:0:
448,192,132470,1,0,0:0:0:0:
64,192,132620,1,0,0:0:0:0:
320,192,132620,128,0,132920:0:0:0:0:
64,192,132770,1,0,0:0:0:0:
192,192,132920,1,0,0:0:0:0:
448,192,132920,1,0,0:0:0:0:
448,192,133070,1,0,0:0:0:0:
320,192,133220,1,0,0:0:0:0:
192,192,133220,128,0,133370:0:0:0:0:
64,192,133370,1,0,0:0:0:0:
192,192,133520,1,0,0:0:0:0:
448,192,133595,1,0,0:0:0:0:
192,192,133670,1,0,0:0:0:0:
448,192,133745,1,0,0:0:0:0:
320,192,133820,1,0,0:0:0:0:
192,192,133895,1,0,0:0:0:0:
320,192,133970,1,0,0:0:0:0:
192,192,134045,1,0,0:0:0:0:
64,192,134120,1,0,0:0:0:0:
320,192,134195,1,0,0:0:0:0:
64,192,134270,1,0,0:0:0:0:
320,192,134345,1,0,0:0:0:0:
448,192,134420,1,0,0:0:0:0:
192,192,134420,128,0,135020:0:0:0:0:
64,192,134570,1,0,0:0:0:0:
320,192,134720,1,0,0:0:0:0:
448,192,134870,1,0,0:0:0:0:
64,192,135020,1,0,0:0:0:0:
320,192,135020,128,0,135170:0:0:0:0:
192,192,135320,1,0,0:0:0:0:
64,192,135320,128,0,136220:0:0:0:0:
448,192,135345,1,0,0:0:0:0:
320,192,135451,1,0,0:0:0:0:
448,192,135638,1,0,0:0:0:0:
192,192,135770,1,0,0:0:0:0:
320,192,135845,1,0,0:0:0:0:
448,192,135920,1,0,0:0:0:0:
192,192,136070,1,0,0:0:0:0:
320,192,136220,1,0,0:0:0:0:
448,192,136220,1,0,0:0:0:0:
320,192,136370,1,0,0:0:0:0:
64,192,136520,1,0,0:0:0:0:
448,192,136670,1,0,0:0:0:0:
192,192,136820,1,0,0:0:0:0:
320,192,136920,1,0,0:0:0:0:
64,192,137020,1,0,0:0:0:0:
448,192,137120,1,0,0:0:0:0:
192,192,137220,1,0,0:0:0:0:
448,192,137320,1,0,0:0:0:0:
320,192,137420,1,0,0:0:0:0:
64,192,137470,1,0,0:0:0:0:
320,192,137620,1,0,0:0:0:0:
448,192,137870,128,0,138170:0:0:0:0:
192,192,137870,128,0,142745:0:0:0:0:
448,192,138713,1,0,0:0:0:0:
64,192,139595,1,0,0:0:0:0:
448,192,139645,1,0,0:0:0:0:
320,192,140670,1,0,0:0:0:0:
448,192,140770,128,0,142745:0:0:0:0:
