osu file format v14

[General]
AudioFilename: audio.ogg
AudioLeadIn: 0
PreviewTime: 114445
Countdown: 0
SampleSet: Soft
StackLeniency: 0.7
Mode: 3
LetterboxInBreaks: 0
SpecialStyle: 0
WidescreenStoryboard: 0

[Editor]
Bookmarks: 1830,9214,18445,25830,40599,55368,70137,84906,99676,114445,129214,143983
DistanceSpacing: 1
BeatDivisor: 16
GridSize: 32
TimelineZoom: 2.899999

[Metadata]
Title:Paper Witch
TitleUnicode:Paper Witch
Artist:Yu-dachi
ArtistUnicode:Yu-dachi
Creator:Hytex
Version:Future
Source:Arcaea
Tags:ln long notes violin future bass pop rhythm mobile video game electronic instrumental lowiro Arcaea Song Contest 2020 Arcaea楽曲コンテスト2020 esoteric order osaka
BeatmapID:3582440
BeatmapSetID:1751087

[Difficulty]
HPDrainRate:8
CircleSize:4
OverallDifficulty:8
ApproachRate:5
SliderMultiplier:1.4
SliderTickRate:1

[Events]
//Background and Video events
0,0,"Paper_Witch.jpg",0,0
//Break Periods
//Storyboard Layer 0 (Background)
//Storyboard Layer 1 (Fail)
//Storyboard Layer 2 (Pass)
//Storyboard Layer 3 (Foreground)
//Storyboard Layer 4 (Overlay)
//Storyboard Sound Samples

[TimingPoints]
1830,461.538461538462,4,2,1,45,1,0
9214,-100,4,2,1,65,0,0
16599,-100,4,2,1,45,0,0
18445,-100,4,2,1,50,0,0
40599,-100,4,2,1,60,0,0
55368,-100,4,2,1,45,0,0
62753,-100,4,2,1,55,0,0
70137,-100,4,2,1,60,0,0
99676,-100,4,2,1,40,0,0
107060,-100,4,2,1,55,0,0
110753,-100,4,2,1,60,0,0
114445,-100,4,2,1,70,0,1
143983,-100,4,2,1,70,0,0

[HitObjects]
320,192,1830,5,0,0:0:0:0:
448,192,1858,1,0,0:0:0:0:
192,192,1945,1,0,0:0:0:0:
64,192,2060,1,0,0:0:0:0:
448,192,2176,1,0,0:0:0:0:
192,192,2291,1,0,0:0:0:0:
320,192,2406,1,0,0:0:0:0:
192,192,2522,1,0,0:0:0:0:
64,192,2551,1,0,0:0:0:0:
448,192,2637,1,0,0:0:0:0:
64,192,2753,1,0,0:0:0:0:
320,192,2868,1,0,0:0:0:0:
64,192,2983,1,0,0:0:0:0:
448,192,3099,1,0,0:0:0:0:
192,192,3214,1,0,0:0:0:0:
64,192,3291,1,0,0:0:0:0:
320,192,3445,1,0,0:0:0:0:
448,192,3560,1,0,0:0:0:0:
192,192,3676,1,0,0:0:0:0:
64,192,3676,1,0,0:0:0:0:
320,192,3791,1,0,0:0:0:0:
64,192,3906,1,0,0:0:0:0:
448,192,4022,1,0,0:0:0:0:
192,192,4137,1,0,0:0:0:0:
448,192,4253,1,0,0:0:0:0:
320,192,4368,1,0,0:0:0:0:
64,192,4368,1,0,0:0:0:0:
448,192,4714,1,0,0:0:0:0:
320,192,4830,1,0,0:0:0:0:
448,192,4945,1,0,0:0:0:0:
192,192,5060,1,0,0:0:0:0:
320,192,5176,1,0,0:0:0:0:
192,192,5291,1,0,0:0:0:0:
64,192,5406,1,0,0:0:0:0:
320,192,5522,1,0,0:0:0:0:
448,192,5551,1,0,0:0:0:0:
192,192,5637,1,0,0:0:0:0:
64,192,5753,1,0,0:0:0:0:
448,192,5868,1,0,0:0:0:0:
192,192,5983,1,0,0:0:0:0:
320,192,6099,1,0,0:0:0:0:
192,192,6214,1,0,0:0:0:0:
64,192,6243,1,0,0:0:0:0:
448,192,6330,1,0,0:0:0:0:
192,192,6445,1,0,0:0:0:0:
320,192,6560,1,0,0:0:0:0:
192,192,6676,1,0,0:0:0:0:
64,192,6791,1,0,0:0:0:0:
320,192,6906,1,0,0:0:0:0:
448,192,6983,1,0,0:0:0:0:
192,192,7137,1,0,0:0:0:0:
320,192,7253,1,0,0:0:0:0:
64,192,7368,1,0,0:0:0:0:
448,192,7368,1,0,0:0:0:0:
192,192,7599,1,0,0:0:0:0:
320,192,7714,1,0,0:0:0:0:
448,192,7830,1,0,0:0:0:0:
192,192,7945,1,0,0:0:0:0:
64,192,8060,1,0,0:0:0:0:
448,192,8176,1,0,0:0:0:0:
64,192,8291,1,0,0:0:0:0:
448,192,8291,128,0,9099:0:0:0:0:
64,192,8406,1,0,0:0:0:0:
192,192,8637,1,0,0:0:0:0:
320,192,8637,1,0,0:0:0:0:
64,192,8753,128,0,9099:0:0:0:0:
320,192,8868,1,0,0:0:0:0:
192,192,8868,1,0,0:0:0:0:
192,192,9099,1,0,0:0:0:0:
320,192,9099,1,0,0:0:0:0:
320,192,9214,128,0,9560:0:0:0:0:
64,192,9214,1,0,0:0:0:0:
448,192,9243,1,0,0:0:0:0:
192,192,9330,1,0,0:0:0:0:
448,192,9445,128,0,9791:0:0:0:0:
64,192,9560,1,0,0:0:0:0:
320,192,9676,1,0,0:0:0:0:
64,192,9791,1,0,0:0:0:0:
320,192,9906,128,0,10253:0:0:0:0:
192,192,9935,1,0,0:0:0:0:
192,192,10137,128,0,10483:0:0:0:0:
448,192,10253,1,0,0:0:0:0:
64,192,10368,1,0,0:0:0:0:
64,192,10599,1,0,0:0:0:0:
320,192,10599,1,0,0:0:0:0:
448,192,10676,1,0,0:0:0:0:
192,192,10830,1,0,0:0:0:0:
320,192,10945,1,0,0:0:0:0:
448,192,11060,1,0,0:0:0:0:
192,192,11060,128,0,11176:0:0:0:0:
64,192,11060,128,0,11291:0:0:0:0:
320,192,11176,1,0,0:0:0:0:
448,192,11291,1,0,0:0:0:0:
192,192,11406,1,0,0:0:0:0:
64,192,11406,1,0,0:0:0:0:
320,192,11522,1,0,0:0:0:0:
64,192,11637,1,0,0:0:0:0:
192,192,11637,1,0,0:0:0:0:
448,192,11753,128,0,12099:0:0:0:0:
64,192,11753,1,0,0:0:0:0:
320,192,11983,128,0,12214:0:0:0:0:
192,192,12099,1,0,0:0:0:0:
64,192,12214,1,0,0:0:0:0:
448,192,12330,1,0,0:0:0:0:
320,192,12330,1,0,0:0:0:0:
448,192,12445,1,0,0:0:0:0:
64,192,12445,128,0,12676:0:0:0:0:
192,192,12560,1,0,0:0:0:0:
448,192,12676,1,0,0:0:0:0:
320,192,12676,1,0,0:0:0:0:
192,192,12791,1,0,0:0:0:0:
64,192,12906,1,0,0:0:0:0:
320,192,12906,128,0,13368:0:0:0:0:
448,192,12935,1,0,0:0:0:0:
192,192,13022,1,0,0:0:0:0:
192,192,13253,128,0,13599:0:0:0:0:
448,192,13253,1,0,0:0:0:0:
64,192,13368,1,0,0:0:0:0:
320,192,13483,1,0,0:0:0:0:
448,192,13599,128,0,13945:0:0:0:0:
64,192,13628,1,0,0:0:0:0:
320,192,13830,128,0,14060:0:0:0:0:
64,192,13945,1,0,0:0:0:0:
192,192,14060,1,0,0:0:0:0:
64,192,14176,1,0,0:0:0:0:
448,192,14291,1,0,0:0:0:0:
320,192,14291,128,0,14637:0:0:0:0:
192,192,14368,1,0,0:0:0:0:
64,192,14445,1,0,0:0:0:0:
448,192,14522,1,0,0:0:0:0:
192,192,14637,1,0,0:0:0:0:
64,192,14753,1,0,0:0:0:0:
448,192,14753,128,0,15099:0:0:0:0:
320,192,14868,128,0,15099:0:0:0:0:
64,192,14983,1,0,0:0:0:0:
192,192,15099,128,0,15330:0:0:0:0:
448,192,15214,1,0,0:0:0:0:
320,192,15330,1,0,0:0:0:0:
448,192,15445,1,0,0:0:0:0:
64,192,15445,1,0,0:0:0:0:
192,192,15445,128,0,17060:0:0:0:0:
320,192,15560,128,0,16599:0:0:0:0:
64,192,16599,1,0,0:0:0:0:
448,192,16599,1,0,0:0:0:0:
320,192,16714,1,0,0:0:0:0:
64,192,16830,1,0,0:0:0:0:
448,192,16945,1,0,0:0:0:0:
64,192,17060,1,0,0:0:0:0:
448,192,17176,1,0,0:0:0:0:
320,192,17291,1,0,0:0:0:0:
448,192,17406,1,0,0:0:0:0:
64,192,17522,1,0,0:0:0:0:
192,192,17522,1,0,0:0:0:0:
320,192,17637,1,0,0:0:0:0:
192,192,17753,1,0,0:0:0:0:
64,192,17868,1,0,0:0:0:0:
448,192,17983,1,0,0:0:0:0:
320,192,17983,1,0,0:0:0:0:
192,192,18099,1,0,0:0:0:0:
320,192,18214,1,0,0:0:0:0:
448,192,18330,1,0,0:0:0:0:
64,192,18445,1,0,0:0:0:0:
192,192,18445,128,0,18560:0:0:0:0:
320,192,18676,128,0,18906:0:0:0:0:
64,192,18906,1,0,0:0:0:0:
192,192,18906,128,0,19022:0:0:0:0:
320,192,19022,128,0,19137:0:0:0:0:
320,192,19253,128,0,19368:0:0:0:0:
192,192,19368,1,0,0:0:0:0:
64,192,19368,1,0,0:0:0:0:
320,192,19483,128,0,19714:0:0:0:0:
192,192,19714,128,0,19830:0:0:0:0:
448,192,19830,1,0,0:0:0:0:
320,192,19830,128,0,19906:0:0:0:0:
448,192,20060,128,0,20176:0:0:0:0:
448,192,20291,1,0,0:0:0:0:
320,192,20291,128,0,20406:0:0:0:0:
192,192,20522,128,0,20753:0:0:0:0:
320,192,20753,128,0,20868:0:0:0:0:
448,192,20753,1,0,0:0:0:0:
192,192,20868,128,0,20983:0:0:0:0:
192,192,21099,128,0,21214:0:0:0:0:
448,192,21214,1,0,0:0:0:0:
320,192,21214,1,0,0:0:0:0:
192,192,21330,128,0,21560:0:0:0:0:
320,192,21560,128,0,21676:0:0:0:0:
192,192,21676,1,0,0:0:0:0:
64,192,21676,128,0,21753:0:0:0:0:
448,192,21791,128,0,21906:0:0:0:0:
64,192,21906,128,0,21983:0:0:0:0:
320,192,21906,128,0,22137:0:0:0:0:
448,192,22022,128,0,22137:0:0:0:0:
64,192,22137,1,0,0:0:0:0:
192,192,22137,128,0,22253:0:0:0:0:
320,192,22368,128,0,22599:0:0:0:0:
192,192,22599,128,0,22714:0:0:0:0:
64,192,22599,1,0,0:0:0:0:
320,192,22714,128,0,22830:0:0:0:0:
320,192,22945,128,0,23060:0:0:0:0:
192,192,23060,1,0,0:0:0:0:
64,192,23060,1,0,0:0:0:0:
320,192,23176,128,0,23406:0:0:0:0:
192,192,23406,128,0,23522:0:0:0:0:
448,192,23522,1,0,0:0:0:0:
320,192,23522,128,0,23599:0:0:0:0:
448,192,23753,128,0,23868:0:0:0:0:
448,192,23983,1,0,0:0:0:0:
320,192,23983,128,0,24099:0:0:0:0:
192,192,24214,128,0,24445:0:0:0:0:
448,192,24445,1,0,0:0:0:0:
320,192,24445,128,0,24560:0:0:0:0:
192,192,24560,128,0,24676:0:0:0:0:
192,192,24791,128,0,24906:0:0:0:0:
448,192,24906,1,0,0:0:0:0:
320,192,24906,1,0,0:0:0:0:
192,192,25022,128,0,25253:0:0:0:0:
320,192,25253,128,0,25368:0:0:0:0:
448,192,25368,1,0,0:0:0:0:
64,192,25368,128,0,25445:0:0:0:0:
320,192,25483,1,0,0:0:0:0:
448,192,25599,1,0,0:0:0:0:
64,192,25599,128,0,25676:0:0:0:0:
320,192,25714,1,0,0:0:0:0:
64,192,25830,1,0,0:0:0:0:
192,192,25830,128,0,26060:0:0:0:0:
320,192,25945,128,0,26291:0:0:0:0:
192,192,26291,1,0,0:0:0:0:
64,192,26291,128,0,26522:0:0:0:0:
448,192,26406,128,0,26753:0:0:0:0:
64,192,26753,1,0,0:0:0:0:
192,192,26753,128,0,27099:0:0:0:0:
320,192,26983,128,0,27330:0:0:0:0:
448,192,27214,128,0,27330:0:0:0:0:
64,192,27214,1,0,0:0:0:0:
448,192,27445,128,0,27676:0:0:0:0:
320,192,27560,128,0,27676:0:0:0:0:
192,192,27676,128,0,27906:0:0:0:0:
64,192,27676,1,0,0:0:0:0:
320,192,27906,128,0,28368:0:0:0:0:
192,192,28137,1,0,0:0:0:0:
448,192,28137,128,0,28368:0:0:0:0:
64,192,28368,128,0,28483:0:0:0:0:
192,192,28599,1,0,0:0:0:0:
64,192,28599,128,0,28830:0:0:0:0:
320,192,28830,128,0,29060:0:0:0:0:
64,192,29060,1,0,0:0:0:0:
192,192,29060,128,0,29522:0:0:0:0:
448,192,29291,128,0,29753:0:0:0:0:
320,192,29522,1,0,0:0:0:0:
64,192,29522,1,0,0:0:0:0:
192,192,29753,1,0,0:0:0:0:
320,192,29868,128,0,31195:0:0:0:0:
64,192,29983,1,0,0:0:0:0:
192,192,29983,128,0,30445:0:0:0:0:
64,192,30445,1,0,0:0:0:0:
448,192,30791,128,0,31253:0:0:0:0:
64,192,30906,1,0,0:0:0:0:
192,192,30906,128,0,31137:0:0:0:0:
64,192,31368,128,0,31483:0:0:0:0:
192,192,31368,1,0,0:0:0:0:
320,192,31599,128,0,31830:0:0:0:0:
64,192,31830,1,0,0:0:0:0:
192,192,31830,128,0,31945:0:0:0:0:
320,192,31945,128,0,32060:0:0:0:0:
320,192,32176,128,0,32291:0:0:0:0:
64,192,32291,1,0,0:0:0:0:
192,192,32291,1,0,0:0:0:0:
320,192,32406,128,0,32637:0:0:0:0:
192,192,32637,128,0,32753:0:0:0:0:
448,192,32753,1,0,0:0:0:0:
320,192,32753,128,0,32830:0:0:0:0:
64,192,32868,1,0,0:0:0:0:
320,192,32983,128,0,33099:0:0:0:0:
192,192,33099,128,0,33214:0:0:0:0:
64,192,33214,128,0,33445:0:0:0:0:
320,192,33214,1,0,0:0:0:0:
448,192,33330,128,0,33676:0:0:0:0:
64,192,33676,1,0,0:0:0:0:
192,192,33676,128,0,33906:0:0:0:0:
320,192,33791,128,0,34137:0:0:0:0:
64,192,34137,128,0,34483:0:0:0:0:
448,192,34137,1,0,0:0:0:0:
320,192,34368,128,0,34714:0:0:0:0:
448,192,34599,128,0,34714:0:0:0:0:
64,192,34599,1,0,0:0:0:0:
448,192,34830,128,0,35060:0:0:0:0:
320,192,34945,128,0,35060:0:0:0:0:
192,192,35060,128,0,35291:0:0:0:0:
64,192,35060,1,0,0:0:0:0:
320,192,35291,128,0,35753:0:0:0:0:
192,192,35522,1,0,0:0:0:0:
448,192,35522,128,0,35753:0:0:0:0:
64,192,35753,128,0,35868:0:0:0:0:
192,192,35983,1,0,0:0:0:0:
64,192,35983,128,0,36330:0:0:0:0:
320,192,36214,128,0,36445:0:0:0:0:
192,192,36445,128,0,36560:0:0:0:0:
448,192,36445,1,0,0:0:0:0:
64,192,36503,128,0,36791:0:0:0:0:
448,192,36676,128,0,37022:0:0:0:0:
192,192,36906,1,0,0:0:0:0:
64,192,36906,1,0,0:0:0:0:
192,192,37137,128,0,37253:0:0:0:0:
320,192,37195,128,0,38637:0:0:0:0:
64,192,37368,1,0,0:0:0:0:
448,192,37368,128,0,37830:0:0:0:0:
192,192,37830,1,0,0:0:0:0:
64,192,37830,1,0,0:0:0:0:
192,192,38176,128,0,38406:0:0:0:0:
448,192,38291,128,0,38637:0:0:0:0:
64,192,38291,1,0,0:0:0:0:
192,192,38522,128,0,38637:0:0:0:0:
64,192,38637,128,0,38753:0:0:0:0:
448,192,38753,128,0,38983:0:0:0:0:
320,192,38753,1,0,0:0:0:0:
320,192,38983,128,0,39099:0:0:0:0:
448,192,39099,128,0,39214:0:0:0:0:
64,192,39214,128,0,39445:0:0:0:0:
192,192,39214,1,0,0:0:0:0:
320,192,39330,1,0,0:0:0:0:
192,192,39445,128,0,39560:0:0:0:0:
448,192,39560,1,0,0:0:0:0:
64,192,39560,128,0,39676:0:0:0:0:
320,192,39676,128,0,39791:0:0:0:0:
448,192,39676,128,0,39906:0:0:0:0:
192,192,39791,1,0,0:0:0:0:
320,192,39906,128,0,40022:0:0:0:0:
64,192,40022,1,0,0:0:0:0:
448,192,40022,128,0,40137:0:0:0:0:
192,192,40137,128,0,40253:0:0:0:0:
64,192,40137,128,0,40368:0:0:0:0:
320,192,40253,1,0,0:0:0:0:
192,192,40368,128,0,40483:0:0:0:0:
320,192,40483,128,0,40599:0:0:0:0:
64,192,40599,1,0,0:0:0:0:
448,192,40599,1,0,0:0:0:0:
192,192,40599,128,0,40830:0:0:0:0:
320,192,40714,128,0,41060:0:0:0:0:
64,192,41060,128,0,41291:0:0:0:0:
192,192,41060,1,0,0:0:0:0:
448,192,41176,128,0,41522:0:0:0:0:
64,192,41522,1,0,0:0:0:0:
192,192,41522,128,0,41868:0:0:0:0:
320,192,41753,128,0,42099:0:0:0:0:
448,192,41983,128,0,42099:0:0:0:0:
64,192,41983,1,0,0:0:0:0:
448,192,42214,128,0,42445:0:0:0:0:
320,192,42330,128,0,42445:0:0:0:0:
64,192,42445,1,0,0:0:0:0:
192,192,42445,128,0,42676:0:0:0:0:
320,192,42676,128,0,43137:0:0:0:0:
448,192,42906,128,0,43137:0:0:0:0:
192,192,42906,1,0,0:0:0:0:
64,192,43137,128,0,43253:0:0:0:0:
64,192,43368,128,0,43599:0:0:0:0:
448,192,43368,1,0,0:0:0:0:
320,192,43599,128,0,43830:0:0:0:0:
192,192,43830,128,0,44291:0:0:0:0:
64,192,43830,1,0,0:0:0:0:
448,192,44060,128,0,44522:0:0:0:0:
320,192,44291,1,0,0:0:0:0:
64,192,44291,1,0,0:0:0:0:
192,192,44522,1,0,0:0:0:0:
320,192,44637,128,0,45676:0:0:0:0:
448,192,44753,128,0,45214:0:0:0:0:
64,192,44753,1,0,0:0:0:0:
64,192,45214,1,0,0:0:0:0:
192,192,45214,1,0,0:0:0:0:
448,192,45445,128,0,45791:0:0:0:0:
64,192,45676,1,0,0:0:0:0:
192,192,45676,1,0,0:0:0:0:
320,192,45906,128,0,46022:0:0:0:0:
64,192,46022,128,0,46253:0:0:0:0:
448,192,46137,1,0,0:0:0:0:
320,192,46137,128,0,46368:0:0:0:0:
192,192,46368,128,0,46483:0:0:0:0:
448,192,46483,128,0,46714:0:0:0:0:
192,192,46599,128,0,46945:0:0:0:0:
64,192,46599,1,0,0:0:0:0:
320,192,46830,128,0,47060:0:0:0:0:
64,192,47060,1,0,0:0:0:0:
448,192,47060,128,0,47291:0:0:0:0:
192,192,47291,128,0,47406:0:0:0:0:
320,192,47406,128,0,47637:0:0:0:0:
64,192,47522,128,0,47753:0:0:0:0:
192,192,47522,1,0,0:0:0:0:
448,192,47637,128,0,47753:0:0:0:0:
320,192,47753,128,0,47868:0:0:0:0:
192,192,47868,128,0,47983:0:0:0:0:
64,192,47983,128,0,48214:0:0:0:0:
320,192,47983,1,0,0:0:0:0:
448,192,48099,128,0,48445:0:0:0:0:
192,192,48445,128,0,48676:0:0:0:0:
64,192,48445,1,0,0:0:0:0:
320,192,48560,128,0,48906:0:0:0:0:
192,192,48906,1,0,0:0:0:0:
64,192,48906,128,0,49253:0:0:0:0:
320,192,49137,128,0,49483:0:0:0:0:
448,192,49368,128,0,49483:0:0:0:0:
64,192,49368,1,0,0:0:0:0:
448,192,49599,128,0,49830:0:0:0:0:
320,192,49714,128,0,49830:0:0:0:0:
64,192,49830,1,0,0:0:0:0:
192,192,49830,128,0,50060:0:0:0:0:
320,192,50060,128,0,50176:0:0:0:0:
448,192,50291,1,0,0:0:0:0:
320,192,50291,128,0,50637:0:0:0:0:
64,192,50522,128,0,50637:0:0:0:0:
64,192,50753,128,0,50983:0:0:0:0:
448,192,50753,1,0,0:0:0:0:
320,192,50983,128,0,51214:0:0:0:0:
64,192,51214,1,0,0:0:0:0:
192,192,51214,128,0,51445:0:0:0:0:
320,192,51445,128,0,51791:0:0:0:0:
448,192,51560,128,0,51791:0:0:0:0:
192,192,51676,1,0,0:0:0:0:
64,192,51676,1,0,0:0:0:0:
192,192,51906,128,0,52599:0:0:0:0:
64,192,52137,128,0,53291:0:0:0:0:
448,192,52137,1,0,0:0:0:0:
320,192,52599,1,0,0:0:0:0:
448,192,52599,1,0,0:0:0:0:
448,192,53060,1,0,0:0:0:0:
192,192,53060,128,0,53406:0:0:0:0:
320,192,53291,128,0,53522:0:0:0:0:
448,192,53406,128,0,53522:0:0:0:0:
64,192,53522,1,0,0:0:0:0:
192,192,53522,128,0,53753:0:0:0:0:
448,192,53637,128,0,53753:0:0:0:0:
320,192,53753,128,0,53868:0:0:0:0:
64,192,53868,128,0,53983:0:0:0:0:
448,192,53983,1,0,0:0:0:0:
320,192,53983,1,0,0:0:0:0:
64,192,54099,128,0,54214:0:0:0:0:
192,192,54214,128,0,54445:0:0:0:0:
448,192,54330,128,0,54445:0:0:0:0:
320,192,54445,128,0,54560:0:0:0:0:
448,192,54560,1,0,0:0:0:0:
64,192,54560,128,0,54676:0:0:0:0:
192,192,54618,1,0,0:0:0:0:
320,192,54676,1,0,0:0:0:0:
64,192,54791,128,0,54906:0:0:0:0:
192,192,54791,1,0,0:0:0:0:
448,192,54906,1,0,0:0:0:0:
320,192,54906,128,0,55137:0:0:0:0:
64,192,55022,128,0,55137:0:0:0:0:
448,192,55137,128,0,55253:0:0:0:0:
192,192,55137,1,0,0:0:0:0:
192,192,55368,128,0,56060:0:0:0:0:
448,192,55368,128,0,55483:0:0:0:0:
64,192,55368,128,0,55483:0:0:0:0:
320,192,55483,128,0,55830:0:0:0:0:
64,192,56060,128,0,56176:0:0:0:0:
320,192,56176,128,0,56580:0:0:0:0:
448,192,56291,128,0,56522:0:0:0:0:
192,192,56522,128,0,56637:0:0:0:0:
320,192,56753,128,0,56830:0:0:0:0:
448,192,56830,128,0,56906:0:0:0:0:
320,192,56906,128,0,56983:0:0:0:0:
64,192,56983,128,0,57214:0:0:0:0:
448,192,57214,128,0,57676:0:0:0:0:
192,192,57214,128,0,57445:0:0:0:0:
192,192,57560,128,0,57676:0:0:0:0:
64,192,57560,128,0,57676:0:0:0:0:
64,192,57906,128,0,58137:0:0:0:0:
320,192,57906,128,0,58253:0:0:0:0:
192,192,58137,128,0,58483:0:0:0:0:
64,192,58599,128,0,58945:0:0:0:0:
192,192,58830,128,0,59176:0:0:0:0:
64,192,59060,128,0,59176:0:0:0:0:
448,192,59060,128,0,59176:0:0:0:0:
192,192,59291,128,0,59983:0:0:0:0:
320,192,59406,128,0,59753:0:0:0:0:
64,192,59753,128,0,59830:0:0:0:0:
448,192,59830,128,0,59906:0:0:0:0:
64,192,59906,128,0,59983:0:0:0:0:
448,192,59983,128,0,60330:0:0:0:0:
320,192,60099,128,0,60445:0:0:0:0:
192,192,60445,128,0,60906:0:0:0:0:
320,192,60560,128,0,60906:0:0:0:0:
64,192,60906,128,0,61137:0:0:0:0:
448,192,60906,128,0,61368:0:0:0:0:
320,192,61214,1,0,0:0:0:0:
64,192,61253,128,0,61368:0:0:0:0:
192,192,61253,128,0,61368:0:0:0:0:
320,192,61599,128,0,62522:0:0:0:0:
448,192,61830,1,0,0:0:0:0:
192,192,61906,1,0,0:0:0:0:
64,192,61983,1,0,0:0:0:0:
192,192,62060,1,0,0:0:0:0:
448,192,62137,128,0,62522:0:0:0:0:
64,192,62445,1,0,0:0:0:0:
192,192,62522,1,0,0:0:0:0:
64,192,62599,1,0,0:0:0:0:
320,192,62676,1,0,0:0:0:0:
64,192,62753,1,0,0:0:0:0:
192,192,62753,1,0,0:0:0:0:
448,192,62753,128,0,63560:0:0:0:0:
320,192,62983,128,0,63445:0:0:0:0:
64,192,63214,1,0,0:0:0:0:
192,192,63214,1,0,0:0:0:0:
64,192,63445,1,0,0:0:0:0:
192,192,63676,128,0,64483:0:0:0:0:
448,192,63676,1,0,0:0:0:0:
320,192,63705,1,0,0:0:0:0:
448,192,63906,1,0,0:0:0:0:
320,192,64137,1,0,0:0:0:0:
64,192,64137,128,0,64599:0:0:0:0:
320,192,64368,1,0,0:0:0:0:
448,192,64599,128,0,65291:0:0:0:0:
192,192,64599,1,0,0:0:0:0:
192,192,64830,1,0,0:0:0:0:
320,192,64830,1,0,0:0:0:0:
320,192,65060,128,0,65522:0:0:0:0:
64,192,65060,1,0,0:0:0:0:
64,192,65291,1,0,0:0:0:0:
192,192,65522,128,0,66330:0:0:0:0:
448,192,65522,1,0,0:0:0:0:
64,192,65551,1,0,0:0:0:0:
448,192,65753,1,0,0:0:0:0:
64,192,65983,128,0,66214:0:0:0:0:
320,192,65983,1,0,0:0:0:0:
320,192,66214,1,0,0:0:0:0:
64,192,66330,128,0,66445:0:0:0:0:
192,192,66445,1,0,0:0:0:0:
448,192,66445,1,0,0:0:0:0:
320,192,66560,1,0,0:0:0:0:
64,192,66676,1,0,0:0:0:0:
448,192,66791,1,0,0:0:0:0:
192,192,66906,1,0,0:0:0:0:
64,192,66906,1,0,0:0:0:0:
320,192,67022,1,0,0:0:0:0:
192,192,67137,1,0,0:0:0:0:
448,192,67253,1,0,0:0:0:0:
320,192,67368,1,0,0:0:0:0:
64,192,67368,1,0,0:0:0:0:
448,192,67483,1,0,0:0:0:0:
320,192,67599,1,0,0:0:0:0:
192,192,67599,1,0,0:0:0:0:
64,192,67714,1,0,0:0:0:0:
192,192,67830,1,0,0:0:0:0:
448,192,67830,1,0,0:0:0:0:
64,192,67945,1,0,0:0:0:0:
320,192,68060,1,0,0:0:0:0:
448,192,68060,1,0,0:0:0:0:
192,192,68176,1,0,0:0:0:0:
448,192,68291,1,0,0:0:0:0:
320,192,68349,1,0,0:0:0:0:
64,192,68406,1,0,0:0:0:0:
192,192,68599,1,0,0:0:0:0:
448,192,68676,1,0,0:0:0:0:
320,192,68830,1,0,0:0:0:0:
192,192,68906,1,0,0:0:0:0:
64,192,69060,1,0,0:0:0:0:
192,192,69368,1,0,0:0:0:0:
448,192,69445,1,0,0:0:0:0:
320,192,69522,1,0,0:0:0:0:
192,192,69599,1,0,0:0:0:0:
64,192,69676,1,0,0:0:0:0:
320,192,69753,1,0,0:0:0:0:
192,192,69830,1,0,0:0:0:0:
448,192,69906,1,0,0:0:0:0:
64,192,69983,1,0,0:0:0:0:
320,192,70060,1,0,0:0:0:0:
192,192,70137,128,0,70253:0:0:0:0:
64,192,70137,128,0,70253:0:0:0:0:
448,192,70137,128,0,70368:0:0:0:0:
320,192,70368,128,0,70599:0:0:0:0:
64,192,70483,1,0,0:0:0:0:
192,192,70599,128,0,70830:0:0:0:0:
448,192,70599,1,0,0:0:0:0:
64,192,70830,128,0,70945:0:0:0:0:
320,192,70830,128,0,70945:0:0:0:0:
448,192,70830,128,0,71291:0:0:0:0:
192,192,71060,1,0,0:0:0:0:
320,192,71176,1,0,0:0:0:0:
192,192,71291,128,0,71522:0:0:0:0:
64,192,71522,1,0,0:0:0:0:
448,192,71522,128,0,71637:0:0:0:0:
320,192,71580,128,0,71868:0:0:0:0:
192,192,71753,1,0,0:0:0:0:
64,192,71983,128,0,72099:0:0:0:0:
448,192,71983,128,0,72099:0:0:0:0:
320,192,71983,128,0,72445:0:0:0:0:
192,192,72330,128,0,72676:0:0:0:0:
64,192,72330,1,0,0:0:0:0:
448,192,72445,1,0,0:0:0:0:
320,192,72560,128,0,72676:0:0:0:0:
448,192,72676,128,0,72791:0:0:0:0:
64,192,72676,128,0,72906:0:0:0:0:
320,192,72906,1,0,0:0:0:0:
192,192,73022,1,0,0:0:0:0:
64,192,73022,1,0,0:0:0:0:
448,192,73137,1,0,0:0:0:0:
64,192,73253,1,0,0:0:0:0:
192,192,73368,1,0,0:0:0:0:
320,192,73368,1,0,0:0:0:0:
320,192,73599,1,0,0:0:0:0:
192,192,73714,1,0,0:0:0:0:
64,192,73830,128,0,73945:0:0:0:0:
320,192,73830,128,0,73945:0:0:0:0:
448,192,73830,128,0,74060:0:0:0:0:
192,192,74060,128,0,74291:0:0:0:0:
448,192,74176,1,0,0:0:0:0:
320,192,74291,128,0,74522:0:0:0:0:
64,192,74291,1,0,0:0:0:0:
192,192,74522,128,0,74637:0:0:0:0:
64,192,74522,128,0,74637:0:0:0:0:
448,192,74522,128,0,74983:0:0:0:0:
320,192,74637,128,0,75214:0:0:0:0:
192,192,74753,1,0,0:0:0:0:
64,192,74868,1,0,0:0:0:0:
192,192,74983,1,0,0:0:0:0:
64,192,75214,128,0,75560:0:0:0:0:
448,192,75214,128,0,75560:0:0:0:0:
320,192,75445,1,0,0:0:0:0:
192,192,75560,1,0,0:0:0:0:
64,192,75676,128,0,75791:0:0:0:0:
320,192,75676,128,0,75791:0:0:0:0:
448,192,75676,128,0,76137:0:0:0:0:
192,192,75906,1,0,0:0:0:0:
64,192,76022,1,0,0:0:0:0:
320,192,76022,128,0,76368:0:0:0:0:
448,192,76253,128,0,76368:0:0:0:0:
192,192,76368,128,0,76483:0:0:0:0:
64,192,76368,128,0,76714:0:0:0:0:
192,192,76599,1,0,0:0:0:0:
320,192,76714,1,0,0:0:0:0:
448,192,76714,1,0,0:0:0:0:
64,192,76830,1,0,0:0:0:0:
448,192,76945,1,0,0:0:0:0:
320,192,77060,1,0,0:0:0:0:
192,192,77060,1,0,0:0:0:0:
192,192,77291,1,0,0:0:0:0:
320,192,77406,1,0,0:0:0:0:
192,192,77522,128,0,77637:0:0:0:0:
64,192,77522,128,0,77637:0:0:0:0:
448,192,77522,128,0,77753:0:0:0:0:
320,192,77753,128,0,77983:0:0:0:0:
64,192,77868,1,0,0:0:0:0:
192,192,77983,128,0,78214:0:0:0:0:
448,192,77983,1,0,0:0:0:0:
64,192,78214,128,0,78330:0:0:0:0:
320,192,78214,128,0,78330:0:0:0:0:
448,192,78214,128,0,78676:0:0:0:0:
192,192,78445,1,0,0:0:0:0:
320,192,78560,1,0,0:0:0:0:
64,192,78676,128,0,78791:0:0:0:0:
448,192,78906,128,0,79022:0:0:0:0:
192,192,78906,1,0,0:0:0:0:
64,192,78964,128,0,79137:0:0:0:0:
192,192,79137,1,0,0:0:0:0:
320,192,79253,1,0,0:0:0:0:
448,192,79253,1,0,0:0:0:0:
448,192,79368,128,0,79483:0:0:0:0:
64,192,79368,128,0,79483:0:0:0:0:
192,192,79368,128,0,79830:0:0:0:0:
320,192,79714,128,0,80060:0:0:0:0:
448,192,79714,1,0,0:0:0:0:
64,192,79830,1,0,0:0:0:0:
192,192,79945,128,0,80060:0:0:0:0:
448,192,80060,128,0,80176:0:0:0:0:
64,192,80060,128,0,80291:0:0:0:0:
448,192,80291,1,0,0:0:0:0:
192,192,80406,1,0,0:0:0:0:
64,192,80406,1,0,0:0:0:0:
320,192,80522,128,0,80868:0:0:0:0:
192,192,80637,1,0,0:0:0:0:
448,192,80753,128,0,80983:0:0:0:0:
64,192,80753,1,0,0:0:0:0:
192,192,80983,128,0,81099:0:0:0:0:
64,192,81214,128,0,81330:0:0:0:0:
320,192,81214,128,0,81330:0:0:0:0:
448,192,81214,128,0,81445:0:0:0:0:
192,192,81445,128,0,81676:0:0:0:0:
448,192,81560,1,0,0:0:0:0:
320,192,81676,128,0,81906:0:0:0:0:
64,192,81676,1,0,0:0:0:0:
192,192,81906,128,0,82022:0:0:0:0:
64,192,81906,128,0,82137:0:0:0:0:
448,192,81906,128,0,82022:0:0:0:0:
320,192,82137,128,0,82253:0:0:0:0:
192,192,82195,128,0,82483:0:0:0:0:
64,192,82253,1,0,0:0:0:0:
448,192,82368,128,0,82599:0:0:0:0:
192,192,82599,1,0,0:0:0:0:
64,192,82599,128,0,82714:0:0:0:0:
320,192,82656,128,0,82945:0:0:0:0:
192,192,82830,128,0,83060:0:0:0:0:
64,192,83060,128,0,83176:0:0:0:0:
320,192,83060,128,0,83176:0:0:0:0:
448,192,83060,128,0,83522:0:0:0:0:
64,192,83406,1,0,0:0:0:0:
192,192,83406,128,0,83522:0:0:0:0:
192,192,83637,128,0,83753:0:0:0:0:
64,192,83753,128,0,83868:0:0:0:0:
320,192,83753,128,0,84676:0:0:0:0:
448,192,83753,128,0,83868:0:0:0:0:
192,192,83983,1,0,0:0:0:0:
64,192,83983,1,0,0:0:0:0:
64,192,84099,1,0,0:0:0:0:
448,192,84099,1,0,0:0:0:0:
64,192,84445,1,0,0:0:0:0:
448,192,84445,1,0,0:0:0:0:
448,192,84676,1,0,0:0:0:0:
64,192,84676,1,0,0:0:0:0:
64,192,84906,128,0,85022:0:0:0:0:
192,192,84906,128,0,85022:0:0:0:0:
448,192,84906,128,0,85137:0:0:0:0:
320,192,85137,128,0,85368:0:0:0:0:
64,192,85253,1,0,0:0:0:0:
192,192,85368,128,0,85599:0:0:0:0:
448,192,85368,1,0,0:0:0:0:
64,192,85483,1,0,0:0:0:0:
320,192,85599,128,0,85714:0:0:0:0:
448,192,85599,128,0,86060:0:0:0:0:
192,192,85714,1,0,0:0:0:0:
64,192,85830,128,0,85945:0:0:0:0:
192,192,85945,128,0,86176:0:0:0:0:
64,192,86060,128,0,86291:0:0:0:0:
320,192,86176,128,0,86291:0:0:0:0:
192,192,86291,128,0,86406:0:0:0:0:
448,192,86291,128,0,86522:0:0:0:0:
64,192,86406,128,0,86522:0:0:0:0:
320,192,86522,128,0,86753:0:0:0:0:
448,192,86637,128,0,86753:0:0:0:0:
192,192,86753,128,0,86983:0:0:0:0:
64,192,86753,128,0,86868:0:0:0:0:
448,192,86868,128,0,87099:0:0:0:0:
320,192,86983,128,0,87099:0:0:0:0:
192,192,87099,1,0,0:0:0:0:
64,192,87099,128,0,87330:0:0:0:0:
448,192,87214,128,0,87445:0:0:0:0:
320,192,87330,128,0,87445:0:0:0:0:
192,192,87445,128,0,87560:0:0:0:0:
64,192,87445,128,0,87676:0:0:0:0:
192,192,87676,1,0,0:0:0:0:
320,192,87791,1,0,0:0:0:0:
448,192,87791,1,0,0:0:0:0:
64,192,87906,128,0,88137:0:0:0:0:
448,192,88022,128,0,88253:0:0:0:0:
192,192,88137,1,0,0:0:0:0:
320,192,88137,128,0,88368:0:0:0:0:
64,192,88253,128,0,88368:0:0:0:0:
448,192,88368,128,0,88483:0:0:0:0:
192,192,88483,128,0,88599:0:0:0:0:
64,192,88599,128,0,88714:0:0:0:0:
320,192,88599,128,0,88714:0:0:0:0:
448,192,88599,128,0,88830:0:0:0:0:
192,192,88830,128,0,89060:0:0:0:0:
448,192,88945,1,0,0:0:0:0:
320,192,89060,128,0,89291:0:0:0:0:
64,192,89060,1,0,0:0:0:0:
192,192,89176,1,0,0:0:0:0:
64,192,89291,128,0,89406:0:0:0:0:
448,192,89291,128,0,89868:0:0:0:0:
320,192,89406,1,0,0:0:0:0:
192,192,89522,128,0,89637:0:0:0:0:
320,192,89637,128,0,89868:0:0:0:0:
192,192,89753,128,0,89868:0:0:0:0:
64,192,89868,128,0,89983:0:0:0:0:
320,192,89983,128,0,90099:0:0:0:0:
448,192,89983,128,0,90214:0:0:0:0:
192,192,90099,128,0,90214:0:0:0:0:
64,192,90214,128,0,90445:0:0:0:0:
192,192,90330,128,0,90445:0:0:0:0:
448,192,90445,128,0,90676:0:0:0:0:
320,192,90445,128,0,90560:0:0:0:0:
64,192,90560,128,0,90791:0:0:0:0:
192,192,90676,128,0,90791:0:0:0:0:
448,192,90791,1,0,0:0:0:0:
320,192,90791,128,0,91022:0:0:0:0:
192,192,90906,128,0,91137:0:0:0:0:
64,192,91022,128,0,91137:0:0:0:0:
320,192,91137,128,0,91253:0:0:0:0:
448,192,91137,128,0,91368:0:0:0:0:
320,192,91368,1,0,0:0:0:0:
192,192,91483,1,0,0:0:0:0:
64,192,91483,1,0,0:0:0:0:
448,192,91599,128,0,91830:0:0:0:0:
64,192,91714,128,0,91945:0:0:0:0:
320,192,91830,1,0,0:0:0:0:
192,192,91830,128,0,92060:0:0:0:0:
448,192,91945,128,0,92060:0:0:0:0:
64,192,92060,128,0,92176:0:0:0:0:
320,192,92176,128,0,92291:0:0:0:0:
192,192,92291,128,0,92406:0:0:0:0:
64,192,92291,128,0,92406:0:0:0:0:
448,192,92291,128,0,92522:0:0:0:0:
320,192,92522,128,0,92753:0:0:0:0:
64,192,92637,1,0,0:0:0:0:
192,192,92753,128,0,92983:0:0:0:0:
448,192,92753,1,0,0:0:0:0:
64,192,92868,1,0,0:0:0:0:
320,192,92983,128,0,93099:0:0:0:0:
448,192,92983,128,0,93445:0:0:0:0:
192,192,93099,1,0,0:0:0:0:
64,192,93214,128,0,93330:0:0:0:0:
320,192,93330,128,0,93445:0:0:0:0:
64,192,93445,128,0,93560:0:0:0:0:
192,192,93560,128,0,93791:0:0:0:0:
64,192,93676,128,0,93906:0:0:0:0:
448,192,93676,128,0,93791:0:0:0:0:
320,192,93791,128,0,93906:0:0:0:0:
192,192,93906,128,0,94022:0:0:0:0:
320,192,94022,1,0,0:0:0:0:
448,192,94022,1,0,0:0:0:0:
192,192,94137,128,0,94368:0:0:0:0:
64,192,94137,128,0,94253:0:0:0:0:
448,192,94253,128,0,94483:0:0:0:0:
320,192,94368,128,0,94483:0:0:0:0:
192,192,94483,1,0,0:0:0:0:
64,192,94483,128,0,94714:0:0:0:0:
448,192,94599,128,0,94830:0:0:0:0:
320,192,94714,128,0,94830:0:0:0:0:
64,192,94830,128,0,94945:0:0:0:0:
192,192,94830,128,0,94945:0:0:0:0:
320,192,95060,1,0,0:0:0:0:
192,192,95176,1,0,0:0:0:0:
64,192,95176,1,0,0:0:0:0:
448,192,95291,128,0,95522:0:0:0:0:
64,192,95406,128,0,95637:0:0:0:0:
192,192,95522,128,0,95753:0:0:0:0:
320,192,95522,1,0,0:0:0:0:
448,192,95637,128,0,95753:0:0:0:0:
64,192,95753,128,0,95868:0:0:0:0:
320,192,95868,128,0,95983:0:0:0:0:
192,192,95983,128,0,96099:0:0:0:0:
64,192,95983,128,0,96099:0:0:0:0:
448,192,95983,128,0,96214:0:0:0:0:
192,192,96214,128,0,96445:0:0:0:0:
320,192,96445,128,0,96676:0:0:0:0:
64,192,96445,1,0,0:0:0:0:
448,192,96560,1,0,0:0:0:0:
192,192,96676,128,0,96906:0:0:0:0:
64,192,96676,128,0,96791:0:0:0:0:
320,192,96906,128,0,97022:0:0:0:0:
448,192,96906,1,0,0:0:0:0:
64,192,96964,128,0,97253:0:0:0:0:
192,192,97137,128,0,97368:0:0:0:0:
448,192,97253,1,0,0:0:0:0:
320,192,97368,128,0,97483:0:0:0:0:
64,192,97368,1,0,0:0:0:0:
448,192,97426,128,0,97714:0:0:0:0:
192,192,97599,128,0,97714:0:0:0:0:
64,192,97714,1,0,0:0:0:0:
320,192,97830,128,0,98291:0:0:0:0:
448,192,97830,128,0,97945:0:0:0:0:
192,192,97830,128,0,97945:0:0:0:0:
64,192,97945,1,0,0:0:0:0:
448,192,98060,1,0,0:0:0:0:
192,192,98176,128,0,98406:0:0:0:0:
64,192,98176,1,0,0:0:0:0:
448,192,98291,1,0,0:0:0:0:
64,192,98406,128,0,98522:0:0:0:0:
320,192,98522,128,0,98637:0:0:0:0:
448,192,98522,128,0,98868:0:0:0:0:
64,192,98637,1,0,0:0:0:0:
320,192,98753,1,0,0:0:0:0:
192,192,98868,1,0,0:0:0:0:
64,192,98868,128,0,99099:0:0:0:0:
320,192,98983,128,0,99214:0:0:0:0:
192,192,99099,128,0,99330:0:0:0:0:
448,192,99214,128,0,99330:0:0:0:0:
64,192,99330,128,0,99445:0:0:0:0:
320,192,99445,128,0,99560:0:0:0:0:
64,192,99560,128,0,99676:0:0:0:0:
448,192,99676,1,0,0:0:0:0:
448,192,99830,1,0,0:0:0:0:
192,192,99983,1,0,0:0:0:0:
320,192,100137,1,0,0:0:0:0:
320,192,100291,1,0,0:0:0:0:
64,192,100445,1,0,0:0:0:0:
448,192,100599,1,0,0:0:0:0:
192,192,100753,1,0,0:0:0:0:
448,192,100906,1,0,0:0:0:0:
64,192,101060,1,0,0:0:0:0:
320,192,101214,1,0,0:0:0:0:
64,192,101368,1,0,0:0:0:0:
448,192,101522,1,0,0:0:0:0:
320,192,101551,1,0,0:0:0:0:
64,192,101676,1,0,0:0:0:0:
448,192,101830,1,0,0:0:0:0:
192,192,101983,1,0,0:0:0:0:
448,192,102137,1,0,0:0:0:0:
64,192,102291,1,0,0:0:0:0:
320,192,102445,1,0,0:0:0:0:
448,192,102599,1,0,0:0:0:0:
192,192,102753,1,0,0:0:0:0:
64,192,102906,1,0,0:0:0:0:
320,192,103060,1,0,0:0:0:0:
192,192,103214,1,0,0:0:0:0:
64,192,103368,1,0,0:0:0:0:
448,192,103368,1,0,0:0:0:0:
192,192,103522,1,0,0:0:0:0:
320,192,103676,1,0,0:0:0:0:
64,192,103830,1,0,0:0:0:0:
320,192,103983,1,0,0:0:0:0:
192,192,104137,1,0,0:0:0:0:
448,192,104291,1,0,0:0:0:0:
64,192,104599,1,0,0:0:0:0:
320,192,104906,1,0,0:0:0:0:
192,192,105060,1,0,0:0:0:0:
64,192,105214,1,0,0:0:0:0:
448,192,105214,1,0,0:0:0:0:
192,192,105368,1,0,0:0:0:0:
320,192,105522,1,0,0:0:0:0:
64,192,105676,1,0,0:0:0:0:
448,192,105830,1,0,0:0:0:0:
192,192,105983,1,0,0:0:0:0:
64,192,106137,128,0,106599:0:0:0:0:
448,192,106137,1,0,0:0:0:0:
320,192,106445,1,0,0:0:0:0:
192,192,106599,128,0,107291:0:0:0:0:
448,192,106753,1,0,0:0:0:0:
64,192,107060,128,0,107753:0:0:0:0:
448,192,107060,1,0,0:0:0:0:
320,192,107176,1,0,0:0:0:0:
448,192,107291,1,0,0:0:0:0:
192,192,107522,1,0,0:0:0:0:
192,192,107753,1,0,0:0:0:0:
64,192,107983,1,0,0:0:0:0:
320,192,107983,1,0,0:0:0:0:
448,192,108012,1,0,0:0:0:0:
320,192,108214,1,0,0:0:0:0:
64,192,108445,1,0,0:0:0:0:
192,192,108445,1,0,0:0:0:0:
64,192,108676,1,0,0:0:0:0:
448,192,108906,1,0,0:0:0:0:
320,192,109137,1,0,0:0:0:0:
448,192,109137,1,0,0:0:0:0:
192,192,109368,1,0,0:0:0:0:
192,192,109599,1,0,0:0:0:0:
64,192,109830,1,0,0:0:0:0:
320,192,109830,1,0,0:0:0:0:
448,192,109858,1,0,0:0:0:0:
320,192,110060,1,0,0:0:0:0:
64,192,110291,1,0,0:0:0:0:
192,192,110291,1,0,0:0:0:0:
64,192,110522,1,0,0:0:0:0:
320,192,110753,1,0,0:0:0:0:
448,192,110753,1,0,0:0:0:0:
192,192,110868,128,0,110983:0:0:0:0:
64,192,110983,128,0,111214:0:0:0:0:
320,192,111099,128,0,111214:0:0:0:0:
192,192,111214,1,0,0:0:0:0:
448,192,111330,1,0,0:0:0:0:
320,192,111445,128,0,111560:0:0:0:0:
192,192,111560,128,0,111676:0:0:0:0:
448,192,111676,1,0,0:0:0:0:
64,192,111676,1,0,0:0:0:0:
320,192,111791,128,0,112022:0:0:0:0:
448,192,111906,1,0,0:0:0:0:
192,192,112022,128,0,112137:0:0:0:0:
64,192,112137,1,0,0:0:0:0:
320,192,112253,128,0,112368:0:0:0:0:
192,192,112368,128,0,112599:0:0:0:0:
448,192,112483,128,0,112714:0:0:0:0:
64,192,112599,1,0,0:0:0:0:
192,192,112714,128,0,112830:0:0:0:0:
320,192,112830,128,0,113060:0:0:0:0:
64,192,112945,128,0,113176:0:0:0:0:
448,192,113060,1,0,0:0:0:0:
320,192,113176,128,0,113406:0:0:0:0:
64,192,113291,1,0,0:0:0:0:
192,192,113320,128,0,113522:0:0:0:0:
448,192,113406,1,0,0:0:0:0:
64,192,113522,5,0,0:0:0:0:
320,192,113599,1,0,0:0:0:0:
192,192,113676,1,0,0:0:0:0:
448,192,113753,1,0,0:0:0:0:
192,192,113830,1,0,0:0:0:0:
320,192,113906,1,0,0:0:0:0:
448,192,113983,1,0,0:0:0:0:
64,192,113983,1,0,0:0:0:0:
320,192,114099,1,0,0:0:0:0:
64,192,114214,1,0,0:0:0:0:
448,192,114272,1,0,0:0:0:0:
192,192,114330,1,0,0:0:0:0:
320,192,114387,1,0,0:0:0:0:
448,192,114445,5,0,0:0:0:0:
192,192,114445,1,0,0:0:0:0:
64,192,114445,128,0,114560:0:0:0:0:
320,192,114560,128,0,114676:0:0:0:0:
192,192,114676,128,0,114791:0:0:0:0:
448,192,114791,128,0,114906:0:0:0:0:
320,192,114820,128,0,114906:0:0:0:0:
192,192,114906,1,0,0:0:0:0:
64,192,114906,1,0,0:0:0:0:
64,192,115137,128,0,115253:0:0:0:0:
448,192,115137,1,0,0:0:0:0:
320,192,115253,128,0,115368:0:0:0:0:
64,192,115368,1,0,0:0:0:0:
192,192,115368,128,0,115599:0:0:0:0:
448,192,115483,128,0,115714:0:0:0:0:
320,192,115512,128,0,115714:0:0:0:0:
192,192,115714,128,0,115830:0:0:0:0:
320,192,115830,128,0,115945:0:0:0:0:
64,192,115830,128,0,116060:0:0:0:0:
448,192,115945,128,0,116060:0:0:0:0:
192,192,116060,128,0,116176:0:0:0:0:
64,192,116176,128,0,116291:0:0:0:0:
320,192,116291,1,0,0:0:0:0:
448,192,116291,128,0,116406:0:0:0:0:
192,192,116406,128,0,116522:0:0:0:0:
320,192,116522,128,0,116753:0:0:0:0:
64,192,116637,128,0,116868:0:0:0:0:
192,192,116666,128,0,116753:0:0:0:0:
448,192,116753,1,0,0:0:0:0:
320,192,116868,128,0,117099:0:0:0:0:
192,192,116983,128,0,117214:0:0:0:0:
448,192,116983,1,0,0:0:0:0:
64,192,117214,128,0,117560:0:0:0:0:
320,192,117214,1,0,0:0:0:0:
448,192,117243,128,0,117560:0:0:0:0:
192,192,117445,128,0,117676:0:0:0:0:
320,192,117560,128,0,117791:0:0:0:0:
448,192,117676,1,0,0:0:0:0:
64,192,117676,128,0,117791:0:0:0:0:
192,192,117791,128,0,117906:0:0:0:0:
320,192,117906,1,0,0:0:0:0:
64,192,117964,1,0,0:0:0:0:
320,192,118022,1,0,0:0:0:0:
64,192,118137,128,0,118253:0:0:0:0:
192,192,118137,1,0,0:0:0:0:
320,192,118253,128,0,118368:0:0:0:0:
192,192,118368,128,0,118483:0:0:0:0:
448,192,118483,128,0,118599:0:0:0:0:
320,192,118512,128,0,118599:0:0:0:0:
64,192,118599,1,0,0:0:0:0:
192,192,118599,1,0,0:0:0:0:
64,192,118830,128,0,118945:0:0:0:0:
448,192,118830,1,0,0:0:0:0:
320,192,118945,128,0,119060:0:0:0:0:
64,192,119060,1,0,0:0:0:0:
192,192,119060,128,0,119291:0:0:0:0:
448,192,119176,128,0,119406:0:0:0:0:
320,192,119205,128,0,119406:0:0:0:0:
192,192,119406,128,0,119522:0:0:0:0:
64,192,119522,128,0,119753:0:0:0:0:
320,192,119522,128,0,119637:0:0:0:0:
448,192,119637,128,0,119753:0:0:0:0:
192,192,119753,128,0,119868:0:0:0:0:
64,192,119868,128,0,119983:0:0:0:0:
320,192,119983,1,0,0:0:0:0:
448,192,119983,128,0,120099:0:0:0:0:
192,192,120099,128,0,120214:0:0:0:0:
320,192,120214,128,0,120445:0:0:0:0:
64,192,120330,128,0,120560:0:0:0:0:
192,192,120358,128,0,120445:0:0:0:0:
448,192,120445,1,0,0:0:0:0:
320,192,120560,128,0,120791:0:0:0:0:
192,192,120676,128,0,120906:0:0:0:0:
64,192,120676,1,0,0:0:0:0:
448,192,120906,1,0,0:0:0:0:
64,192,120906,128,0,121022:0:0:0:0:
320,192,121022,128,0,121253:0:0:0:0:
192,192,121137,128,0,121368:0:0:0:0:
448,192,121253,128,0,121483:0:0:0:0:
64,192,121368,1,0,0:0:0:0:
320,192,121368,128,0,121483:0:0:0:0:
192,192,121483,128,0,121599:0:0:0:0:
320,192,121599,1,0,0:0:0:0:
64,192,121656,1,0,0:0:0:0:
320,192,121714,1,0,0:0:0:0:
64,192,121830,128,0,121945:0:0:0:0:
192,192,121830,1,0,0:0:0:0:
320,192,121945,128,0,122060:0:0:0:0:
192,192,122060,128,0,122176:0:0:0:0:
448,192,122176,128,0,122291:0:0:0:0:
320,192,122205,128,0,122291:0:0:0:0:
64,192,122291,1,0,0:0:0:0:
192,192,122291,1,0,0:0:0:0:
64,192,122522,128,0,122637:0:0:0:0:
448,192,122522,1,0,0:0:0:0:
320,192,122637,128,0,122753:0:0:0:0:
64,192,122753,1,0,0:0:0:0:
192,192,122753,128,0,122983:0:0:0:0:
448,192,122868,128,0,123099:0:0:0:0:
320,192,122897,128,0,123099:0:0:0:0:
192,192,123099,128,0,123214:0:0:0:0:
64,192,123214,128,0,123445:0:0:0:0:
320,192,123214,128,0,123330:0:0:0:0:
448,192,123330,128,0,123445:0:0:0:0:
192,192,123445,128,0,123560:0:0:0:0:
64,192,123560,128,0,123676:0:0:0:0:
448,192,123676,128,0,123791:0:0:0:0:
320,192,123676,1,0,0:0:0:0:
192,192,123791,128,0,123906:0:0:0:0:
320,192,123906,128,0,124137:0:0:0:0:
64,192,124022,128,0,124253:0:0:0:0:
192,192,124051,128,0,124137:0:0:0:0:
448,192,124137,1,0,0:0:0:0:
320,192,124253,128,0,124483:0:0:0:0:
192,192,124368,128,0,124599:0:0:0:0:
448,192,124368,1,0,0:0:0:0:
320,192,124599,1,0,0:0:0:0:
64,192,124599,128,0,124945:0:0:0:0:
448,192,124628,128,0,124945:0:0:0:0:
192,192,124830,128,0,125060:0:0:0:0:
320,192,124945,128,0,125176:0:0:0:0:
64,192,125060,128,0,125176:0:0:0:0:
448,192,125060,1,0,0:0:0:0:
192,192,125176,128,0,125291:0:0:0:0:
320,192,125291,1,0,0:0:0:0:
64,192,125349,1,0,0:0:0:0:
320,192,125406,1,0,0:0:0:0:
192,192,125522,1,0,0:0:0:0:
64,192,125522,128,0,125637:0:0:0:0:
320,192,125637,128,0,125753:0:0:0:0:
192,192,125753,128,0,125868:0:0:0:0:
448,192,125868,128,0,125983:0:0:0:0:
320,192,125897,128,0,125983:0:0:0:0:
192,192,125983,1,0,0:0:0:0:
64,192,125983,1,0,0:0:0:0:
64,192,126214,128,0,126330:0:0:0:0:
448,192,126214,1,0,0:0:0:0:
320,192,126330,128,0,126445:0:0:0:0:
64,192,126445,1,0,0:0:0:0:
192,192,126445,128,0,126676:0:0:0:0:
448,192,126560,128,0,126791:0:0:0:0:
320,192,126589,128,0,126791:0:0:0:0:
192,192,126791,128,0,126906:0:0:0:0:
320,192,126906,128,0,127022:0:0:0:0:
64,192,126906,128,0,127137:0:0:0:0:
448,192,127022,128,0,127137:0:0:0:0:
192,192,127137,128,0,127253:0:0:0:0:
64,192,127253,128,0,127368:0:0:0:0:
448,192,127368,128,0,127483:0:0:0:0:
320,192,127368,1,0,0:0:0:0:
192,192,127483,128,0,127599:0:0:0:0:
320,192,127599,128,0,127830:0:0:0:0:
64,192,127714,128,0,127945:0:0:0:0:
192,192,127743,128,0,127830:0:0:0:0:
448,192,127830,1,0,0:0:0:0:
320,192,127945,128,0,128176:0:0:0:0:
192,192,128060,128,0,128291:0:0:0:0:
64,192,128060,1,0,0:0:0:0:
320,192,128291,1,0,0:0:0:0:
448,192,128291,1,0,0:0:0:0:
448,192,128406,128,0,128560:0:0:0:0:
320,192,128406,128,0,128560:0:0:0:0:
320,192,128637,128,0,128791:0:0:0:0:
448,192,128637,128,0,128791:0:0:0:0:
320,192,128868,1,0,0:0:0:0:
448,192,128868,1,0,0:0:0:0:
320,192,128983,128,0,129137:0:0:0:0:
448,192,128983,128,0,129137:0:0:0:0:
448,192,129214,1,0,0:0:0:0:
192,192,129214,1,0,0:0:0:0:
64,192,129214,128,0,129330:0:0:0:0:
320,192,129330,128,0,129445:0:0:0:0:
192,192,129445,128,0,129560:0:0:0:0:
448,192,129560,128,0,129791:0:0:0:0:
320,192,129589,128,0,129791:0:0:0:0:
64,192,129676,1,0,0:0:0:0:
192,192,129791,128,0,130022:0:0:0:0:
320,192,129906,128,0,130137:0:0:0:0:
448,192,129906,1,0,0:0:0:0:
192,192,130137,1,0,0:0:0:0:
64,192,130137,1,0,0:0:0:0:
448,192,130253,1,0,0:0:0:0:
64,192,130310,1,0,0:0:0:0:
448,192,130368,1,0,0:0:0:0:
192,192,130483,128,0,130599:0:0:0:0:
64,192,130599,128,0,130830:0:0:0:0:
320,192,130599,128,0,130714:0:0:0:0:
448,192,130714,128,0,130830:0:0:0:0:
192,192,130830,128,0,130945:0:0:0:0:
64,192,130945,128,0,131060:0:0:0:0:
320,192,131060,1,0,0:0:0:0:
448,192,131060,128,0,131176:0:0:0:0:
192,192,131176,128,0,131291:0:0:0:0:
320,192,131291,128,0,131522:0:0:0:0:
64,192,131406,128,0,131637:0:0:0:0:
192,192,131435,128,0,131522:0:0:0:0:
448,192,131522,1,0,0:0:0:0:
320,192,131637,128,0,131868:0:0:0:0:
192,192,131753,128,0,131983:0:0:0:0:
64,192,131753,1,0,0:0:0:0:
320,192,131983,1,0,0:0:0:0:
64,192,131983,128,0,132330:0:0:0:0:
448,192,132012,128,0,132330:0:0:0:0:
192,192,132214,128,0,132445:0:0:0:0:
320,192,132330,128,0,132560:0:0:0:0:
448,192,132445,128,0,132560:0:0:0:0:
64,192,132445,1,0,0:0:0:0:
192,192,132560,128,0,132676:0:0:0:0:
320,192,132676,1,0,0:0:0:0:
64,192,132733,1,0,0:0:0:0:
320,192,132791,1,0,0:0:0:0:
64,192,132906,1,0,0:0:0:0:
192,192,132906,128,0,133137:0:0:0:0:
320,192,133022,128,0,133137:0:0:0:0:
64,192,133137,128,0,133253:0:0:0:0:
448,192,133253,128,0,133368:0:0:0:0:
64,192,133368,1,0,0:0:0:0:
320,192,133368,1,0,0:0:0:0:
192,192,133426,1,0,0:0:0:0:
448,192,133483,1,0,0:0:0:0:
64,192,133599,128,0,133714:0:0:0:0:
192,192,133599,1,0,0:0:0:0:
448,192,133714,1,0,0:0:0:0:
320,192,133772,1,0,0:0:0:0:
64,192,133830,1,0,0:0:0:0:
192,192,133830,128,0,134060:0:0:0:0:
448,192,133945,128,0,134176:0:0:0:0:
320,192,133974,128,0,134176:0:0:0:0:
192,192,134176,128,0,134291:0:0:0:0:
320,192,134291,128,0,134406:0:0:0:0:
64,192,134291,128,0,134522:0:0:0:0:
448,192,134406,128,0,134522:0:0:0:0:
192,192,134522,128,0,134637:0:0:0:0:
64,192,134637,128,0,134753:0:0:0:0:
320,192,134753,1,0,0:0:0:0:
448,192,134753,128,0,134868:0:0:0:0:
192,192,134868,128,0,134983:0:0:0:0:
320,192,134983,128,0,135214:0:0:0:0:
64,192,135099,128,0,135330:0:0:0:0:
192,192,135128,128,0,135214:0:0:0:0:
448,192,135214,1,0,0:0:0:0:
320,192,135330,128,0,135560:0:0:0:0:
192,192,135445,128,0,135676:0:0:0:0:
448,192,135445,1,0,0:0:0:0:
64,192,135676,128,0,135791:0:0:0:0:
448,192,135676,1,0,0:0:0:0:
320,192,135791,128,0,136022:0:0:0:0:
192,192,135906,128,0,136137:0:0:0:0:
448,192,136022,128,0,136253:0:0:0:0:
64,192,136137,1,0,0:0:0:0:
320,192,136137,128,0,136253:0:0:0:0:
192,192,136253,128,0,136368:0:0:0:0:
320,192,136368,1,0,0:0:0:0:
64,192,136426,1,0,0:0:0:0:
320,192,136483,1,0,0:0:0:0:
192,192,136599,1,0,0:0:0:0:
64,192,136599,128,0,136714:0:0:0:0:
320,192,136714,128,0,136830:0:0:0:0:
192,192,136830,128,0,136945:0:0:0:0:
448,192,136945,128,0,137060:0:0:0:0:
320,192,136974,128,0,137176:0:0:0:0:
192,192,137060,1,0,0:0:0:0:
64,192,137060,1,0,0:0:0:0:
448,192,137176,1,0,0:0:0:0:
448,192,137291,1,0,0:0:0:0:
64,192,137291,1,0,0:0:0:0:
320,192,137406,128,0,137522:0:0:0:0:
64,192,137522,1,0,0:0:0:0:
192,192,137522,128,0,137753:0:0:0:0:
448,192,137637,128,0,137868:0:0:0:0:
320,192,137666,128,0,137868:0:0:0:0:
192,192,137868,128,0,137983:0:0:0:0:
64,192,137983,128,0,138214:0:0:0:0:
320,192,137983,128,0,138099:0:0:0:0:
448,192,138099,128,0,138214:0:0:0:0:
192,192,138214,128,0,138330:0:0:0:0:
64,192,138330,128,0,138445:0:0:0:0:
320,192,138445,1,0,0:0:0:0:
448,192,138445,128,0,138560:0:0:0:0:
192,192,138560,128,0,138676:0:0:0:0:
320,192,138676,128,0,138906:0:0:0:0:
64,192,138791,128,0,139022:0:0:0:0:
192,192,138820,128,0,138906:0:0:0:0:
448,192,138906,1,0,0:0:0:0:
320,192,139022,128,0,139253:0:0:0:0:
192,192,139137,128,0,139368:0:0:0:0:
64,192,139137,1,0,0:0:0:0:
320,192,139368,1,0,0:0:0:0:
64,192,139368,128,0,139714:0:0:0:0:
448,192,139397,128,0,139714:0:0:0:0:
192,192,139599,128,0,139830:0:0:0:0:
320,192,139714,128,0,139945:0:0:0:0:
64,192,139830,1,0,0:0:0:0:
448,192,139830,128,0,139945:0:0:0:0:
192,192,139945,128,0,140060:0:0:0:0:
320,192,140060,1,0,0:0:0:0:
64,192,140118,1,0,0:0:0:0:
320,192,140176,1,0,0:0:0:0:
192,192,140291,1,0,0:0:0:0:
64,192,140291,128,0,140522:0:0:0:0:
448,192,140291,128,0,140522:0:0:0:0:
320,192,140406,128,0,140522:0:0:0:0:
192,192,140522,128,0,140637:0:0:0:0:
448,192,140637,128,0,140868:0:0:0:0:
320,192,140637,128,0,140753:0:0:0:0:
448,192,140983,128,0,141214:0:0:0:0:
64,192,140983,128,0,141214:0:0:0:0:
192,192,141099,128,0,141214:0:0:0:0:
320,192,141214,128,0,141330:0:0:0:0:
192,192,141330,128,0,141560:0:0:0:0:
64,192,141330,128,0,141560:0:0:0:0:
320,192,141560,128,0,141676:0:0:0:0:
448,192,141560,1,0,0:0:0:0:
192,192,141676,128,0,141906:0:0:0:0:
64,192,141676,1,0,0:0:0:0:
448,192,141791,128,0,141906:0:0:0:0:
320,192,141791,1,0,0:0:0:0:
64,192,141906,128,0,142022:0:0:0:0:
320,192,142022,1,0,0:0:0:0:
192,192,142022,128,0,142137:0:0:0:0:
448,192,142137,1,0,0:0:0:0:
64,192,142137,128,0,142253:0:0:0:0:
320,192,142253,128,0,142368:0:0:0:0:
192,192,142368,128,0,142483:0:0:0:0:
448,192,142483,128,0,142714:0:0:0:0:
320,192,142512,128,0,142714:0:0:0:0:
64,192,142599,1,0,0:0:0:0:
192,192,142714,128,0,142830:0:0:0:0:
320,192,142830,128,0,143060:0:0:0:0:
64,192,142830,128,0,142945:0:0:0:0:
448,192,142945,1,0,0:0:0:0:
64,192,143060,1,0,0:0:0:0:
192,192,143060,1,0,0:0:0:0:
64,192,143176,128,0,143330:0:0:0:0:
448,192,143176,128,0,143330:0:0:0:0:
320,192,143291,1,0,0:0:0:0:
448,192,143406,1,0,0:0:0:0:
64,192,143406,1,0,0:0:0:0:
192,192,143522,1,0,0:0:0:0:
64,192,143637,1,0,0:0:0:0:
448,192,143637,1,0,0:0:0:0:
64,192,143753,128,0,143906:0:0:0:0:
448,192,143753,128,0,143906:0:0:0:0:
320,192,143868,1,0,0:0:0:0:
320,192,143983,128,0,144099:0:0:0:0:
192,192,143983,128,0,144445:0:0:0:0:
