osu file format v14

[General]
AudioFilename: audio.mp3
AudioLeadIn: 0
PreviewTime: 18883
Countdown: 0
SampleSet: Normal
StackLeniency: 0.7
Mode: 1
LetterboxInBreaks: 0
WidescreenStoryboard: 1

[Editor]
DistanceSpacing: 0.5
BeatDivisor: 4
GridSize: 32
TimelineZoom: 1.2

[Metadata]
Title:Where the Sunlight Flees
TitleUnicode:童梦历险记
Artist:Yu-Peng Chen @HOYO-MiX
ArtistUnicode:陈致逸 @HOYO-MiX
Creator:Faputa
Version:ikin's Kantan
Source:Genshin Impact
Tags:可莉 クレー 클레 Klee 太陽が逃げた夜 Taiyou ga Nigeta Yoru 태양이 도망친 밤 Taeyang-i Domangchin bam Fleeing Sunlight in the Night 逃跑的太阳 逃跑的太陽 TaoPaoDeTaiYang Tao Pao De Tai Yang 逃げ回る太陽 Nigemawaru 도망치는 태양 Domangchineun 陳致逸 Chen Zhi Yi ChenZhiYi hoyo mix mihoyo 原神 げんしん 원신 klee's theme character pv 小さな夢の冒険 Chiisana Yume no Bouken 꿈속 탐험기 Kkumsog Tamheomgi 童夢歷險記 Tong Meng Li Xian Ji TongMengLiXianJi 輝く星々 Kagayaku Hoshiboshi 빛나는 뭇별 Bichnaneun Musbyeol 闪耀的群星 閃耀的群星 Shan Yao De Qun Xing ShanYaoDeQunXing the stellar moments ikin5050 ost video game orchestral instrumental
BeatmapID:2826824
BeatmapSetID:1366757

[Difficulty]
HPDrainRate:9
CircleSize:2
OverallDifficulty:3
ApproachRate:10
SliderMultiplier:1.4
SliderTickRate:1

[Events]
//Background and Video events
0,0,"klee1.jpg",0,70
//Break Periods
//Storyboard Layer 0 (Background)
//Storyboard Layer 1 (Fail)
//Storyboard Layer 2 (Pass)
//Storyboard Layer 3 (Foreground)
//Storyboard Layer 4 (Overlay)
//Storyboard Sound Samples

[TimingPoints]
944,487.80487804878,4,1,0,30,1,0
944,-91.7910447761195,4,1,0,30,0,8
1919,400,4,1,0,30,1,8
1919,-111.940298507463,4,1,0,30,0,8
2319,444.444444444444,4,1,0,30,1,8
2319,-100.746268656717,4,1,0,30,0,8
2763,491.803278688525,4,1,0,30,1,0
2763,-91.0447761194029,4,1,0,30,0,0
3254,410.958904109589,4,1,0,30,1,8
3254,-108.955223880597,4,1,0,30,0,8
4075,463.320463320463,4,1,0,30,1,8
4075,-96.6417910447762,4,1,0,30,0,8
4538,470.588235294118,4,1,0,30,1,0
4538,-95.1492537313432,4,1,0,30,0,0
5008,472.44094488189,4,1,0,30,1,8
5008,-94.776119402985,4,1,0,30,0,8
5952,480,4,1,0,30,1,8
5952,-93.2835820895522,4,1,0,30,0,8
6432,441.988950276243,4,1,0,30,1,0
6432,-101.305970149254,4,1,0,30,0,0
8199,461.538461538462,4,1,0,30,1,0
8199,-97.0149253731342,4,1,0,30,0,0
9122,554.272517321016,4,1,0,30,1,8
9122,-80.7835820895523,4,1,0,30,0,8
9676,-80.7835820895523,4,1,0,35,0,0
10230,458.015267175573,4,1,0,40,1,0
10230,-97.7611940298506,4,1,0,40,0,0
10688,-97.7611940298506,4,1,0,45,0,0
11146,-97.7611940298506,4,1,0,50,0,0
11604,-97.7611940298506,4,1,0,55,0,0
11718,-97.7611940298506,4,1,0,60,0,0
11833,-97.7611940298506,4,1,0,65,0,0
11947,-97.7611940298506,4,1,0,70,0,0
12062,-97.7611940298506,4,1,0,75,0,0
12291,-97.7611940298506,4,1,0,50,0,0
13894,594.059405940594,4,1,0,50,1,0
13894,-75.3731343283582,4,1,0,50,0,0
16270,454.545454545455,6,1,0,50,1,0
16270,-98.5074626865671,6,1,0,50,0,0
18770,-98.5074626865671,6,1,0,60,0,0
18997,447.761194029851,4,1,0,60,1,0
18997,-99.9999999999999,4,1,0,60,0,0
26049,-99.9999999999999,4,1,0,70,0,0
26161,-99.9999999999999,4,1,0,70,0,1
40489,-99.9999999999999,4,1,0,70,0,0
40713,-99.9999999999999,4,1,0,60,0,0
43847,-99.9999999999999,4,1,0,40,0,0
45638,-99.9999999999999,4,1,0,60,0,0
49332,-99.9999999999999,4,1,0,40,0,0
65564,447.761194029851,6,1,0,40,1,0
65564,-99.9999999999999,6,1,0,40,0,0
68026,-99.9999999999999,6,1,0,60,0,0

[HitObjects]
256,192,944,5,8,0:0:0:0:
256,192,2763,1,0,0:0:0:0:
256,192,4538,1,8,0:0:0:0:
256,192,6432,1,0,0:0:0:0:
256,192,7315,1,8,0:0:0:0:
256,192,8199,1,0,0:0:0:0:
256,192,8660,1,8,0:0:0:0:
256,192,9122,12,0,12062,0:0:0:0:
256,192,12520,5,4,0:0:0:0:
256,192,16270,1,0,0:0:0:0:
256,192,17179,1,0,0:0:0:0:
256,192,18088,1,0,0:0:0:0:
256,192,18997,1,12,0:0:0:0:
256,192,19444,1,0,0:0:0:0:
256,192,20340,1,0,0:0:0:0:
256,192,20788,1,8,0:0:0:0:
256,192,21235,1,8,0:0:0:0:
256,192,22131,1,0,0:0:0:0:
256,192,22579,1,8,0:0:0:0:
256,192,23026,1,0,0:0:0:0:
256,192,23922,1,0,0:0:0:0:
256,192,24370,1,8,0:0:0:0:
256,192,24817,1,8,0:0:0:0:
256,192,26161,1,4,0:0:0:0:
256,192,26608,1,8,0:0:0:0:
256,192,27056,1,0,0:0:0:0:
256,192,27504,1,8,0:0:0:0:
256,192,27952,1,0,0:0:0:0:
256,192,28399,1,0,0:0:0:0:
256,192,28847,1,8,0:0:0:0:
256,192,29743,1,8,0:0:0:0:
256,192,30191,1,8,0:0:0:0:
256,192,30638,1,0,0:0:0:0:
256,192,31086,1,0,0:0:0:0:
256,192,31534,1,8,0:0:0:0:
256,192,31982,1,8,0:0:0:0:
256,192,32429,1,0,0:0:0:0:
256,192,33325,1,12,0:0:0:0:
256,192,35116,1,8,0:0:0:0:
256,192,36011,1,0,0:0:0:0:
256,192,36459,1,8,0:0:0:0:
256,192,36907,1,8,0:0:0:0:
256,192,37355,1,0,0:0:0:0:
256,192,37802,1,8,0:0:0:0:
256,192,38698,1,8,0:0:0:0:
256,192,39146,1,8,0:0:0:0:
256,192,39594,1,0,0:0:0:0:
256,192,40041,1,8,0:0:0:0:
256,192,40489,1,8,0:0:0:0:
256,192,41385,1,0,0:0:0:0:
256,192,42280,1,0,0:0:0:0:
256,192,44071,2,0,L|320:192,12,35
256,192,45862,1,12,0:0:0:0:
256,192,47429,1,8,0:0:0:0:
256,192,49444,1,0,0:0:0:0:
256,192,51235,1,8,0:0:0:0:
256,192,53026,1,8,0:0:0:0:
256,192,54817,1,0,0:0:0:0:
256,192,56608,1,8,0:0:0:0:
256,192,58399,1,8,0:0:0:0:
256,192,60191,1,0,0:0:0:0:
256,192,61982,1,0,0:0:0:0:
256,192,62877,1,0,0:0:0:0:
256,192,63773,1,8,0:0:0:0:
256,192,64220,1,8,0:0:0:0:
256,192,64668,1,0,0:0:0:0:
256,192,65340,1,8,0:0:0:0:
256,192,65787,1,8,0:0:0:0:
256,192,66235,1,0,0:0:0:0:
256,192,66459,12,0,67802,0:0:0:0:
256,192,68250,5,12,0:0:0:0:
