osu file format v14

[General]
AudioFilename: audio.mp3
AudioLeadIn: 0
PreviewTime: 18883
Countdown: 0
SampleSet: Normal
StackLeniency: 0.7
Mode: 1
LetterboxInBreaks: 0
WidescreenStoryboard: 0

[Editor]
DistanceSpacing: 0.5
BeatDivisor: 4
GridSize: 32
TimelineZoom: 1.7

[Metadata]
Title:Where the Sunlight Flees
TitleUnicode:童梦历险记
Artist:Yu-Peng Chen @HOYO-MiX
ArtistUnicode:陈致逸 @HOYO-MiX
Creator:Faputa
Version:Oni
Source:Genshin Impact
Tags:可莉 クレー 클레 Klee 太陽が逃げた夜 Taiyou ga Nigeta Yoru 태양이 도망친 밤 Taeyang-i Domangchin bam Fleeing Sunlight in the Night 逃跑的太阳 逃跑的太陽 TaoPaoDeTaiYang Tao Pao De Tai Yang 逃げ回る太陽 Nigemawaru 도망치는 태양 Domangchineun 陳致逸 Chen Zhi Yi ChenZhiYi hoyo mix mihoyo 原神 げんしん 원신 klee's theme character pv 小さな夢の冒険 Chiisana Yume no Bouken 꿈속 탐험기 Kkumsog Tamheomgi 童夢歷險記 Tong Meng Li Xian Ji TongMengLiXianJi 輝く星々 Kagayaku Hoshiboshi 빛나는 뭇별 Bichnaneun Musbyeol 闪耀的群星 閃耀的群星 Shan Yao De Qun Xing ShanYaoDeQunXing the stellar moments ikin5050 ost video game orchestral instrumental
BeatmapID:2826677
BeatmapSetID:1366757

[Difficulty]
HPDrainRate:6.5
CircleSize:2
OverallDifficulty:5.5
ApproachRate:10
SliderMultiplier:1.4
SliderTickRate:1

[Events]
//Background and Video events
0,0,"klee4.jpg",0,0
//Break Periods
//Storyboard Layer 0 (Background)
//Storyboard Layer 1 (Fail)
//Storyboard Layer 2 (Pass)
//Storyboard Layer 3 (Foreground)
//Storyboard Layer 4 (Overlay)
//Storyboard Sound Samples

[TimingPoints]
944,487.80487804878,4,1,0,30,1,0
944,-104.904051172708,4,1,0,30,0,8
1919,400,4,1,0,30,1,8
1919,-127.931769722815,4,1,0,30,0,8
2319,444.444444444444,4,1,0,30,1,8
2319,-115.138592750533,4,1,0,30,0,8
2763,491.803278688525,4,1,0,30,1,0
2763,-104.051172707889,4,1,0,30,0,0
3254,410.958904109589,4,1,0,30,1,8
3254,-124.520255863539,4,1,0,30,0,8
4075,463.320463320463,4,1,0,30,1,8
4075,-110.44776119403,4,1,0,30,0,8
4538,470.588235294118,4,1,0,30,1,0
4538,-108.742004264392,4,1,0,30,0,0
5008,472.44094488189,4,1,0,30,1,8
5008,-108.315565031983,4,1,0,30,0,8
5952,480,4,1,0,30,1,8
5952,-106.609808102345,4,1,0,30,0,8
6432,441.988950276243,4,1,0,30,1,0
6432,-115.778251599147,4,1,0,30,0,0
8199,461.538461538462,4,1,0,30,1,0
8199,-110.874200426439,4,1,0,30,0,0
9122,554.272517321016,4,1,0,30,1,8
9122,-92.3240938166312,4,1,0,30,0,8
9676,-92.3240938166312,4,1,0,35,0,0
10230,458.015267175573,4,1,0,40,1,0
10230,-105.263157894737,4,1,0,40,0,0
10688,-105.263157894737,4,1,0,45,0,0
11146,-105.263157894737,4,1,0,50,0,0
11604,-105.263157894737,4,1,0,55,0,0
11718,-105.263157894737,4,1,0,60,0,0
11833,-100,4,1,0,65,0,0
11947,-100,4,1,0,70,0,0
12062,-100,4,1,0,75,0,0
12176,-100,4,1,0,50,0,0
13894,594.059405940594,4,1,0,50,1,0
13894,-86.2068965517241,4,1,0,50,0,0
16270,454.545454545455,6,1,0,50,1,0
16270,-112.612612612613,6,1,0,50,0,0
17179,-107.488393940664,6,1,0,50,0,0
18088,-102.810108701128,6,1,0,50,0,0
18315,-101.703534197813,6,1,0,50,0,0
18429,-101.159080747201,6,1,0,50,0,0
18542,-100.620526788706,6,1,0,50,0,0
18770,-100.620526788706,6,1,0,60,0,0
18997,447.761194029851,4,1,0,60,1,0
18997,-96.1538461538461,6,1,0,60,0,0
25265,-95.6937799043062,6,1,0,60,0,0
25377,-95.2380952380952,6,1,0,60,0,0
25489,-94.7867298578199,6,1,0,60,0,0
25601,-94.3396226415094,6,1,0,60,0,0
25713,-93.8967136150235,6,1,0,60,0,0
25937,-93.0232558139535,6,1,0,60,0,0
26049,-93.0232558139535,6,1,0,70,0,0
26161,-92.5925925925926,6,1,0,70,0,1
36907,-92.5925925925926,6,1,0,70,0,1
37131,-93.3307698481882,6,1,0,70,0,1
37355,-94.0807231420704,6,1,0,70,0,1
37579,-94.8429164196799,6,1,0,70,0,1
37802,-95.6175603561945,6,1,0,70,0,1
38026,-96.4048696027734,6,1,0,70,0,1
38250,-97.2053462940462,6,1,0,70,0,1
38474,-98.0192274516569,6,1,0,70,0,1
38698,-98.8467549104597,6,1,0,70,0,1
38922,-99.6884735202492,6,1,0,70,0,1
39034,-100.114731482279,6,1,0,70,0,1
39146,-100.54465037106,6,1,0,70,0,1
39370,-101.41555836364,6,1,0,70,0,1
39594,-102.30179028133,6,1,0,70,0,1
39817,-103.203647629722,6,1,0,70,0,1
40041,-104.121438916637,6,1,0,70,0,1
40265,-105.05581089954,6,1,0,70,0,1
40489,-106.00710459615,6,1,0,70,0,0
40713,-106.00710459615,6,1,0,60,0,0
41385,-109.990793770561,6,1,0,60,0,0
42280,-114.285714285714,6,1,0,60,0,0
43847,-114.285714285714,6,1,0,40,0,0
45750,-100,6,1,0,60,0,0
49332,-114.285714285714,6,1,0,40,0,0
56273,-111.111111111111,6,1,0,40,0,0
56497,-109.89010989011,6,1,0,40,0,0
57056,-108.695652173913,6,1,0,40,0,0
57280,-108.268579700291,6,1,0,40,0,0
57504,-107.844733779882,6,1,0,40,0,0
58176,-106.593103213036,6,1,0,40,0,0
58399,-106.182249088691,6,1,0,40,0,0
58847,-105.370080797778,6,1,0,40,0,0
59071,-104.968693087287,6,1,0,40,0,0
59295,-104.570242446107,6,1,0,40,0,0
59967,-103.393049712412,6,1,0,40,0,0
60191,-103.006449233787,6,1,0,40,0,0
60638,-102.241961736968,6,1,0,40,0,0
60862,-101.864009510024,6,1,0,40,0,0
61086,-101.488738302154,6,1,0,40,0,0
61758,-100.379535021918,6,1,0,40,0,0
61870,-100.196987276987,6,1,0,40,0,0
61982,-100.015102280444,6,1,0,40,0,0
63773,-105.263157894737,6,1,0,40,0,0
64220,-106.79607503065,6,1,0,40,0,0
64668,-108.3744162683,6,1,0,40,0,0
64892,-109.181152276045,6,1,0,40,0,0
65340,-110.831200756312,6,1,0,40,0,0
65564,447.761194029851,6,1,0,40,1,0
65564,-111.111111111111,6,1,0,40,0,0
65787,-112.53201535837,6,1,0,40,0,0
66123,-114.285714285714,6,1,0,40,0,0
68138,-100,6,1,0,60,0,0

[HitObjects]
256,192,944,5,8,0:0:0:0:
256,192,2319,1,8,0:0:0:0:
256,192,2763,1,0,0:0:0:0:
256,192,4075,1,8,0:0:0:0:
256,192,4538,1,0,0:0:0:0:
256,192,5952,1,8,0:0:0:0:
256,192,6432,1,0,0:0:0:0:
256,192,7315,1,8,0:0:0:0:
256,192,7757,1,8,0:0:0:0:
256,192,8199,1,0,0:0:0:0:
256,192,8660,1,8,0:0:0:0:
256,192,9122,12,0,12062,0:0:0:0:
256,192,12520,5,4,0:0:0:0:
256,192,16270,1,0,0:0:0:0:
256,192,17179,1,0,0:0:0:0:
256,192,18088,1,8,0:0:0:0:
256,192,18315,1,0,0:0:0:0:
256,192,18429,1,0,0:0:0:0:
256,192,18542,1,8,0:0:0:0:
256,192,18997,1,4,0:0:0:0:
256,192,19332,1,8,0:0:0:0:
256,192,19444,1,0,0:0:0:0:
256,192,19668,1,8,0:0:0:0:
256,192,19892,1,0,0:0:0:0:
256,192,20116,1,8,0:0:0:0:
256,192,20228,1,8,0:0:0:0:
256,192,20340,1,0,0:0:0:0:
256,192,20564,1,8,0:0:0:0:
256,192,20788,1,0,0:0:0:0:
256,192,21011,1,8,0:0:0:0:
256,192,21123,1,0,0:0:0:0:
256,192,21235,1,8,0:0:0:0:
256,192,21459,1,8,0:0:0:0:
256,192,21683,1,0,0:0:0:0:
256,192,21907,1,8,0:0:0:0:
256,192,22019,1,8,0:0:0:0:
256,192,22131,1,0,0:0:0:0:
256,192,22355,1,8,0:0:0:0:
256,192,22579,1,0,0:0:0:0:
256,192,22802,1,8,0:0:0:0:
256,192,23250,1,8,0:0:0:0:
256,192,23474,1,0,0:0:0:0:
256,192,23586,1,0,0:0:0:0:
256,192,23698,1,8,0:0:0:0:
256,192,23922,1,0,0:0:0:0:
256,192,24146,1,8,0:0:0:0:
256,192,24370,1,0,0:0:0:0:
256,192,24594,1,8,0:0:0:0:
256,192,25041,1,8,0:0:0:0:
256,192,25265,1,0,0:0:0:0:
256,192,25377,1,0,0:0:0:0:
256,192,25489,1,8,0:0:0:0:
256,192,25601,1,8,0:0:0:0:
256,192,25713,1,0,0:0:0:0:
256,192,25937,1,8,0:0:0:0:
256,192,26161,1,4,0:0:0:0:
256,192,26385,1,0,0:0:0:0:
256,192,26497,1,0,0:0:0:0:
256,192,26608,1,8,0:0:0:0:
256,192,26832,1,0,0:0:0:0:
256,192,26944,1,0,0:0:0:0:
256,192,27056,1,0,0:0:0:0:
256,192,27280,1,8,0:0:0:0:
256,192,27504,1,8,0:0:0:0:
256,192,27728,1,0,0:0:0:0:
256,192,27952,1,0,0:0:0:0:
256,192,28176,1,8,0:0:0:0:
256,192,28288,1,8,0:0:0:0:
256,192,28399,1,8,0:0:0:0:
256,192,28623,1,0,0:0:0:0:
256,192,28735,1,0,0:0:0:0:
256,192,28847,1,8,0:0:0:0:
256,192,29071,1,0,0:0:0:0:
256,192,29295,1,8,0:0:0:0:
256,192,29743,1,8,0:0:0:0:
256,192,29967,1,8,0:0:0:0:
256,192,30079,1,8,0:0:0:0:
256,192,30191,1,8,0:0:0:0:
256,192,30414,1,0,0:0:0:0:
256,192,30526,1,0,0:0:0:0:
256,192,30638,1,8,0:0:0:0:
256,192,30862,1,0,0:0:0:0:
256,192,31086,1,8,0:0:0:0:
256,192,31198,1,8,0:0:0:0:
256,192,31310,1,0,0:0:0:0:
256,192,31534,1,8,0:0:0:0:
256,192,31758,1,0,0:0:0:0:
256,192,31870,1,8,0:0:0:0:
256,192,31982,1,8,0:0:0:0:
256,192,32205,1,0,0:0:0:0:
256,192,32429,1,8,0:0:0:0:
256,192,32653,1,8,0:0:0:0:
256,192,32765,1,0,0:0:0:0:
256,192,32877,1,8,0:0:0:0:
256,192,32989,1,8,0:0:0:0:
256,192,33101,1,0,0:0:0:0:
256,192,33325,1,12,0:0:0:0:
256,192,33773,1,8,0:0:0:0:
256,192,33997,1,8,0:0:0:0:
256,192,34220,1,0,0:0:0:0:
256,192,34444,1,0,0:0:0:0:
256,192,34668,1,8,0:0:0:0:
256,192,34892,1,8,0:0:0:0:
256,192,35116,1,0,0:0:0:0:
256,192,35564,1,8,0:0:0:0:
256,192,35788,1,8,0:0:0:0:
256,192,36011,1,0,0:0:0:0:
256,192,36235,1,8,0:0:0:0:
256,192,36459,1,8,0:0:0:0:
256,192,36683,1,0,0:0:0:0:
256,192,36907,1,8,0:0:0:0:
256,192,37131,1,8,0:0:0:0:
256,192,37355,1,0,0:0:0:0:
256,192,37579,1,0,0:0:0:0:
256,192,37802,1,8,0:0:0:0:
256,192,38026,1,8,0:0:0:0:
256,192,38250,1,0,0:0:0:0:
256,192,38474,1,0,0:0:0:0:
256,192,38698,1,8,0:0:0:0:
256,192,38922,1,0,0:0:0:0:
256,192,39034,1,0,0:0:0:0:
256,192,39146,1,8,0:0:0:0:
256,192,39370,1,8,0:0:0:0:
256,192,39594,1,0,0:0:0:0:
256,192,39817,1,0,0:0:0:0:
256,192,40041,1,8,0:0:0:0:
256,192,40265,1,0,0:0:0:0:
256,192,40489,1,8,0:0:0:0:
256,192,41385,1,8,0:0:0:0:
256,192,42280,1,0,0:0:0:0:
256,192,44071,2,0,L|288:192,12,30.6250002920628
256,192,45862,1,12,0:0:0:0:
256,192,46646,1,0,0:0:0:0:
256,192,47429,1,8,0:0:0:0:
256,192,49444,1,8,0:0:0:0:
256,192,49892,1,8,0:0:0:0:
256,192,50116,1,8,0:0:0:0:
256,192,50340,1,0,0:0:0:0:
256,192,51011,1,8,0:0:0:0:
256,192,51235,1,0,0:0:0:0:
256,192,51683,1,8,0:0:0:0:
256,192,51907,1,0,0:0:0:0:
256,192,52131,1,0,0:0:0:0:
256,192,52802,1,8,0:0:0:0:
256,192,53026,1,0,0:0:0:0:
256,192,53474,1,8,0:0:0:0:
256,192,53698,1,0,0:0:0:0:
256,192,53922,1,0,0:0:0:0:
256,192,54594,1,8,0:0:0:0:
256,192,54817,1,0,0:0:0:0:
256,192,55265,1,8,0:0:0:0:
256,192,55489,1,8,0:0:0:0:
256,192,55713,1,0,0:0:0:0:
256,192,56385,1,0,0:0:0:0:
256,192,56608,1,8,0:0:0:0:
256,192,57056,1,0,0:0:0:0:
256,192,57280,1,0,0:0:0:0:
256,192,57504,1,0,0:0:0:0:
256,192,58176,1,8,0:0:0:0:
256,192,58399,1,8,0:0:0:0:
256,192,58847,1,0,0:0:0:0:
256,192,59071,1,8,0:0:0:0:
256,192,59295,1,0,0:0:0:0:
256,192,59967,1,8,0:0:0:0:
256,192,60191,1,8,0:0:0:0:
256,192,60638,1,0,0:0:0:0:
256,192,60862,1,0,0:0:0:0:
256,192,61086,1,8,0:0:0:0:
256,192,61758,1,8,0:0:0:0:
256,192,61870,1,8,0:0:0:0:
256,192,61982,1,8,0:0:0:0:
256,192,62205,1,0,0:0:0:0:
256,192,62429,1,8,0:0:0:0:
256,192,62653,1,8,0:0:0:0:
256,192,62877,1,0,0:0:0:0:
256,192,63773,1,8,0:0:0:0:
256,192,64220,1,8,0:0:0:0:
256,192,64668,1,0,0:0:0:0:
256,192,64892,1,0,0:0:0:0:
256,192,65340,1,8,0:0:0:0:
256,192,65787,1,8,0:0:0:0:
256,192,66235,2,0,L|288:192,14,30.6250002920628
256,192,68250,1,12,0:0:0:0:
