osu file format v14

[General]
AudioFilename: audio.mp3
AudioLeadIn: 0
PreviewTime: 18883
Countdown: 0
SampleSet: Normal
StackLeniency: 0.7
Mode: 1
LetterboxInBreaks: 0
WidescreenStoryboard: 0

[Editor]
DistanceSpacing: 0.5
BeatDivisor: 8
GridSize: 32
TimelineZoom: 0.7999998

[Metadata]
Title:Where the Sunlight Flees
TitleUnicode:童梦历险记
Artist:Yu-Peng Chen @HOYO-MiX
ArtistUnicode:陈致逸 @HOYO-MiX
Creator:Faputa
Version:Fleeing Sunlight
Source:Genshin Impact
Tags:可莉 クレー 클레 Klee 太陽が逃げた夜 Taiyou ga Nigeta Yoru 태양이 도망친 밤 Taeyang-i Domangchin bam Fleeing Sunlight in the Night 逃跑的太阳 逃跑的太陽 TaoPaoDeTaiYang Tao Pao De Tai Yang 逃げ回る太陽 Nigemawaru 도망치는 태양 Domangchineun 陳致逸 Chen Zhi Yi ChenZhiYi hoyo mix mihoyo 原神 げんしん 원신 klee's theme character pv 小さな夢の冒険 Chiisana Yume no Bouken 꿈속 탐험기 Kkumsog Tamheomgi 童夢歷險記 Tong Meng Li Xian Ji TongMengLiXianJi 輝く星々 Kagayaku Hoshiboshi 빛나는 뭇별 Bichnaneun Musbyeol 闪耀的群星 閃耀的群星 Shan Yao De Qun Xing ShanYaoDeQunXing the stellar moments ikin5050 ost video game orchestral instrumental
BeatmapID:2826675
BeatmapSetID:1366757

[Difficulty]
HPDrainRate:7
CircleSize:2
OverallDifficulty:6
ApproachRate:10
SliderMultiplier:1.4
SliderTickRate:1

[Events]
//Background and Video events
0,0,"Klee5.jpg",0,70
//Break Periods
//Storyboard Layer 0 (Background)
//Storyboard Layer 1 (Fail)
//Storyboard Layer 2 (Pass)
//Storyboard Layer 3 (Foreground)
//Storyboard Layer 4 (Overlay)
//Storyboard Sound Samples

[TimingPoints]
944,487.80487804878,4,1,0,30,1,0
944,-122.388059701493,4,1,0,30,0,8
1919,400,4,1,0,30,1,8
1919,-149.253731343284,4,1,0,30,0,8
2319,444.444444444444,4,1,0,30,1,8
2319,-134.328358208955,4,1,0,30,0,8
2763,491.803278688525,4,1,0,30,1,0
2763,-121.393034825871,4,1,0,30,0,0
3254,410.958904109589,4,1,0,30,1,8
3254,-145.273631840796,4,1,0,30,0,8
4075,463.320463320463,4,1,0,30,1,8
4075,-128.855721393035,4,1,0,30,0,8
4538,470.588235294118,4,1,0,30,1,0
4538,-126.865671641791,4,1,0,30,0,0
5008,472.44094488189,4,1,0,30,1,8
5008,-126.36815920398,4,1,0,30,0,8
5952,480,4,1,0,30,1,8
5952,-124.378109452736,4,1,0,30,0,8
6432,441.988950276243,4,1,0,30,1,0
6432,-135.074626865672,4,1,0,30,0,0
8199,461.538461538462,4,1,0,30,1,0
8199,-129.353233830846,4,1,0,30,0,0
9122,554.272517321016,4,1,0,30,1,8
9122,-107.71144278607,4,1,0,30,0,8
9676,-107.71144278607,4,1,0,35,0,0
10230,458.015267175573,4,1,0,40,1,0
10230,-130.348258706468,4,1,0,40,0,0
10688,-130.348258706468,4,1,0,45,0,0
11146,-130.348258706468,4,1,0,50,0,0
11604,-130.348258706468,4,1,0,55,0,0
11718,-130.348258706468,4,1,0,60,0,0
11833,-130.348258706468,4,1,0,65,0,0
11947,-130.348258706468,4,1,0,70,0,0
12062,-130.348258706468,4,1,0,75,0,0
12176,-130.348258706468,4,1,0,50,0,0
13894,594.059405940594,4,1,0,50,1,0
13894,-100.497512437811,4,1,0,50,0,0
16270,454.545454545455,6,1,0,50,1,0
16270,-131.578947368421,6,1,0,50,0,0
17179,-118.343195266272,6,1,0,50,0,0
18088,-107.52688172043,6,1,0,50,0,0
18315,-105.124835742444,6,1,0,50,0,0
18391,-104.347862381865,6,1,0,50,0,0
18466,-103.582182621603,6,1,0,50,0,0
18542,-102.827763496144,6,1,0,50,0,0
18770,-131.343283582089,6,1,0,60,0,0
18997,447.761194029851,4,1,0,60,1,0
18997,-95.2380952380952,4,1,0,60,0,0
25265,-95.2380952380952,4,1,0,60,0,0
25377,-94.6802930544431,4,1,0,60,0,0
25489,-94.1290754359823,4,1,0,60,0,0
25601,-93.5841513368028,4,1,0,60,0,0
25713,-93.0455867547746,4,1,0,60,0,0
25825,-92.5130998549395,4,1,0,60,0,0
25937,-91.9867575863779,4,1,0,60,0,0
26105,-90.9090909090909,4,1,0,70,0,0
26161,-90.9090909090909,4,1,0,70,0,1
36907,-90.9090909090909,4,1,0,70,0,1
37131,-92.1304899407324,4,1,0,70,0,1
37355,-93.3852430771185,4,1,0,70,0,1
37579,-94.6745562130178,4,1,0,70,0,1
37802,-95.9999692800098,4,1,0,70,0,1
38026,-97.363114762877,4,1,0,70,0,1
38250,-98.7654320987654,4,1,0,70,0,1
38474,-100.208734794577,4,1,0,70,0,1
38698,-101.694949727102,4,1,0,70,0,1
38922,-103.225806451613,4,1,0,70,0,1
39034,-104.008703448305,4,1,0,70,0,1
39146,-104.80345683722,4,1,0,70,0,1
39370,-106.430192968583,4,1,0,70,0,1
39594,-108.108108108108,4,1,0,70,0,1
39817,-109.839776717702,4,1,0,70,0,1
39929,-110.726643598616,4,1,0,70,0,1
40041,-111.627948512725,4,1,0,70,0,1
40153,-112.543920264883,4,1,0,70,0,1
40265,-113.475177304965,4,1,0,70,0,1
40489,-115.384571005934,4,1,0,70,0,0
40713,-115.384571005934,4,1,0,60,0,0
41385,-123.711391221192,4,1,0,60,0,0
42280,-133.333333333333,4,1,0,60,0,0
43847,-133.333333333333,4,1,0,40,0,0
45750,-100,4,1,0,60,0,0
45974,-100,4,1,0,40,0,0
49332,-133.333333333333,4,1,0,40,0,0
55041,-131.578947368421,4,1,0,40,0,0
55377,-129.87012987013,4,1,0,40,0,0
55601,-128.205128205128,4,1,0,40,0,0
55937,-126.582278481013,4,1,0,40,0,0
56273,-125,4,1,0,40,0,0
56608,-123.456790123457,4,1,0,40,0,0
57056,-121.093816223181,4,1,0,40,0,0
57280,-119.945928375488,4,1,0,40,0,0
57504,-118.819598579868,4,1,0,40,0,0
57728,-117.714225175541,4,1,0,40,0,0
57952,-116.629228684259,4,1,0,40,0,0
58176,-115.564050797334,4,1,0,40,0,0
58399,-114.51815341768,4,1,0,40,0,0
58847,-112.482269982194,4,1,0,40,0,0
59071,-111.491172128991,4,1,0,40,0,0
59295,-110.517387147933,4,1,0,40,0,0
59519,-109.560465325208,4,1,0,40,0,0
59743,-108.619972388803,4,1,0,40,0,0
59967,-107.695488851363,4,1,0,40,0,0
60191,-106.786609386329,4,1,0,40,0,0
60638,-105.014108645497,4,1,0,40,0,0
60862,-104.149742333537,4,1,0,40,0,0
61086,-103.299488977428,4,1,0,40,0,0
61310,-102.463005731781,4,1,0,40,0,0
61534,-101.639960766975,4,1,0,40,0,0
61758,-100.830032830259,4,1,0,40,0,0
61870,-100.429940575604,4,1,0,40,0,0
61982,-100.032910827662,4,1,0,40,0,0
63773,-100,4,1,0,40,0,0
64220,-102.325552839381,4,1,0,40,0,0
64668,-104.76195464855,4,1,0,40,0,0
64892,-106.024075947166,4,1,0,40,0,0
65340,-108.64192165831,4,1,0,40,0,0
65564,447.761194029851,6,1,0,40,1,0
65564,-109.89010989011,6,1,0,40,0,0
65787,-111.392438904032,4,1,0,40,0,0
66235,-114.285714285714,4,1,0,40,0,0
68138,-100,6,1,0,60,0,0

[HitObjects]
256,192,944,5,8,0:0:0:0:
256,192,1919,1,0,0:0:0:0:
256,192,2319,1,8,0:0:0:0:
256,192,2763,1,0,0:0:0:0:
256,192,4075,1,8,0:0:0:0:
256,192,4538,1,0,0:0:0:0:
256,192,5952,1,8,0:0:0:0:
256,192,6432,1,0,0:0:0:0:
256,192,6873,1,0,0:0:0:0:
256,192,7315,1,8,0:0:0:0:
256,192,7757,1,8,0:0:0:0:
256,192,8199,1,0,0:0:0:0:
256,192,8660,1,8,0:0:0:0:
256,192,9122,12,0,12062,0:0:0:0:
256,192,12520,5,4,0:0:0:0:
256,192,16270,1,0,0:0:0:0:
256,192,17179,1,0,0:0:0:0:
256,192,18088,1,8,0:0:0:0:
256,192,18315,1,0,0:0:0:0:
256,192,18391,1,0,0:0:0:0:
256,192,18466,1,0,0:0:0:0:
256,192,18542,1,8,0:0:0:0:
256,192,18997,1,4,0:0:0:0:
256,192,19220,1,0,0:0:0:0:
256,192,19332,1,8,0:0:0:0:
256,192,19444,1,0,0:0:0:0:
256,192,19668,1,8,0:0:0:0:
256,192,19892,1,0,0:0:0:0:
256,192,20004,1,0,0:0:0:0:
256,192,20116,1,8,0:0:0:0:
256,192,20228,1,0,0:0:0:0:
256,192,20340,1,0,0:0:0:0:
256,192,20564,1,8,0:0:0:0:
256,192,20788,1,0,0:0:0:0:
256,192,21011,1,8,0:0:0:0:
256,192,21123,1,0,0:0:0:0:
256,192,21235,1,8,0:0:0:0:
256,192,21459,1,8,0:0:0:0:
256,192,21683,1,0,0:0:0:0:
256,192,21907,1,0,0:0:0:0:
256,192,22019,1,0,0:0:0:0:
256,192,22131,1,8,0:0:0:0:
256,192,22355,1,8,0:0:0:0:
256,192,22579,1,0,0:0:0:0:
256,192,22691,1,0,0:0:0:0:
256,192,22802,1,8,0:0:0:0:
256,192,22914,1,0,0:0:0:0:
256,192,23026,1,0,0:0:0:0:
256,192,23250,1,8,0:0:0:0:
256,192,23474,1,0,0:0:0:0:
256,192,23586,1,0,0:0:0:0:
256,192,23698,1,8,0:0:0:0:
256,192,23810,1,8,0:0:0:0:
256,192,23922,1,0,0:0:0:0:
256,192,24146,1,8,0:0:0:0:
256,192,24370,1,8,0:0:0:0:
256,192,24482,1,0,0:0:0:0:
256,192,24594,1,8,0:0:0:0:
256,192,24705,1,8,0:0:0:0:
256,192,24817,1,0,0:0:0:0:
256,192,25041,1,8,0:0:0:0:
256,192,25265,1,8,0:0:0:0:
256,192,25377,1,0,0:0:0:0:
256,192,25489,1,8,0:0:0:0:
256,192,25601,1,0,0:0:0:0:
256,192,25713,1,8,0:0:0:0:
256,192,25825,1,8,0:0:0:0:
256,192,25937,1,0,0:0:0:0:
256,192,26161,1,4,0:0:0:0:
256,192,26385,1,0,0:0:0:0:
256,192,26497,1,0,0:0:0:0:
256,192,26608,1,8,0:0:0:0:
256,192,26720,1,8,0:0:0:0:
256,192,26832,1,0,0:0:0:0:
256,192,26944,1,0,0:0:0:0:
256,192,27056,1,8,0:0:0:0:
256,192,27280,1,8,0:0:0:0:
256,192,27392,1,0,0:0:0:0:
256,192,27504,1,8,0:0:0:0:
256,192,27616,1,8,0:0:0:0:
256,192,27728,1,0,0:0:0:0:
256,192,27840,1,0,0:0:0:0:
256,192,27952,1,8,0:0:0:0:
256,192,28176,1,0,0:0:0:0:
256,192,28288,1,8,0:0:0:0:
256,192,28399,1,8,0:0:0:0:
256,192,28511,1,0,0:0:0:0:
256,192,28623,1,0,0:0:0:0:
256,192,28735,1,0,0:0:0:0:
256,192,28847,1,8,0:0:0:0:
256,192,29071,1,8,0:0:0:0:
256,192,29183,1,0,0:0:0:0:
256,192,29295,1,8,0:0:0:0:
256,192,29407,1,0,0:0:0:0:
256,192,29519,1,0,0:0:0:0:
256,192,29631,1,0,0:0:0:0:
256,192,29743,1,8,0:0:0:0:
256,192,29967,1,8,0:0:0:0:
256,192,30079,1,8,0:0:0:0:
256,192,30191,1,8,0:0:0:0:
256,192,30302,1,0,0:0:0:0:
256,192,30414,1,0,0:0:0:0:
256,192,30526,1,0,0:0:0:0:
256,192,30638,1,8,0:0:0:0:
256,192,30862,1,8,0:0:0:0:
256,192,30974,1,0,0:0:0:0:
256,192,31086,1,8,0:0:0:0:
256,192,31198,1,8,0:0:0:0:
256,192,31310,1,8,0:0:0:0:
256,192,31422,1,0,0:0:0:0:
256,192,31534,1,8,0:0:0:0:
256,192,31758,1,0,0:0:0:0:
256,192,31870,1,8,0:0:0:0:
256,192,31982,1,8,0:0:0:0:
256,192,32094,1,0,0:0:0:0:
256,192,32205,1,8,0:0:0:0:
256,192,32317,1,0,0:0:0:0:
256,192,32429,1,8,0:0:0:0:
256,192,32653,1,0,0:0:0:0:
256,192,32765,1,0,0:0:0:0:
256,192,32877,1,8,0:0:0:0:
256,192,32952,1,8,0:0:0:0:
256,192,33026,1,8,0:0:0:0:
256,192,33101,1,0,0:0:0:0:
256,192,33325,1,12,0:0:0:0:
256,192,33549,1,0,0:0:0:0:
256,192,33661,1,0,0:0:0:0:
256,192,33773,1,8,0:0:0:0:
256,192,33997,1,8,0:0:0:0:
256,192,34108,1,8,0:0:0:0:
256,192,34220,1,0,0:0:0:0:
256,192,34444,1,0,0:0:0:0:
256,192,34668,1,8,0:0:0:0:
256,192,34892,1,8,0:0:0:0:
256,192,35116,1,0,0:0:0:0:
256,192,35340,1,8,0:0:0:0:
256,192,35452,1,0,0:0:0:0:
256,192,35564,1,8,0:0:0:0:
256,192,35788,1,8,0:0:0:0:
256,192,35899,1,8,0:0:0:0:
256,192,36011,1,0,0:0:0:0:
256,192,36235,1,8,0:0:0:0:
256,192,36459,1,8,0:0:0:0:
256,192,36683,1,0,0:0:0:0:
256,192,36907,1,8,0:0:0:0:
256,192,37131,1,8,0:0:0:0:
256,192,37355,1,0,0:0:0:0:
256,192,37579,1,0,0:0:0:0:
256,192,37802,1,8,0:0:0:0:
256,192,38026,1,8,0:0:0:0:
256,192,38250,1,0,0:0:0:0:
256,192,38474,1,0,0:0:0:0:
256,192,38698,1,8,0:0:0:0:
256,192,38922,1,0,0:0:0:0:
256,192,39034,1,0,0:0:0:0:
256,192,39146,1,8,0:0:0:0:
256,192,39370,1,8,0:0:0:0:
256,192,39594,1,0,0:0:0:0:
256,192,39817,1,0,0:0:0:0:
256,192,39929,1,0,0:0:0:0:
256,192,40041,1,8,0:0:0:0:
256,192,40153,1,0,0:0:0:0:
256,192,40265,1,0,0:0:0:0:
256,192,40489,1,8,0:0:0:0:
256,192,41385,1,8,0:0:0:0:
256,192,42280,1,0,0:0:0:0:
256,192,44071,2,0,L|288:192,12,26.2500010013581
256,192,45862,1,12,0:0:0:0:
256,192,46422,1,0,0:0:0:0:
256,192,46497,1,0,0:0:0:0:
256,192,46571,1,0,0:0:0:0:
256,192,46646,1,8,0:0:0:0:
256,192,47261,1,0,0:0:0:0:
256,192,47317,1,0,0:0:0:0:
256,192,47373,1,0,0:0:0:0:
256,192,47429,1,8,0:0:0:0:
256,192,49444,1,8,0:0:0:0:
256,192,49892,1,8,0:0:0:0:
256,192,50116,1,0,0:0:0:0:
256,192,50340,1,0,0:0:0:0:
256,192,50788,1,8,0:0:0:0:
256,192,51011,1,8,0:0:0:0:
256,192,51235,1,0,0:0:0:0:
256,192,51683,1,8,0:0:0:0:
256,192,51907,1,0,0:0:0:0:
256,192,52131,1,0,0:0:0:0:
256,192,52579,1,0,0:0:0:0:
256,192,52802,1,8,0:0:0:0:
256,192,53026,1,0,0:0:0:0:
256,192,53474,1,8,0:0:0:0:
256,192,53698,1,0,0:0:0:0:
256,192,53922,1,0,0:0:0:0:
256,192,54370,1,0,0:0:0:0:
256,192,54594,1,8,0:0:0:0:
256,192,54817,1,0,0:0:0:0:
256,192,55265,1,8,0:0:0:0:
256,192,55489,1,0,0:0:0:0:
256,192,55713,1,0,0:0:0:0:
256,192,56161,1,8,0:0:0:0:
256,192,56385,1,0,0:0:0:0:
256,192,56608,1,8,0:0:0:0:
256,192,57056,1,0,0:0:0:0:
256,192,57280,1,0,0:0:0:0:
256,192,57504,1,8,0:0:0:0:
256,192,57728,1,8,0:0:0:0:
256,192,57952,1,0,0:0:0:0:
256,192,58176,1,8,0:0:0:0:
256,192,58399,1,8,0:0:0:0:
256,192,58847,1,0,0:0:0:0:
256,192,59071,1,8,0:0:0:0:
256,192,59295,1,0,0:0:0:0:
256,192,59519,1,8,0:0:0:0:
256,192,59743,1,0,0:0:0:0:
256,192,59967,1,8,0:0:0:0:
256,192,60191,1,8,0:0:0:0:
256,192,60638,1,0,0:0:0:0:
256,192,60862,1,0,0:0:0:0:
256,192,61086,1,8,0:0:0:0:
256,192,61310,1,8,0:0:0:0:
256,192,61534,1,0,0:0:0:0:
256,192,61758,1,8,0:0:0:0:
256,192,61870,1,8,0:0:0:0:
256,192,61982,1,8,0:0:0:0:
256,192,62205,1,0,0:0:0:0:
256,192,62429,1,8,0:0:0:0:
256,192,62653,1,8,0:0:0:0:
256,192,62877,1,0,0:0:0:0:
256,192,63773,1,8,0:0:0:0:
256,192,64220,1,8,0:0:0:0:
256,192,64668,1,0,0:0:0:0:
256,192,64892,1,0,0:0:0:0:
256,192,65340,1,8,0:0:0:0:
256,192,65787,1,8,0:0:0:0:
256,192,66235,2,0,L|288:192,14,30.6250002920628
256,192,68250,1,12,0:0:0:0:
