osu file format v14

[General]
AudioFilename: audio.mp3
AudioLeadIn: 0
PreviewTime: 20458
Countdown: 0
SampleSet: Soft
StackLeniency: 0.7
Mode: 0
LetterboxInBreaks: 0
WidescreenStoryboard: 1

[Editor]
Bookmarks: 327,10432,20537,30642,40748,50853,55905
DistanceSpacing: 0.5
BeatDivisor: 4
GridSize: 32
TimelineZoom: 1.7

[Metadata]
Title:The Ever-Victorious Pointy-Eared General (tnbee mix)
TitleUnicode:The Ever-Victorious Pointy-Eared General (tnbee mix)
Artist:Yu-Peng Chen @HOYO-MiX
ArtistUnicode:陈致逸 @HOYO-MiX
Creator:Wanpachi
Version:Expert
Source:Genshin Impact
Tags:video game instrumental rock chompy ascended -ascended- -_ascended_- gorou ゴロー 五郎 고로 mihoyo 原神 尖耳常胜大将 立ち耳の常勝将軍 뾰족 귀의 상승 대장
BeatmapID:3365422
BeatmapSetID:1648099

[Difficulty]
HPDrainRate:6
CircleSize:4
OverallDifficulty:8
ApproachRate:9
SliderMultiplier:1.7
SliderTickRate:1

[Events]
//Background and Video events
0,0,"gorouu.jpg",0,0
//Break Periods
//Storyboard Layer 0 (Background)
//Storyboard Layer 1 (Fail)
//Storyboard Layer 2 (Pass)
//Storyboard Layer 3 (Foreground)
//Storyboard Layer 4 (Overlay)
//Storyboard Sound Samples

[TimingPoints]
327,315.789473684211,4,2,1,50,1,0
327,-142.857142857143,4,2,1,50,0,0
10432,-166.666666666667,4,2,1,60,0,0
15484,-142.857142857143,4,2,1,70,0,0
16748,-125,4,2,1,70,0,0
17379,-111.111111111111,4,2,1,70,0,0
18011,-90.9090909090909,4,2,1,70,0,0
19274,-166.666666666667,4,2,1,50,0,0
20221,-83.3333333333333,4,2,1,50,0,0
20458,-83.3333333333333,4,2,1,5,0,0
20537,-100,4,2,1,70,0,0
21563,-100,4,2,1,5,0,0
21642,-100,4,2,1,70,0,0
24090,-100,4,2,1,5,0,0
24169,-100,4,2,1,70,0,0
26616,-100,4,2,1,5,0,0
26695,-100,4,2,1,70,0,0
28116,-90.9090909090909,4,2,1,80,0,1
28353,-90.9090909090909,4,2,1,5,0,1
28432,-90.9090909090909,4,2,1,80,0,1
29774,-90.9090909090909,4,2,1,5,0,1
29853,-90.9090909090909,4,2,1,80,0,1
30642,-100,4,2,1,70,0,0
32458,-100,4,2,1,5,0,0
32537,-100,4,2,1,70,0,0
33405,-100,4,2,1,5,0,0
33484,-100,4,2,1,70,0,0
38221,-90.9090909090909,4,2,1,80,0,1
38458,-90.9090909090909,4,2,1,5,0,1
38537,-90.9090909090909,4,2,1,80,0,1
40748,-100,4,2,1,70,0,0
41458,-100,4,2,1,5,0,0
41537,-100,4,2,1,70,0,0
42563,-100,4,2,1,5,0,0
42642,-100,4,2,1,70,0,0
43511,-100,4,2,1,5,0,0
43590,-100,4,2,1,70,0,0
45721,-100,4,2,1,5,0,0
45800,-100,4,2,1,70,0,0
48327,-90.9090909090909,4,2,1,80,0,1
48563,-90.9090909090909,4,2,1,5,0,1
48642,-90.9090909090909,4,2,1,80,0,1
49511,-90.9090909090909,4,2,1,5,0,1
49590,-90.9090909090909,4,2,1,80,0,1
50853,-166.666666666667,4,2,1,60,0,0
53379,-142.857142857143,4,2,1,60,0,0
53853,-125,4,2,1,60,0,0
54090,-125,4,2,1,5,0,0
54169,-125,4,2,1,60,0,0
54327,-111.111111111111,4,2,1,60,0,0
54563,-111.111111111111,4,2,1,5,0,0
54642,-111.111111111111,4,2,1,60,0,0
54800,-100,4,2,1,70,0,0
55905,-100,4,2,1,70,0,0
57721,-100,4,2,1,5,0,0
57800,-100,4,2,1,70,0,0
58432,-90.9090909090909,4,2,1,70,0,0
60248,-90.9090909090909,4,2,1,5,0,0
60327,-90.9090909090909,4,2,1,70,0,0
60958,-83.3333333333333,4,2,1,90,0,1
61195,-83.3333333333333,4,2,1,5,0,1
61274,-83.3333333333333,4,2,1,90,0,1
61511,-83.3333333333333,4,2,1,5,0,1
61590,-83.3333333333333,4,2,1,90,0,1
61669,-83.3333333333333,4,2,1,5,0,1
61748,-83.3333333333333,4,2,1,90,0,1
62063,-71.4285714285714,4,2,1,90,0,1
62142,-71.4285714285714,4,2,1,5,0,1
62379,-71.4285714285714,4,2,1,90,0,1
62458,-71.4285714285714,4,2,1,5,0,1
62695,-71.4285714285714,4,2,1,90,0,1
62774,-71.4285714285714,4,2,1,5,0,1
62853,-71.4285714285714,4,2,1,90,0,1
63169,-83.3333333333333,4,2,1,90,0,0

[Colours]
Combo1 : 181,186,189
Combo2 : 230,200,152
Combo3 : 127,183,196
Combo4 : 187,85,77

[HitObjects]
83,39,327,6,0,P|70:127|56:215,2,178.499994552612,2|2|2,0:2|0:2|0:2,0:0:0:0:
159,11,1590,5,2,0:2:0:0:
376,156,2063,1,2,0:2:0:0:
226,284,2537,1,2,0:2:0:0:
216,194,2853,6,0,B|307:204|282:250|393:267,2,178.499994552612,2|2|2,0:2|0:2|0:2,0:0:0:0:
139,251,4116,5,2,0:2:0:0:
320,376,4590,1,2,0:2:0:0:
436,288,4748,6,0,P|434:258|430:228,1,59.4999981842042,2|2,0:0|0:0,0:0:0:0:
354,299,5063,2,0,P|352:269|348:239,1,59.4999981842042,2|2,0:0|0:0,0:0:0:0:
261,68,5379,6,0,P|289:147|391:152,2,178.499994552612,2|2|2,0:2|0:2|0:2,0:0:0:0:
311,0,6642,5,2,0:2:0:0:
189,136,7116,1,2,0:2:0:0:
377,264,7590,1,2,0:2:0:0:
286,302,7905,6,0,P|298:213|312:125,2,178.499994552612,2|2|2,0:2|0:2|0:2,0:0:0:0:
367,361,9169,5,2,0:2:0:0:
207,194,9642,1,2,0:2:0:0:
9,305,10116,1,2,0:2:0:0:
179,343,10432,6,0,P|165:295|120:274,1,101.999996887207,2|0,3:2|0:2,0:0:0:0:
46,229,10905,1,2,0:2:0:0:
141,90,11063,2,0,P|133:140|126:190,1,101.999996887207,0|2,3:2|0:2,0:0:0:0:
241,32,11695,6,0,B|297:44|282:69|339:85,1,101.999996887207,2|0,3:2|0:2,0:0:0:0:
400,42,12169,1,2,0:2:0:0:
431,209,12327,2,0,P|435:159|401:124,1,101.999996887207,0|2,3:2|0:2,0:0:0:0:
275,271,12958,6,0,P|282:321|289:371,1,101.999996887207,2|0,3:2|0:2,0:0:0:0:
359,308,13432,1,2,0:2:0:0:
204,341,13590,2,0,B|148:321|171:301|113:285,1,101.999996887207,0|2,3:2|0:2,0:0:0:0:
90,117,14221,6,0,P|164:145|168:171,1,101.999996887207,2|0,3:2|0:2,0:0:0:0:
92,205,14695,1,2,0:2:0:0:
191,52,14853,2,0,P|241:59|291:66,1,101.999996887207,4|2,3:2|0:2,0:0:0:0:
460,275,15484,6,0,B|400:254|424:229|347:210,1,118.999996368408,6|0,3:2|0:2,0:0:0:0:
284,156,15958,1,2,0:2:0:0:
371,13,16116,2,0,P|392:67|371:121,1,118.999996368408,0|2,3:2|0:2,0:0:0:0:
254,381,16748,6,0,P|264:313|274:246,1,136,2|0,3:2|0:2,0:0:0:0:
359,213,17221,1,2,0:2:0:0:
182,298,17379,5,0,3:2:0:0:
167,207,17537,1,0,3:2:0:0:
344,304,17695,1,2,1:2:0:0:
92,268,17853,1,0,3:2:0:0:
253,72,18011,6,0,P|282:109|283:155,1,93.5000028533936,6|0,1:2|0:2,0:0:0:0:
92,268,18327,2,0,P|45:274|0:281,1,93.5000028533936,6|0,1:2|0:2,0:0:0:0:
344,304,18642,5,6,1:2:0:0:
254,381,18800,1,0,3:2:0:0:
200,133,18958,1,2,1:2:0:0:
396,188,19116,1,6,1:2:0:0:
396,188,19432,6,0,P|399:162|403:137,2,50.9999984436036,2|2|2,0:2|0:2|0:2,0:0:0:0:
253,72,19905,5,2,3:2:0:0:
254,84,19983,1,0,3:2:0:0:
256,97,20062,1,2,3:2:0:0:
151,302,20221,6,0,B|226:288|205:254|289:240,1,152.999995330811,6|0,1:2|0:2,0:0:0:0:
369,276,20537,6,0,P|301:230|311:146,1,170,6|0,3:2|1:2,0:0:0:0:
147,207,21011,1,0,0:2:0:0:
212,48,21169,2,0,P|205:90|199:132,1,85,2|0,3:2|3:2,0:0:0:0:
65,254,21484,6,0,P|62:232|58:211,1,42.5,2|0,1:2|0:2,0:0:0:0:
101,125,21642,2,0,P|95:82|88:40,1,85,2|0,3:2|0:2,0:0:0:0:
8,134,21958,5,2,3:2:0:0:
151,302,22116,2,0,P|191:292|226:263,1,85,2|0,1:2|0:2,0:0:0:0:
270,184,22432,5,2,3:2:0:0:
147,207,22590,1,2,3:2:0:0:
329,345,22748,2,0,P|323:302|316:260,1,85,2|0,1:2|0:2,0:0:0:0:
493,78,23063,6,0,B|408:103|438:145|359:177,1,170,2|0,3:2|1:2,0:0:0:0:
250,54,23537,1,0,0:2:0:0:
321,0,23695,2,0,P|340:39|337:86,1,85,2|0,3:2|3:2,0:0:0:0:
252,271,24011,6,0,P|249:249|245:228,1,42.5,2|0,1:2|0:2,0:0:0:0:
190,159,24169,2,0,P|229:140|276:142,1,85,2|0,3:2|0:2,0:0:0:0:
359,176,24484,5,2,3:2:0:0:
156,241,24642,2,0,P|114:234|71:228,1,85,2|0,1:2|0:2,0:0:0:0:
18,161,24958,5,2,3:2:0:0:
96,319,25116,1,2,3:2:0:0:
235,202,25274,5,2,1:2:0:0:
156,241,25432,1,0,0:2:0:0:
332,362,25590,6,0,P|412:370|450:300,1,170,6|0,3:2|1:2,0:0:0:0:
481,134,26063,1,0,0:2:0:0:
511,223,26221,2,0,P|468:217|426:210,1,85,2|0,3:2|3:2,0:0:0:0:
291,41,26537,6,0,P|292:19|299:0,1,42.5,2|0,1:2|0:2,0:0:0:0:
374,36,26695,2,0,P|380:78|386:119,1,85,2|0,3:2|0:2,0:0:0:0:
481,134,27011,5,2,3:2:0:0:
331,198,27169,2,0,P|288:194|248:182,1,85,2|0,1:2|0:2,0:0:0:0:
223,88,27484,5,2,3:2:0:0:
275,287,27642,1,2,3:2:0:0:
72,169,27800,5,2,1:2:0:0:
91,161,27878,1,2,0:2:0:0:
112,156,27957,1,2,0:2:0:0:
133,154,28036,1,2,0:2:0:0:
154,153,28116,6,0,P|162:222|173:291,1,140.25000428009,6|0,3:2|0:2,0:0:0:0:
157,308,28432,5,2,1:2:0:0:
270,108,28590,2,0,P|262:154|256:200,1,93.5000028533936,6|0,3:2|0:2,0:0:0:0:
73,248,28905,5,2,1:2:0:0:
352,176,29063,2,0,P|357:222|365:268,1,93.5000028533936,6|0,3:2|0:2,0:0:0:0:
154,153,29379,5,2,1:2:0:0:
344,361,29537,2,0,P|416:355|461:290,1,140.25000428009,6|0,3:2|0:2,0:0:0:0:
460,282,29853,6,0,P|456:259|453:236,1,46.7500014266968,2|0,1:2|1:2,0:0:0:0:
465,142,30011,1,2,3:2:0:0:
365,268,30169,1,2,1:2:0:0:
221,151,30327,1,2,1:2:0:0:
377,179,30484,2,0,P|353:176|330:172,1,46.7500014266968,2|2,1:2|1:2,0:0:0:0:
156,231,30642,6,0,B|71:212|105:166|7:146,1,170,6|0,3:2|1:2,0:0:0:0:
12,147,31274,2,0,P|54:142|96:135,2,85,2|2|2,3:2|3:2|1:2,0:0:0:0:
204,62,31748,2,0,P|178:104|180:150,1,85,2|0,0:2|3:2,0:0:0:0:
109,33,32063,5,2,3:2:0:0:
274,132,32221,2,0,P|336:121|400:113,1,127.5,0|0,1:2|0:2,0:0:0:0:
415,98,32537,2,0,P|418:139|442:174,1,85,2|0,3:2|3:2,0:0:0:0:
324,327,32853,2,0,P|329:284|336:242,1,85,2|0,1:2|0:2,0:0:0:0:
145,150,33169,6,0,B|205:170|184:196|258:223,1,127.5,2|0,3:2|0:2,0:0:0:0:
268,209,33484,1,2,1:2:0:0:
183,358,33642,2,0,P|113:317|123:238,1,170,2|0,0:2|3:2,0:0:0:0:
280,318,34116,1,0,1:2:0:0:
508,190,34274,5,2,0:2:0:0:
505,211,34352,1,2,0:2:0:0:
504,233,34432,1,2,3:2:0:0:
406,384,34590,2,0,P|396:298|381:214,1,170,0|2,1:2|3:2,0:0:0:0:
271,95,35063,6,0,P|274:138|302:188,1,85,0|0,1:2|3:2,0:0:0:0:
413,60,35379,1,2,1:2:0:0:
434,141,35536,1,0,3:2:0:0:
304,267,35695,6,0,P|220:252|135:241,1,170,6|0,3:2|1:2,0:0:0:0:
135,241,36327,1,2,3:2:0:0:
244,174,36484,1,2,3:2:0:0:
202,334,36642,1,2,1:2:0:0:
94,151,36800,6,0,B|179:135|154:105|249:85,1,170,2|0,0:2|1:2,0:0:0:0:
331,144,37274,1,2,3:2:0:0:
217,252,37432,1,0,1:2:0:0:
295,307,37590,5,2,1:2:0:0:
304,287,37668,1,0,1:2:0:0:
307,267,37747,1,0,1:2:0:0:
217,252,37905,1,2,1:2:0:0:
359,375,38063,1,0,1:2:0:0:
466,215,38221,6,0,B|455:129|429:166|423:83,1,140.25000428009,6|0,3:2|0:2,0:0:0:0:
440,67,38537,1,0,3:2:0:0:
191,177,38695,6,0,P|283:189|375:204,1,187.000005706787,6|0,1:2|3:2,0:0:0:0:
354,359,39169,6,0,P|331:318|325:272,1,93.5000028533936,6|0,3:2|0:2,0:0:0:0:
412,290,39484,1,0,3:2:0:0:
310,55,39642,6,0,P|264:135|252:228,1,187.000005706787,6|0,1:2|3:2,0:0:0:0:
182,271,40116,5,6,1:2:0:0:
375,204,40274,1,0,3:2:0:0:
217,41,40432,5,6,1:2:0:0:
241,132,40590,1,0,1:0:0:0:
217,41,40748,6,0,B|129:70|167:102|82:138,1,170,6|0,3:2|1:2,0:0:0:0:
81,138,41379,2,0,P|78:116|75:95,1,42.5,2|0,3:2|0:2,0:0:0:0:
63,16,41537,1,2,3:2:0:0:
240,136,41695,1,2,1:2:0:0:
104,233,41853,2,0,P|59:231|15:210,1,85,2|0,0:2|3:2,0:0:0:0:
165,170,42169,5,2,3:2:0:0:
62,323,42327,2,0,P|124:313|188:305,1,127.5,0|0,1:2|0:2,0:0:0:0:
203,290,42642,2,0,P|186:329|185:371,1,85,2|0,3:2|3:2,0:0:0:0:
329,241,42958,2,0,P|334:198|340:156,1,85,2|0,1:2|0:2,0:0:0:0:
481,302,43274,6,0,B|412:315|434:351|369:370,1,127.5,2|0,3:2|0:2,0:0:0:0:
359,352,43590,1,2,1:2:0:0:
162,220,43748,2,0,P|245:233|330:243,1,170,2|0,0:2|3:2,0:0:0:0:
416,210,44221,1,0,1:2:0:0:
326,373,44379,5,2,0:2:0:0:
323,352,44457,1,2,0:2:0:0:
321,330,44537,1,2,3:2:0:0:
512,230,44695,2,0,P|484:295|393:293,1,170,0|2,1:2|3:2,0:0:0:0:
238,365,45169,2,0,P|244:323|249:280,1,85,0|0,1:2|3:2,0:0:0:0:
360,121,45484,2,0,P|419:132|430:191,1,127.5,2|0,1:2|0:2,0:0:0:0:
416,210,45800,6,0,P|332:196|247:186,1,170,6|0,3:2|3:2,0:0:0:0:
105,91,46274,1,2,1:2:0:0:
175,15,46432,2,0,P|198:51|203:93,1,85,0|0,3:2|3:2,0:0:0:0:
40,271,46748,6,0,P|120:259|140:178,1,170,2|0,1:2|3:2,0:0:0:0:
304,101,47221,1,2,1:2:0:0:
260,271,47379,2,0,P|254:228|248:186,1,85,0|0,3:2|1:2,0:0:0:0:
208,50,47695,5,0,1:0:0:0:
204,71,47773,1,0,1:0:0:0:
202,92,47852,1,0,1:0:0:0:
351,189,48011,1,0,1:2:0:0:
352,27,48169,1,2,1:2:0:0:
141,181,48327,6,0,B|74:164|104:116|33:100,1,140.25000428009,6|0,3:2|0:2,0:0:0:0:
11,110,48642,1,0,1:2:0:0:
186,11,48800,5,6,3:2:0:0:
249,71,48958,1,0,3:2:0:0:
163,98,49116,1,0,1:2:0:0:
289,284,49274,6,0,P|297:214|308:145,1,140.25000428009,6|0,3:2|0:2,0:0:0:0:
325,128,49590,1,0,1:2:0:0:
381,236,49748,5,6,3:2:0:0:
210,196,49905,1,0,3:2:0:0:
190,320,50063,5,0,1:2:0:0:
441,180,50221,1,6,3:2:0:0:
424,163,50300,1,0,3:2:0:0:
402,157,50379,1,0,1:2:0:0:
375,340,50537,5,6,3:2:0:0:
387,76,50695,1,0,1:2:0:0:
210,196,50853,6,0,B|157:210|85:212|34:183|3:136|10:70|55:40|118:59|135:105|141:151|140:210|122:280|122:280|51:270|9:232|9:232|51:270|36:342,1,713.99997821045,6|2,3:2|0:2,0:0:0:0:
110,361,53221,5,2,0:2:0:0:
123,363,53299,1,2,0:2:0:0:
135,365,53379,2,0,P|193:355|252:348,1,118.999996368408,2|0,0:2|3:2,0:0:0:0:
448,128,53853,6,0,B|394:120|412:91|360:77,1,102,6|0,1:2|0:2,0:0:0:0:
349,90,54169,1,0,3:2:0:0:
333,378,54327,6,0,P|336:321|303:275,1,114.749996498108,6|0,1:2|0:2,0:0:0:0:
285,269,54642,1,0,3:2:0:0:
109,141,54800,5,6,1:2:0:0:
252,347,54958,1,2,1:2:0:0:
336,179,55116,1,2,1:2:0:0:
115,328,55274,5,2,3:2:0:0:
239,203,55432,1,2,3:2:0:0:
363,78,55590,1,2,1:2:0:0:
223,52,55748,5,2,3:2:0:0:
441,159,55905,6,0,P|451:243|464:327,1,170,6|0,3:2|1:2,0:0:0:0:
464,327,56537,2,0,P|473:276|509:238,2,85,2|2|2,3:2|3:2|1:2,0:0:0:0:
284,298,57011,5,2,0:2:0:0:
378,260,57169,2,0,P|371:301|366:344,1,85,0|0,3:2|0:2,0:0:0:0:
199,263,57484,2,0,P|191:199|181:136,1,127.5,2|0,1:2|0:2,0:0:0:0:
166,121,57800,2,0,P|130:144|89:149,1,85,2|0,3:2|3:2,0:0:0:0:
300,43,58116,1,2,1:2:0:0:
300,64,58194,1,2,0:2:0:0:
305,84,58273,1,2,0:2:0:0:
315,103,58352,1,2,0:2:0:0:
329,120,58432,6,0,B|434:92|389:60|499:35,1,187.000005706787,6|0,3:2|3:2,0:0:0:0:
409,195,58905,1,6,1:2:0:0:
512,232,59063,2,0,P|504:185|499:139,1,93.5000028533936,0|0,3:2|3:2,0:0:0:0:
311,226,59379,6,0,P|222:231|213:323,1,187.000005706787,6|0,3:2|3:2,0:0:0:0:
41,362,59853,1,6,1:2:0:0:
128,366,60011,2,0,B|117:296|91:321|81:235,1,140.25000428009,0|0,3:2|0:2,0:0:0:0:
93,215,60327,2,0,P|52:243|-3:251,1,93.5000028533936,6|0,3:2|3:2,0:0:0:0:
189,100,60642,2,0,P|143:90|106:64,1,93.5000028533936,2|0,1:2|3:2,0:0:0:0:
258,233,60958,5,6,1:2:0:0:
194,8,61116,1,2,3:2:0:0:
273,43,61274,5,6,1:2:0:0:
54,132,61432,1,2,3:2:0:0:
182,250,61590,6,0,P|186:224|189:198,1,50.9999984436036,6|0,1:2|0:2,0:0:0:0:
200,96,61748,5,2,1:2:0:0:
93,215,61905,1,2,3:2:0:0:
257,338,62063,6,0,B|269:323|266:305|266:305|260:320|249:331,1,59.4999981842042,6|0,1:2|0:2,0:0:0:0:
397,137,62379,6,0,B|378:134|363:145|363:145|379:143|394:147,1,59.4999981842042,6|0,1:2|0:2,0:0:0:0:
152,116,62695,6,0,B|158:133|175:141|175:141|166:128|162:113,1,59.4999981842042,2|0,1:2|0:2,0:0:0:0:
265,207,62853,5,6,1:2:0:0:
265,207,63169,5,4,1:1:0:0:
