osu file format v14

[General]
AudioFilename: audio.mp3
AudioLeadIn: 0
PreviewTime: 20458
Countdown: 0
SampleSet: Soft
StackLeniency: 0.4
Mode: 0
LetterboxInBreaks: 0
WidescreenStoryboard: 1

[Editor]
Bookmarks: 327,10432,20537,30642,40748,50853
DistanceSpacing: 0.5
BeatDivisor: 8
GridSize: 16
TimelineZoom: 1.7

[Metadata]
Title:The Ever-Victorious Pointy-Eared General (tnbee mix)
TitleUnicode:The Ever-Victorious Pointy-Eared General (tnbee mix)
Artist:Yu-Peng Chen @HOYO-MiX
ArtistUnicode:陈致逸 @HOYO-MiX
Creator:Wanpachi
Version:Collab Insane
Source:Genshin Impact
Tags:video game instrumental rock chompy ascended -ascended- -_ascended_- gorou ゴロー 五郎 고로 mihoyo 原神 尖耳常胜大将 立ち耳の常勝将軍 뾰족 귀의 상승 대장
BeatmapID:3366533
BeatmapSetID:1648099

[Difficulty]
HPDrainRate:5.5
CircleSize:4
OverallDifficulty:7
ApproachRate:8
SliderMultiplier:1.5
SliderTickRate:1

[Events]
//Background and Video events
0,0,"GOROOU.jpg",0,0
//Break Periods
//Storyboard Layer 0 (Background)
//Storyboard Layer 1 (Fail)
//Storyboard Layer 2 (Pass)
//Storyboard Layer 3 (Foreground)
//Storyboard Layer 4 (Overlay)
//Storyboard Sound Samples

[TimingPoints]
327,315.789473684211,4,2,1,50,1,0
327,-166.666666666667,4,2,1,50,0,0
5379,-125,4,2,1,50,0,0
6642,-166.666666666667,4,2,1,50,0,0
9169,-142.857142857143,4,2,1,50,0,0
10432,-111.111111111111,4,2,1,60,0,0
15484,-111.111111111111,4,2,1,70,0,0
18011,-100,4,2,1,70,0,0
19274,-100,4,2,1,50,0,0
20458,-100,4,2,1,5,0,0
20537,-100,4,2,1,70,0,0
21563,-100,4,2,1,5,0,0
21642,-100,4,2,1,70,0,0
24090,-100,4,2,1,5,0,0
24169,-100,4,2,1,70,0,0
26616,-100,4,2,1,5,0,0
26695,-100,4,2,1,70,0,0
28116,-90.9090909090909,4,2,1,80,0,1
28353,-90.9090909090909,4,2,1,5,0,1
28432,-90.9090909090909,4,2,1,80,0,1
29774,-90.9090909090909,4,2,1,5,0,1
29853,-90.9090909090909,4,2,1,80,0,1
30642,-71.4285714285714,4,2,1,70,0,0
30879,-71.4285714285714,4,2,1,5,0,0
30958,-83.3333333333333,4,2,1,70,0,0
32142,-83.3333333333333,4,2,1,5,0,0
32221,-83.3333333333333,4,2,1,70,0,0
32458,-83.3333333333333,4,2,1,5,0,0
32537,-83.3333333333333,4,2,1,70,0,0
33169,-71.4285714285714,4,2,1,70,0,0
33405,-71.4285714285714,4,2,1,5,0,0
33484,-83.3333333333333,4,2,1,70,0,0
35695,-71.4285714285714,4,2,1,70,0,0
35932,-71.4285714285714,4,2,1,5,0,0
36011,-83.3333333333333,4,2,1,70,0,0
38221,-166.666666666667,4,2,1,80,0,1
38458,-166.666666666667,4,2,1,5,0,1
38537,-100,4,2,1,80,0,1
38695,-83.3333333333333,4,2,1,80,0,1
39169,-125,4,2,1,80,0,1
39642,-66.6666666666667,4,2,1,80,0,1
40116,-66.6666666666667,4,2,1,80,0,1
40432,-133.333333333333,4,2,1,80,0,1
40669,-133.333333333333,4,2,1,5,0,1
40748,-71.4285714285714,4,2,1,70,0,0
40984,-71.4285714285714,4,2,1,5,0,0
41063,-83.3333333333333,4,2,1,70,0,0
41458,-83.3333333333333,4,2,1,5,0,0
41537,-83.3333333333333,4,2,1,70,0,0
42248,-83.3333333333333,4,2,1,5,0,0
42327,-83.3333333333333,4,2,1,70,0,0
42563,-83.3333333333333,4,2,1,5,0,0
42642,-83.3333333333333,4,2,1,70,0,0
43274,-71.4285714285714,4,2,1,70,0,0
43511,-71.4285714285714,4,2,1,5,0,0
43590,-83.3333333333333,4,2,1,70,0,0
45800,-71.4285714285714,4,2,1,70,0,0
46037,-71.4285714285714,4,2,1,5,0,0
46116,-83.3333333333333,4,2,1,70,0,0
46511,-83.3333333333333,4,2,1,5,0,0
46590,-83.3333333333333,4,2,1,70,0,0
46984,-83.3333333333333,4,2,1,5,0,0
47063,-83.3333333333333,4,2,1,70,0,0
48327,-90.909090909091,4,2,1,80,0,1
48563,-90.909090909091,4,2,1,5,0,1
48642,-100,4,2,1,80,0,1
48800,-62.5,4,2,1,80,0,1
49274,-90.9090909090909,4,2,1,80,0,1
49511,-90.9090909090909,4,2,1,5,0,1
49590,-90.9090909090909,4,2,1,80,0,1
49748,-62.5,4,2,1,80,0,1
50537,-133.333333333333,4,2,1,80,0,1
50773,-133.333333333333,4,2,1,5,0,1
50853,-250,4,2,1,60,0,0
53853,-125,4,2,1,60,0,0
54090,-125,4,2,1,5,0,0
54169,-125,4,2,1,60,0,0
54327,-100,4,2,1,60,0,0
54563,-100,4,2,1,5,0,0
54642,-100,4,2,1,60,0,0
54720,-100,4,2,1,5,0,0
54800,-111.111111111111,4,2,1,70,0,0
55905,-100,4,2,1,70,0,0
57405,-100,4,2,1,5,0,0
57484,-100,4,2,1,70,0,0
57721,-100,4,2,1,5,0,0
57800,-100,4,2,1,70,0,0
58905,-90.9090909090909,4,2,1,70,0,0
59379,-83.3333333333333,4,2,1,70,0,0
59853,-76.9230769230769,4,2,1,70,0,0
60248,-76.9230769230769,4,2,1,5,0,0
60327,-76.9230769230769,4,2,1,70,0,0
60958,-71.4285714285714,4,2,1,90,0,1
61195,-71.4285714285714,4,2,1,5,0,1
61274,-71.4285714285714,4,2,1,90,0,1
61511,-71.4285714285714,4,2,1,5,0,1
61590,-71.4285714285714,4,2,1,90,0,1
61669,-71.4285714285714,4,2,1,5,0,1
61748,-71.4285714285714,4,2,1,90,0,1
62142,-71.4285714285714,4,2,1,5,0,1
62379,-71.4285714285714,4,2,1,90,0,1
62458,-71.4285714285714,4,2,1,5,0,1
62695,-71.4285714285714,4,2,1,90,0,1
62774,-71.4285714285714,4,2,1,5,0,1
62853,-71.4285714285714,4,2,1,90,0,1
63169,-71.4285714285714,4,2,1,90,0,0

[Colours]
Combo1 : 181,186,189
Combo2 : 230,200,152
Combo3 : 127,183,196
Combo4 : 187,85,77

[HitObjects]
478,28,327,6,0,P|405:30|392:90,2,134.999995880127,2|2|2,0:2|0:2|0:2,0:0:0:0:
481,31,1590,2,0,P|465:97|447:182,1,134.999995880127,2|2,0:2|0:2,0:0:0:0:
455,166,2537,1,2,0:2:0:0:
382,348,2853,5,2,0:2:0:0:
279,310,3327,1,2,0:2:0:0:
265,202,3800,1,2,0:2:0:0:
342,116,4116,2,0,P|357:182|375:267,1,134.999995880127,2|2,0:2|0:2,0:0:0:0:
436,296,4748,6,0,P|451:274|452:253,1,44.999998626709,2|2,0:0|0:0,0:0:0:0:
321,311,5063,2,0,P|349:328|363:328,1,44.999998626709,2|2,0:0|0:0,0:0:0:0:
338,112,5379,6,0,P|250:90|194:169,2,180,2|2|2,0:2|0:2|0:2,0:0:0:0:
232,248,6642,2,0,P|181:236|98:218,2,134.999995880127,2|2|2,0:2|0:2|0:2,0:0:0:0:
452,340,7905,5,2,0:2:0:0:
427,242,8378,1,2,0:2:0:0:
329,229,8852,1,2,0:2:0:0:
212,317,9169,2,0,P|197:251|173:143,1,157.499995193482,2|2,0:2|0:2,0:0:0:0:
91,119,9800,2,0,P|96:94|105:54,2,52.4999983978272,0|0|2,0:0|0:0|0:2,0:0:0:0:
281,165,10432,6,0,B|335:183|379:147|365:127|409:92|468:111,1,202.499993820191,2|2,3:2|0:2,0:0:0:0:
463,109,11063,1,0,3:2:0:0:
306,81,11379,1,2,0:2:0:0:
434,186,11695,6,0,B|407:321|395:384,1,202.499993820191,2|2,3:2|0:2,0:0:0:0:
395,384,12327,1,0,3:2:0:0:
489,307,12642,1,2,0:2:0:0:
281,165,12958,6,0,P|190:199|179:295,1,202.499993820191,2|2,3:2|0:2,0:0:0:0:
179,295,13590,1,0,3:2:0:0:
346,217,13905,1,2,0:2:0:0:
247,89,14221,6,0,B|213:96|189:129|195:165|195:165|186:131|151:110|116:119,1,202.499993820191,2|2,3:2|0:2,0:0:0:0:
116,118,14853,1,4,3:2:0:0:
281,165,15169,1,2,0:2:0:0:
29,279,15484,6,0,B|55:214|109:209|109:209|128:261|183:264,1,202.499993820191,6|2,3:2|0:2,0:0:0:0:
175,263,16116,1,0,3:2:0:0:
99,341,16432,1,2,0:2:0:0:
196,165,16748,6,0,P|265:177|402:197,1,202.499993820191,2|0,3:2|0:2,0:0:0:0:
467,145,17379,1,0,3:2:0:0:
467,145,17537,1,0,3:2:0:0:
337,270,17695,1,2,1:2:0:0:
481,230,17853,1,0,3:2:0:0:
386,109,18011,6,0,B|348:105|318:129|328:142|293:170|251:160,1,150,6|6,1:2|1:2,0:0:0:0:
180,98,18484,1,0,0:2:0:0:
240,253,18642,5,6,1:2:0:0:
240,253,18800,1,2,1:2:0:0:
266,68,18958,1,0,3:2:0:0:
396,196,19116,1,6,1:2:0:0:
313,141,19905,5,2,3:2:0:0:
313,141,19984,1,0,3:2:0:0:
313,141,20063,2,0,L|303:191,1,37.5,2|0,3:2|0:0,0:0:0:0:
366,262,20221,1,6,1:2:0:0:
210,148,20379,1,2,3:2:0:0:
381,67,20537,6,0,P|447:78|467:153,2,150,6|0|2,3:2|1:2|3:2,0:0:0:0:
313,141,21327,1,0,3:2:0:0:
153,54,21484,1,2,1:2:0:0:
246,3,21642,6,0,P|235:77|202:163,1,150,2|2,3:2|3:2,0:0:0:0:
225,236,22116,2,0,L|149:222,1,75,2|0,1:2|0:2,0:0:0:0:
1,123,22432,1,2,3:2:0:0:
73,80,22590,1,2,3:2:0:0:
77,167,22748,2,0,P|64:202|58:239,1,75,2|0,1:2|0:2,0:0:0:0:
136,360,23063,6,0,B|192:349|192:349|219:325|219:325|282:313,2,150,2|0|2,3:2|1:2|3:2,0:0:0:0:
145,268,23853,1,0,3:2:0:0:
357,294,24011,1,2,1:2:0:0:
353,213,24169,6,0,P|287:242|274:313,1,150,2|2,3:2|3:2,0:0:0:0:
431,353,24642,2,0,P|436:315|444:279,1,75,2|0,1:2|0:2,0:0:0:0:
419,128,24958,1,2,3:2:0:0:
509,190,25116,1,2,3:2:0:0:
357,294,25274,1,2,1:2:0:0:
256,43,25590,6,0,B|279:12|279:12|324:67|305:114,2,150,6|0|2,3:2|1:2|3:2,0:0:0:0:
211,119,26379,1,0,3:2:0:0:
39,73,26537,1,2,1:2:0:0:
72,155,26695,6,0,B|134:115|120:94|107:76|172:37,1,150,2|2,3:2|3:2,0:0:0:0:
155,209,27169,2,0,P|148:249|143:295,1,75,2|0,1:2|0:2,0:0:0:0:
67,244,27484,1,2,3:2:0:0:
67,244,27642,1,2,3:2:0:0:
231,256,27800,1,2,1:2:0:0:
249,252,27878,1,2,0:2:0:0:
267,249,27957,1,2,0:2:0:0:
286,246,28036,1,2,0:2:0:0:
305,244,28116,6,0,P|373:259|376:349,1,165.000005035401,6|2,3:2|1:2,0:0:0:0:
207,340,28590,2,0,P|221:258|230:176,1,165.000005035401,6|2,3:2|1:2,0:0:0:0:
167,126,29063,2,0,B|128:144|128:144|79:136,1,82.5000025177003,6|0,3:2|0:2,0:0:0:0:
267,7,29379,5,2,1:2:0:0:
244,94,29537,2,0,B|329:99|305:47|406:59,1,165.000005035401,6|2,3:2|1:2,0:0:0:0:
420,66,29932,1,0,1:2:0:0:
435,79,30011,1,2,3:2:0:0:
378,151,30169,1,2,1:2:0:0:
466,248,30327,1,2,1:2:0:0:
466,248,30484,1,2,1:2:0:0:
316,342,30642,6,0,P|232:303|242:240,1,157.499995193482,6|0,3:2|0:0,0:0:0:0:
239,246,30958,2,0,B|280:231|280:231|313:263,1,89.9999972534181,0|0,1:2|0:0,0:0:0:0:
159,344,31274,6,0,P|109:352|70:369,2,89.9999972534181,2|2|2,3:2|3:2|1:2,0:0:0:0:
147,259,31748,1,2,0:2:0:0:
147,259,31905,2,0,P|135:184|116:117,1,134.999995880127,0|0,3:2|0:0,0:0:0:0:
10,94,32221,6,0,B|84:82|41:59|132:43,1,134.999995880127,0|0,1:2|0:2,0:0:0:0:
286,126,32537,6,0,P|243:111|199:104,1,89.9999972534181,2|0,3:2|3:2,0:0:0:0:
310,35,32853,2,0,P|260:27|219:11,1,89.9999972534181,2|0,1:2|0:2,0:0:0:0:
281,218,33169,6,0,P|303:156|396:152,1,157.499995193482,2|0,3:2|0:2,0:0:0:0:
389,149,33484,2,0,P|378:194|371:236,1,89.9999972534181,2|2,1:2|0:2,0:0:0:0:
261,370,33800,1,0,3:0:0:0:
261,370,33958,1,0,3:2:0:0:
414,312,34116,1,0,1:2:0:0:
339,344,34274,5,2,0:2:0:0:
339,344,34353,1,2,0:2:0:0:
339,344,34432,2,0,P|316:300|267:295,2,89.9999972534181,2|0|0,3:2|1:2|3:0,0:0:0:0:
184,384,34905,1,2,3:2:0:0:
184,384,35063,2,0,P|176:339|166:295,1,89.9999972534181,0|0,1:2|3:2,0:0:0:0:
144,195,35379,1,2,1:2:0:0:
286,19,35695,6,0,P|353:39|357:126,1,157.499995193482,6|0,3:2|0:0,0:0:0:0:
359,122,36011,2,0,B|313:136|313:136|293:94,1,89.9999972534181,0|0,1:2|0:0,0:0:0:0:
468,95,36327,6,0,P|451:53|445:9,2,89.9999972534181,2|2|2,3:2|3:2|1:2,0:0:0:0:
396,219,36800,1,2,0:2:0:0:
396,219,36958,1,0,3:0:0:0:
490,195,37116,2,0,P|473:236|466:281,1,89.9999972534181,0|2,1:2|3:2,0:0:0:0:
396,347,37432,1,0,1:2:0:0:
305,259,37590,5,2,1:2:0:0:
305,250,37669,1,0,1:2:0:0:
299,242,37748,1,0,1:2:0:0:
236,193,37905,1,2,1:2:0:0:
168,235,38063,1,0,1:2:0:0:
181,351,38221,6,0,B|166:306|127:342|119:295,1,89.9999972534181,6|0,3:2|3:2,0:0:0:0:
239,302,38695,2,0,P|138:329|57:372,1,179.999994506836,6|0,1:2|3:2,0:0:0:0:
305,259,39169,6,0,B|331:200|374:266|392:193,1,120,6|0,3:2|3:2,0:0:0:0:
328,344,39642,2,0,P|343:239|367:123,1,225.000008583069,6|0,1:2|3:2,0:0:0:0:
450,64,40116,1,6,1:2:0:0:
463,76,40195,1,0,1:0:0:0:
465,94,40274,1,0,3:2:0:0:
263,184,40432,2,0,P|254:142|244:101,1,84.3750032186509,6|0,1:2|0:0,0:0:0:0:
255,19,40748,6,0,B|214:9|176:38|187:44|155:74|107:63,1,157.499995193482,6|0,3:2|0:0,0:0:0:0:
83,65,41063,2,0,B|74:110|74:110|102:142,1,89.9999972534181,0|0,1:2|0:0,0:0:0:0:
180,259,41379,6,0,P|139:269|94:296,2,89.9999972534181,2|2|2,3:2|3:2|1:2,0:0:0:0:
342,307,41853,1,2,0:2:0:0:
342,307,42011,2,0,P|361:248|389:177,1,134.999995880127,0|0,3:2|0:0,0:0:0:0:
397,95,42327,6,0,B|363:89|334:111|334:111|299:97|289:61,1,134.999995880127,0|0,1:2|0:2,0:0:0:0:
219,9,42642,6,0,P|176:7|114:-4,1,89.9999972534181,2|0,3:2|3:2,0:0:0:0:
210,90,42958,2,0,P|167:95|106:111,1,89.9999972534181,2|0,1:2|0:2,0:0:0:0:
49,289,43274,6,0,P|113:278|133:187,1,157.499995193482,2|0,3:2|0:2,0:0:0:0:
146,189,43590,2,0,P|191:178|247:174,1,89.9999972534181,2|2,1:2|0:2,0:0:0:0:
287,299,43905,1,0,3:0:0:0:
287,299,44063,1,0,3:2:0:0:
440,241,44221,1,0,1:2:0:0:
365,273,44379,5,2,0:2:0:0:
365,273,44458,1,2,0:2:0:0:
365,273,44537,2,0,P|342:229|293:224,2,89.9999972534181,2|0|0,3:2|1:2|3:0,0:0:0:0:
214,358,45010,1,2,3:2:0:0:
214,358,45169,2,0,P|206:313|196:269,1,89.9999972534181,0|0,1:2|3:2,0:0:0:0:
168,171,45484,1,2,1:2:0:0:
297,49,45800,6,0,P|364:69|368:156,1,157.499995193482,6|0,3:2|0:0,0:0:0:0:
346,157,46116,1,0,3:0:0:0:
168,171,46274,6,0,B|129:168|106:202|116:208|96:237|55:238,1,134.999995880127,2|0,1:2|0:0,0:0:0:0:
27,218,46590,1,0,3:0:0:0:
225,314,46748,6,0,B|243:281|279:275|279:275|307:288|318:326,1,134.999995880127,2|0,1:2|0:0,0:0:0:0:
310,354,47063,1,0,3:0:0:0:
430,207,47221,1,2,1:2:0:0:
430,207,47537,5,0,3:0:0:0:
338,71,47695,1,0,1:0:0:0:
338,62,47774,1,0,1:0:0:0:
332,54,47853,1,0,1:0:0:0:
249,35,48010,1,0,1:2:0:0:
201,100,48168,1,2,1:2:0:0:
140,246,48327,6,0,B|125:232|104:228|104:228|82:229|65:242,1,82.5000025177003,6|0,3:2|0:0,0:0:0:0:
14,313,48642,1,0,1:2:0:0:
193,343,48800,2,0,B|225:347|248:329|241:316|261:294|295:293,2,120,6|0|0,3:2|3:2|1:2,0:0:0:0:
457,272,49274,6,0,B|438:263|427:244|427:244|420:223|426:203,1,82.5000025177003,6|0,3:2|0:0,0:0:0:0:
486,140,49590,1,0,1:2:0:0:
349,73,49748,2,0,B|316:77|293:59|300:46|280:24|246:23,2,120,6|0|0,3:2|3:2|1:2,0:0:0:0:
179,138,50221,5,6,3:2:0:0:
177,155,50300,1,0,3:0:0:0:
164,168,50379,1,0,1:2:0:0:
56,298,50537,2,0,P|47:256|37:215,1,84.3750032186509,6|0,3:2|0:0,0:0:0:0:
34,203,50853,6,0,B|82:197|132:230|157:276|144:289|141:298|185:353|267:358|335:308|320:222|266:202|214:228,1,420,6|2,3:2|0:2,0:0:0:0:
157,112,53221,5,2,0:2:0:0:
164,110,53300,1,2,0:2:0:0:
171,108,53379,2,0,P|166:143|163:175,1,60,2|0,0:2|3:2,0:0:0:0:
158,29,53853,6,0,P|197:80|266:77,1,120,6|0,1:2|3:2,0:0:0:0:
503,214,54327,2,0,B|475:167|421:175|421:175|407:196|380:210,1,150,6|0,1:2|3:0,0:0:0:0:
337,118,54800,5,6,1:2:0:0:
436,286,54958,1,2,1:2:0:0:
512,105,55116,1,2,1:2:0:0:
337,118,55274,5,2,3:2:0:0:
337,118,55432,1,2,3:2:0:0:
503,214,55590,5,2,1:2:0:0:
503,214,55748,1,2,3:2:0:0:
367,293,55905,6,0,P|305:284|210:279,2,150,6|0|2,3:2|1:2|3:2,0:0:0:0:
299,206,56695,1,2,3:2:0:0:
281,360,56853,1,2,1:2:0:0:
135,288,57011,1,2,0:2:0:0:
135,288,57169,6,0,B|119:245|119:245|131:214|180:204,1,112.5,0|0,3:2|0:0,0:0:0:0:
184,192,57484,2,0,B|203:164|198:138|198:138|187:137|175:146,1,75,2|0,1:2|0:0,0:0:0:0:
41,70,57800,2,0,B|56:100|81:108|81:108|88:99|86:85,1,75,2|0,3:2|3:2,0:0:0:0:
176,35,58116,1,2,1:2:0:0:
194,34,58194,1,2,0:2:0:0:
213,33,58273,1,2,0:2:0:0:
232,30,58352,1,2,0:2:0:0:
251,27,58432,6,0,B|281:20|312:18|312:18|333:63|293:96,1,150,6|0,3:2|3:2,0:0:0:0:
187,236,58905,6,0,B|163:211|144:183|144:183|175:138|229:157,1,165.000005035401,6|0,1:2|3:2,0:0:0:0:
340,302,59379,6,0,B|330:337|313:371|313:371|254:366|242:304,1,179.999994506836,6|0,3:2|3:2,0:0:0:0:
352,146,59853,5,6,1:2:0:0:
435,224,60011,2,0,P|384:224|280:232,1,146.249993305207,0|0,3:2|0:2,0:0:0:0:
271,213,60327,6,0,P|242:163|266:109,1,97.4999955368044,6|0,3:2|3:2,0:0:0:0:
90,246,60642,2,0,P|96:198|69:159,1,97.4999955368044,2|0,1:2|3:2,0:0:0:0:
152,79,60958,5,6,1:2:0:0:
152,79,61116,1,2,3:2:0:0:
188,293,61274,5,6,1:2:0:0:
188,293,61432,1,2,3:2:0:0:
249,126,61590,5,6,1:2:0:0:
170,186,61748,1,2,1:2:0:0:
69,159,61905,1,2,3:2:0:0:
234,29,62063,6,0,L|336:4,1,104.999996795654,6|0,1:2|0:0,0:0:0:0:
249,126,62379,2,0,L|352:102,1,104.999996795654,6|0,1:2|0:0,0:0:0:0:
408,192,62695,5,2,1:2:0:0:
249,257,62853,6,0,L|352:282,1,104.999996795654,6|0,1:2|0:0,0:0:0:0:
234,355,63169,2,0,L|336:379,1,104.999996795654,4|0,1:1|0:0,0:0:0:0:
