osu file format v14

[General]
AudioFilename: audio.mp3
AudioLeadIn: 0
PreviewTime: 20458
Countdown: 0
SampleSet: Soft
StackLeniency: 0.3
Mode: 0
LetterboxInBreaks: 0
WidescreenStoryboard: 1

[Editor]
Bookmarks: 327,10432,20537,30642,40748,50853,55905,63169
DistanceSpacing: 0.5
BeatDivisor: 8
GridSize: 4
TimelineZoom: 2.1

[Metadata]
Title:The Ever-Victorious Pointy-Eared General (tnbee mix)
TitleUnicode:The Ever-Victorious Pointy-Eared General (tnbee mix)
Artist:Yu-Peng Chen @HOYO-MiX
ArtistUnicode:陈致逸 @HOYO-MiX
Creator:Wanpachi
Version:Chompy's Top Dog Gorou
Source:Genshin Impact
Tags:video game instrumental rock chompy ascended -ascended- -_ascended_- gorou ゴロー 五郎 고로 mihoyo 原神 尖耳常胜大将 立ち耳の常勝将軍 뾰족 귀의 상승 대장
BeatmapID:3365326
BeatmapSetID:1648099

[Difficulty]
HPDrainRate:5
CircleSize:4.2
OverallDifficulty:8
ApproachRate:9.2
SliderMultiplier:2.38
SliderTickRate:1

[Events]
//Background and Video events
0,0,"GOROUUU.jpg",0,0
//Break Periods
//Storyboard Layer 0 (Background)
//Storyboard Layer 1 (Fail)
//Storyboard Layer 2 (Pass)
//Storyboard Layer 3 (Foreground)
//Storyboard Layer 4 (Overlay)
//Storyboard Sound Samples

[TimingPoints]
327,315.789473684211,4,2,1,50,1,0
327,-100,4,2,1,50,0,0
10432,-100,4,2,1,60,0,0
15484,-100,4,2,1,70,0,0
19274,-100,4,2,1,50,0,0
20458,-100,4,2,1,5,0,0
20537,-100,4,2,1,70,0,0
21563,-100,4,2,1,5,0,0
21642,-100,4,2,1,70,0,0
24090,-100,4,2,1,5,0,0
24169,-100,4,2,1,70,0,0
26616,-100,4,2,1,5,0,0
26695,-100,4,2,1,70,0,0
28116,-100,4,2,1,80,0,0
28353,-100,4,2,1,5,0,0
28432,-100,4,2,1,80,0,0
29774,-100,4,2,1,5,0,0
29853,-100,4,2,1,80,0,0
30642,-100,4,2,1,70,0,0
32458,-100,4,2,1,5,0,0
32537,-100,4,2,1,70,0,0
33405,-100,4,2,1,5,0,0
33484,-100,4,2,1,70,0,0
38221,-100,4,2,1,80,0,0
38458,-100,4,2,1,5,0,0
38537,-100,4,2,1,80,0,0
40748,-100,4,2,1,70,0,0
41458,-100,4,2,1,5,0,0
41537,-100,4,2,1,70,0,0
42563,-100,4,2,1,5,0,0
42642,-100,4,2,1,70,0,0
43511,-100,4,2,1,5,0,0
43590,-100,4,2,1,70,0,0
48327,-100,4,2,1,80,0,0
48563,-100,4,2,1,5,0,0
48642,-100,4,2,1,80,0,0
49511,-100,4,2,1,5,0,0
49590,-100,4,2,1,80,0,0
50853,-100,4,2,1,60,0,0
54090,-100,4,2,1,5,0,0
54169,-100,4,2,1,60,0,0
54563,-100,4,2,1,5,0,0
54642,-100,4,2,1,60,0,0
54800,-100,4,2,1,70,0,0
57721,-100,4,2,1,5,0,0
57800,-100,4,2,1,70,0,0
60248,-100,4,2,1,5,0,0
60327,-100,4,2,1,70,0,0
60958,-100,4,2,1,90,0,0
61195,-100,4,2,1,5,0,0
61274,-100,4,2,1,90,0,0
61511,-100,4,2,1,5,0,0
61590,-100,4,2,1,90,0,0
61669,-100,4,2,1,5,0,0
61748,-100,4,2,1,90,0,0
62142,-100,4,2,1,5,0,0
62379,-100,4,2,1,90,0,0
62458,-100,4,2,1,5,0,0
62695,-100,4,2,1,90,0,0
62774,-100,4,2,1,5,0,0
62853,-100,4,2,1,90,0,0

[Colours]
Combo1 : 181,186,189
Combo2 : 230,200,152
Combo3 : 127,183,196
Combo4 : 187,85,77

[HitObjects]
132,185,327,6,0,B|106:172|76:139|67:103|103:22|103:22|121:76|143:84|173:78|193:99|199:125|194:160,2,356.999989105225,2|2|2,0:2|0:2|0:2,0:0:0:0:
380,185,1590,2,0,B|406:172|436:139|445:103|409:22|409:22|391:76|369:84|339:78|319:99|313:125|318:160,2,356.999989105225,2|2|2,0:2|0:2|0:2,0:0:0:0:
203,306,2853,5,2,0:2:0:0:
45,343,3327,1,2,0:2:0:0:
151,144,3800,1,2,0:2:0:0:
309,306,4116,5,2,0:2:0:0:
467,343,4590,1,2,0:2:0:0:
361,144,5063,1,2,0:0:0:0:
190,298,5379,6,0,B|148:309|104:282|104:282|59:283|23:259|23:259|36:308|84:316|84:316|89:330|89:330|132:319|166:339,2,356.999989105225,2|2|2,0:2|0:2|0:2,0:0:0:0:
322,298,6642,2,0,B|363:309|407:282|407:282|452:283|488:259|488:259|475:308|427:316|427:316|422:330|422:330|380:319|345:339,2,356.999989105225,2|2|2,0:2|0:2|0:2,0:0:0:0:
211,117,7905,5,2,0:2:0:0:
29,183,8379,1,2,0:2:0:0:
164,337,8853,1,2,0:2:0:0:
301,117,9169,5,2,0:2:0:0:
483,183,9643,1,2,0:2:0:0:
348,337,10117,1,2,0:2:0:0:
203,95,10432,6,0,P|116:164|27:98,1,237.999992736817,2|0,3:2|0:2,0:0:0:0:
256,12,10905,1,2,0:2:0:0:
309,95,11063,2,0,P|395:164|484:98,1,237.999992736817,0|2,3:2|0:2,0:0:0:0:
446,312,11695,6,0,B|459:287|483:279|483:279|430:261|391:305|407:320|365:350|317:336,1,237.999992736817,2|0,3:2|0:2,0:0:0:0:
256,229,12169,1,2,0:2:0:0:
194,336,12327,2,0,B|146:350|104:320|120:305|81:261|28:279|28:279|52:287|66:312,1,237.999992736817,0|2,3:2|0:2,0:0:0:0:
443,138,12958,6,0,B|490:128|490:128|501:61|439:12|365:31,1,237.999992736817,2|0,3:2|0:2,0:0:0:0:
256,129,13432,1,2,0:2:0:0:
69,138,13590,2,0,B|22:128|22:128|11:61|73:12|147:31,1,237.999992736817,0|2,3:2|0:2,0:0:0:0:
395,194,14221,6,0,B|404:209|427:215|427:215|366:199|338:261|295:206|302:159|345:148|374:175,1,237.999992736817,2|0,3:2|0:2,0:0:0:0:
256,54,14695,1,2,0:2:0:0:
117,194,14853,2,0,B|108:209|85:215|85:215|146:199|174:261|217:206|210:159|167:148|138:175,1,237.999992736817,4|2,3:2|0:2,0:0:0:0:
499,291,15484,6,0,B|476:319|476:319|405:279|325:309|325:309|343:326|350:347,1,237.999992736817,6|0,3:2|0:2,0:0:0:0:
256,229,15958,1,2,0:2:0:0:
162,347,16116,2,0,B|169:326|187:309|187:309|107:279|36:319|36:319|13:291,1,237.999992736817,0|2,3:2|0:2,0:0:0:0:
159,108,16748,6,0,B|201:117|241:95|257:58|257:58|274:97|316:117|355:108,1,237.999992736817,2|0,3:2|0:2,0:0:0:0:
256,274,17221,1,2,0:2:0:0:
307,208,17379,2,0,P|255:183|203:208,1,118.999996368408,0|0,3:2|3:2,0:0:0:0:
256,348,17695,1,2,1:2:0:0:
428,245,18011,6,0,B|434:214|458:200|458:200|472:167|455:136,1,118.999996368408,6|0,1:2|0:2,0:0:0:0:
84,245,18327,2,0,B|78:214|54:200|54:200|40:167|57:136,1,118.999996368408,6|0,1:2|0:2,0:0:0:0:
201,332,18642,6,0,B|256:353|256:353|311:332,1,118.999996368408,6|0,1:2|3:2,0:0:0:0:
159,108,18958,1,2,1:2:0:0:
353,108,19116,1,6,1:2:0:0:
353,108,19432,5,2,0:2:0:0:
256,192,19590,1,2,0:2:0:0:
159,108,19748,1,2,0:2:0:0:
231,35,19905,5,2,3:2:0:0:
256,12,19984,1,0,3:2:0:0:
281,35,20063,1,2,3:2:0:0:
247,268,20221,2,0,B|230:300|256:321|256:321|281:300|264:268,1,118.999996368408,6|2,1:2|3:2,0:0:0:0:
159,108,20537,6,0,B|134:100|121:78|121:78|81:74|55:99,1,119,6|0,3:2|0:0,0:0:0:0:
256,12,20853,1,0,1:2:0:0:
353,108,21011,2,0,B|378:100|391:78|391:78|431:74|457:99,2,119,0|2|0,0:2|3:2|3:2,0:0:0:0:
256,155,21484,1,2,1:2:0:0:
149,319,21642,6,0,B|166:349|205:349|205:349|245:339|245:339|256:336|266:339|266:339|306:349|306:349|345:349|362:319,1,238,2|2,3:2|3:2,0:0:0:0:
256,249,22116,1,2,1:2:0:0:
328,73,22432,5,2,3:2:0:0:
183,73,22590,1,2,3:2:0:0:
276,275,22748,2,0,B|260:251|256:219|256:219|252:251|236:274,1,118.999996368408,2|0,1:2|0:2,0:0:0:0:
34,361,23063,6,0,B|65:363|88:345|81:336|105:315|140:317,1,118.999996368408,2|0,3:2|0:0,0:0:0:0:
256,345,23379,1,0,1:2:0:0:
478,361,23537,2,0,B|447:363|424:345|431:336|407:315|372:317,2,118.999996368408,0|2|0,0:2|3:2|3:2,0:0:0:0:
256,192,24011,1,2,1:2:0:0:
328,73,24169,6,0,B|340:46|340:46|305:22|256:22|256:22|206:22|171:46|171:46|183:73,1,237.999992736817,2|2,3:2|3:2,0:0:0:0:
256,123,24642,1,2,1:2:0:0:
371,317,24958,5,2,3:2:0:0:
141,317,25116,1,2,3:2:0:0:
256,259,25274,1,2,1:2:0:0:
256,259,25432,1,0,0:2:0:0:
135,169,25590,6,0,B|126:196|100:214|58:206|58:206|52:178,1,118.999996368408,6|0,3:2|0:0,0:0:0:0:
256,123,25905,1,0,1:2:0:0:
377,169,26063,2,0,B|386:196|412:214|454:206|454:206|460:178,2,118.999996368408,0|2|0,0:2|3:2|3:2,0:0:0:0:
319,308,26537,1,2,1:2:0:0:
193,308,26695,1,2,3:2:0:0:
193,308,27011,5,2,3:2:0:0:
256,123,27169,1,2,1:2:0:0:
319,308,27327,1,0,0:2:0:0:
135,169,27484,5,2,3:2:0:0:
377,169,27642,1,2,3:2:0:0:
193,308,27800,5,2,1:2:0:0:
319,308,27958,1,2,0:2:0:0:
60,241,28116,6,0,B|115:227|115:227|134:168,1,118.999996368408,6|0,3:2|0:0,0:0:0:0:
162,61,28432,1,2,1:2:0:0:
452,241,28590,6,0,B|396:227|396:227|377:168,1,118.999996368408,6|0,3:2|0:2,0:0:0:0:
350,61,28906,1,2,1:2:0:0:
305,353,29063,6,0,P|358:360|370:307,1,118.999996368408,6|0,3:2|0:2,0:0:0:0:
212,192,29379,1,2,1:2:0:0:
207,353,29537,6,0,P|153:360|141:307,1,118.999996368408,6|0,3:2|0:0,0:0:0:0:
300,192,29853,1,2,1:2:0:0:
207,29,30011,6,0,B|228:34|248:22|256:4|256:4|264:24|286:34|305:29,2,118.999996368408,2|2|2,3:2|1:2|1:2,0:0:0:0:
163,357,30642,6,0,B|193:338|206:306|206:306|233:308|256:294|256:294|278:308|305:306|305:306|318:338|348:357,1,237.999992736817,6|0,3:2|1:2,0:0:0:0:
343,119,31274,5,2,3:2:0:0:
256,183,31432,1,2,3:2:0:0:
169,119,31590,1,2,1:2:0:0:
264,68,31748,6,0,B|281:36|256:15|256:15|230:36|247:68,1,118.999996368408,2|0,0:2|3:2,0:0:0:0:
147,306,32063,2,0,B|179:290|214:304|214:304|256:278|256:278|298:304|298:304|333:290|365:306,1,237.999992736817,2|0,3:2|0:0,0:0:0:0:
200,149,32537,2,0,B|239:144|239:144|256:152|256:152|274:144|274:144|313:149,2,118.999996368408,2|0|2,3:2|3:2|1:2,0:0:0:0:
442,268,33169,6,0,B|405:223|405:223|426:184|433:103|373:60,1,238,2|2,3:2|1:2,0:0:0:0:
139,60,33642,2,0,B|79:103|86:184|107:223|107:223|70:268,1,238,2|0,0:2|3:2,0:0:0:0:
256,331,34116,1,0,1:2:0:0:
295,69,34274,1,2,0:2:0:0:
295,69,34353,1,2,0:2:0:0:
295,69,34432,6,0,B|256:24|256:24|217:69,1,118.999996368408,2|0,3:2|1:2,0:0:0:0:
256,159,34748,1,0,3:0:0:0:
256,159,34905,1,2,3:2:0:0:
185,318,35063,5,0,1:2:0:0:
121,230,35221,1,0,3:2:0:0:
391,230,35379,5,2,1:2:0:0:
327,318,35537,1,0,3:2:0:0:
159,64,35695,6,0,B|196:68|213:100|213:100|237:77|256:77|256:77|275:77|299:100|299:100|316:68|353:64,1,238,6|0,3:2|1:2,0:0:0:0:
303,352,36327,6,0,B|292:334|275:322|256:318|256:318|235:322|219:335|209:352,2,119,2|2|2,3:2|3:2|1:2,0:0:0:0:
256,241,36800,1,2,0:2:0:0:
256,241,37116,5,0,1:2:0:0:
146,142,37274,1,2,3:2:0:0:
366,142,37432,1,0,1:2:0:0:
281,35,37590,5,2,1:2:0:0:
256,12,37669,1,0,1:2:0:0:
231,35,37748,1,0,1:2:0:0:
248,242,37905,2,0,B|256:183|256:183|264:242,1,118.999996368408,2|0,1:2|1:2,0:0:0:0:
178,336,38221,6,0,B|143:325|112:346|112:346|48:310|60:230|99:203,1,238,6|0,3:2|3:2,0:0:0:0:
412,203,38695,2,0,B|451:230|463:310|399:346|399:346|369:325|334:336,1,238,6|0,1:2|3:2,0:0:0:0:
208,124,39169,6,0,B|144:135|102:92|123:67|69:12|6:32,1,238,6|0,3:2|3:2,0:0:0:0:
304,124,39642,2,0,B|367:135|409:92|388:67|442:12|505:32,1,238,6|0,1:2|3:2,0:0:0:0:
332,270,40116,5,6,1:2:0:0:
329,299,40195,1,0,1:0:0:0:
309,321,40274,1,0,3:2:0:0:
279,319,40353,1,0,3:0:0:0:
256,298,40432,1,6,1:2:0:0:
233,319,40511,1,0,1:0:0:0:
203,321,40590,1,0,1:0:0:0:
183,299,40669,1,0,1:0:0:0:
180,270,40748,1,6,3:2:0:0:
256,30,41063,5,0,1:2:0:0:
152,192,41379,5,2,3:2:0:0:
256,298,41537,1,2,3:2:0:0:
360,192,41695,1,2,1:2:0:0:
309,42,41853,6,0,B|283:61|283:61|256:58|256:58|229:61|229:61|203:42,1,119,2|0,0:2|3:2,0:0:0:0:
149,335,42169,2,0,B|195:347|195:347|212:338|228:320|228:320|256:325|256:325|284:320|284:320|300:338|317:347|317:347|363:335,1,238,2|0,3:2|0:0,0:0:0:0:
305,184,42642,2,0,B|286:189|264:179|256:159|256:159|248:177|228:189|207:184,2,118.999996368408,2|0|2,3:2|3:2|1:2,0:0:0:0:
34,248,43274,6,0,B|79:248|105:212|105:212|109:176|90:136|90:136|132:128|150:93,1,238,2|2,3:2|1:2,0:0:0:0:
361,93,43748,2,0,B|380:128|422:136|422:136|403:176|407:212|407:212|433:248|478:248,1,238,2|0,0:2|3:2,0:0:0:0:
256,332,44221,1,0,1:2:0:0:
256,145,44379,1,2,0:2:0:0:
256,145,44458,1,2,0:2:0:0:
256,145,44537,5,2,3:2:0:0:
256,29,44695,1,0,1:2:0:0:
256,29,45011,5,2,3:2:0:0:
330,177,45169,5,0,1:2:0:0:
383,284,45327,1,0,3:2:0:0:
129,284,45484,5,2,1:2:0:0:
182,177,45642,1,0,0:0:0:0:
356,79,45800,6,0,B|377:114|423:123|423:123|423:167|398:198|398:198|362:206|329:176,1,238,6|0,3:2|3:2,0:0:0:0:
156,79,46274,2,0,B|135:114|89:123|89:123|89:167|114:198|114:198|150:206|183:176,1,238,2|0,1:2|3:2,0:0:0:0:
434,320,46748,6,0,B|463:293|484:318|477:353|446:371|401:353|414:320|398:288|349:272|304:285,1,238,2|0,1:2|3:2,0:0:0:0:
78,320,47221,2,0,B|48:293|27:318|34:353|65:371|110:353|97:320|113:288|162:272|207:285,1,238,2|0,1:2|1:2,0:0:0:0:
281,76,47695,5,0,1:0:0:0:
256,53,47774,1,0,1:0:0:0:
231,76,47853,1,0,1:0:0:0:
379,32,48011,5,0,1:2:0:0:
133,32,48169,1,2,1:2:0:0:
208,285,48327,5,6,3:2:0:0:
86,245,48484,1,0,0:0:0:0:
126,123,48642,1,0,1:2:0:0:
304,285,48800,5,6,3:2:0:0:
426,245,48957,1,0,3:2:0:0:
386,123,49116,1,0,1:2:0:0:
190,185,49274,5,6,3:2:0:0:
140,36,49432,1,0,0:0:0:0:
35,153,49590,1,0,1:2:0:0:
322,185,49748,5,6,3:2:0:0:
372,36,49906,1,0,3:2:0:0:
477,153,50064,1,0,1:2:0:0:
281,305,50221,5,6,3:2:0:0:
256,282,50300,1,0,3:0:0:0:
231,305,50379,1,0,1:2:0:0:
174,190,50537,5,6,3:2:0:0:
338,190,50695,1,0,1:2:0:0:
256,111,50853,5,6,3:2:0:0:
256,192,50932,12,2,53379,0:2:0:0:
424,177,53695,5,0,3:2:0:0:
396,304,53853,1,6,1:2:0:0:
88,177,54169,5,0,3:2:0:0:
116,304,54327,1,6,1:2:0:0:
256,178,54642,5,0,3:2:0:0:
256,44,54800,2,0,L|256:6,4,29.75,6|0|0|0|2,1:2|3:0|3:0|3:0|1:2,0:0:0:0:
256,323,55116,5,2,1:2:0:0:
130,232,55274,1,2,3:2:0:0:
178,85,55432,1,2,3:2:0:0:
333,85,55590,1,2,1:2:0:0:
381,232,55748,1,2,3:2:0:0:
205,253,55905,6,0,B|175:252|153:231|163:220|139:193|103:197,1,119,6|0,3:2|0:0,0:0:0:0:
42,303,56221,1,0,1:2:0:0:
307,253,56379,6,0,B|337:252|359:231|349:220|373:193|409:197,1,119,0|2,0:0|3:2,0:0:0:0:
470,303,56695,1,2,3:2:0:0:
404,105,56853,6,0,B|459:131|497:106|497:106|492:84,1,119,2|2,1:2|0:2,0:0:0:0:
332,22,57169,1,0,3:2:0:0:
108,105,57327,6,0,B|53:131|15:106|15:106|19:84,1,119,0|2,0:2|1:2,0:0:0:0:
180,22,57643,1,0,0:0:0:0:
171,274,57800,5,2,3:2:0:0:
341,274,57958,1,0,3:2:0:0:
210,115,58116,5,2,1:2:0:0:
231,68,58195,1,2,0:2:0:0:
280,68,58274,1,2,0:2:0:0:
300,115,58353,1,2,0:2:0:0:
325,156,58432,6,0,B|363:150|393:174|393:174|437:157,1,119,6|0,3:2|0:0,0:0:0:0:
396,30,58748,1,0,3:2:0:0:
187,156,58905,6,0,B|149:150|119:174|119:174|74:157,1,119,6|0,1:2|3:2,0:0:0:0:
116,30,59221,1,0,3:2:0:0:
339,233,59379,5,6,3:2:0:0:
478,84,59537,1,0,3:0:0:0:
319,46,59695,1,0,3:2:0:0:
173,233,59853,5,6,1:2:0:0:
34,84,60011,1,0,3:2:0:0:
193,46,60169,1,0,0:0:0:0:
339,233,60327,5,6,3:2:0:0:
396,66,60484,1,0,3:2:0:0:
116,66,60642,5,2,1:2:0:0:
173,233,60799,1,0,3:2:0:0:
256,72,60958,5,6,1:2:0:0:
130,163,61116,1,2,3:2:0:0:
178,310,61274,1,6,1:2:0:0:
333,310,61432,1,2,3:2:0:0:
381,163,61590,1,6,1:2:0:0:
256,367,61905,5,2,3:2:0:0:
158,277,62063,2,0,B|200:286|240:264|256:227|256:227|273:266|315:286|354:277,1,237.999992736817,6|6,1:2|1:2,0:0:0:0:
256,43,62695,5,2,1:2:0:0:
170,107,62853,6,0,P|133:139|162:96,1,119,6|0,1:2|0:0,0:0:0:0:
342,107,63169,2,0,P|378:139|349:96,1,119,4|0,1:1|0:0,0:0:0:0:
