osu file format v14

[General]
AudioFilename: audio.mp3
AudioLeadIn: 0
PreviewTime: 20458
Countdown: 0
SampleSet: Soft
StackLeniency: 0.4
Mode: 0
LetterboxInBreaks: 0
WidescreenStoryboard: 1

[Editor]
Bookmarks: 327,10432,20537,30642,40748,50853,55905
DistanceSpacing: 0.5
BeatDivisor: 8
GridSize: 32
TimelineZoom: 1.7

[Metadata]
Title:The Ever-Victorious Pointy-Eared General (tnbee mix)
TitleUnicode:The Ever-Victorious Pointy-Eared General (tnbee mix)
Artist:Yu-Peng Chen @HOYO-MiX
ArtistUnicode:陈致逸 @HOYO-MiX
Creator:Wanpachi
Version:Ascended Wanpachi's Hard
Source:Genshin Impact
Tags:video game instrumental rock chompy ascended -ascended- -_ascended_- gorou ゴロー 五郎 고로 mihoyo 原神 尖耳常胜大将 立ち耳の常勝将軍 뾰족 귀의 상승 대장
BeatmapID:3365265
BeatmapSetID:1648099

[Difficulty]
HPDrainRate:5
CircleSize:3.6
OverallDifficulty:5.5
ApproachRate:7.8
SliderMultiplier:1.3
SliderTickRate:1

[Events]
//Background and Video events
0,0,"GOROOU.jpg",0,0
//Break Periods
//Storyboard Layer 0 (Background)
//Storyboard Layer 1 (Fail)
//Storyboard Layer 2 (Pass)
//Storyboard Layer 3 (Foreground)
//Storyboard Layer 4 (Overlay)
//Storyboard Sound Samples

[TimingPoints]
327,315.789473684211,4,2,1,50,1,0
327,-125,4,2,1,50,0,0
10432,-111.111111111111,4,2,1,60,0,0
15484,-111.111111111111,4,2,1,70,0,0
18011,-100,4,2,1,70,0,0
19274,-100,4,2,1,50,0,0
20458,-100,4,2,1,5,0,0
20537,-83.3333333333333,4,2,1,70,0,0
20774,-83.3333333333333,4,2,1,5,0,0
20853,-83.3333333333333,4,2,1,70,0,0
21563,-83.3333333333333,4,2,1,5,0,0
21642,-83.3333333333333,4,2,1,70,0,0
23300,-83.3333333333333,4,2,1,5,0,0
23379,-83.3333333333333,4,2,1,70,0,0
24090,-83.3333333333333,4,2,1,5,0,0
24169,-83.3333333333333,4,2,1,70,0,0
25827,-83.3333333333333,4,2,1,5,0,0
25906,-83.3333333333333,4,2,1,70,0,0
26616,-83.3333333333333,4,2,1,5,0,0
26695,-83.3333333333333,4,2,1,70,0,0
28037,-83.3333333333333,4,2,1,5,0,0
28116,-76.9230769230769,4,2,1,80,0,1
28353,-76.9230769230769,4,2,1,5,0,1
28432,-76.9230769230769,4,2,1,80,0,1
29774,-76.9230769230769,4,2,1,5,0,1
29853,-76.9230769230769,4,2,1,80,0,1
30642,-100,4,2,1,70,0,0
32458,-100,4,2,1,5,0,0
32537,-100,4,2,1,70,0,0
32774,-83.3333333333333,4,2,1,5,0,0
32853,-100,4,2,1,70,0,0
33405,-100,4,2,1,5,0,0
33484,-100,4,2,1,70,0,0
37195,-100,4,2,1,5,0,0
37274,-100,4,2,1,70,0,0
38221,-90.9090909090909,4,2,1,80,0,1
38458,-90.9090909090909,4,2,1,5,0,1
38537,-90.9090909090909,4,2,1,80,0,1
40037,-90.9090909090909,4,2,1,5,0,1
40116,-90.9090909090909,4,2,1,80,0,1
40748,-90.9090909090909,4,2,1,70,0,0
40984,-90.9090909090909,4,2,1,5,0,0
41063,-90.9090909090909,4,2,1,70,0,0
41458,-90.9090909090909,4,2,1,5,0,0
41537,-90.9090909090909,4,2,1,70,0,0
42563,-90.9090909090909,4,2,1,5,0,0
42642,-90.9090909090909,4,2,1,70,0,0
42879,-90.9090909090909,4,2,1,5,0,0
42958,-90.9090909090909,4,2,1,70,0,0
43511,-90.9090909090909,4,2,1,5,0,0
43590,-90.9090909090909,4,2,1,70,0,0
48327,-76.9230769230769,4,2,1,80,0,1
48563,-76.9230769230769,4,2,1,5,0,1
48642,-76.9230769230769,4,2,1,80,0,1
49511,-76.9230769230769,4,2,1,5,0,1
49590,-76.9230769230769,4,2,1,80,0,1
50774,-76.9230769230769,4,2,1,5,0,1
50853,-125,4,2,1,60,0,0
53853,-111.111111111111,4,2,1,60,0,0
54090,-111.111111111111,4,2,1,5,0,0
54169,-111.111111111111,4,2,1,60,0,0
54563,-111.111111111111,4,2,1,5,0,0
54642,-111.111111111111,4,2,1,60,0,0
54800,-111.111111111111,4,2,1,70,0,0
55905,-100,4,2,1,70,0,0
57405,-100,4,2,1,5,0,0
57484,-100,4,2,1,70,0,0
57721,-100,4,2,1,5,0,0
57800,-100,4,2,1,70,0,0
60248,-100,4,2,1,5,0,0
60327,-100,4,2,1,70,0,0
60958,-90.9090909090909,4,2,1,90,0,1
61195,-90.9090909090909,4,2,1,5,0,1
61274,-90.9090909090909,4,2,1,90,0,1
61511,-90.9090909090909,4,2,1,5,0,1
61590,-90.9090909090909,4,2,1,90,0,1
61669,-90.9090909090909,4,2,1,5,0,1
61748,-90.9090909090909,4,2,1,90,0,1
62142,-90.9090909090909,4,2,1,5,0,1
62379,-90.9090909090909,4,2,1,90,0,1
62458,-90.9090909090909,4,2,1,5,0,1
62695,-90.9090909090909,4,2,1,90,0,1
62774,-90.9090909090909,4,2,1,5,0,1
62853,-90.9090909090909,4,2,1,90,0,1
63169,-100,4,2,1,90,0,0

[Colours]
Combo1 : 181,186,189
Combo2 : 230,200,152
Combo3 : 127,183,196
Combo4 : 187,85,77

[HitObjects]
390,123,327,6,0,P|461:100|471:26,2,156,2|2|2,0:2|0:2|0:2,0:0:0:0:
267,172,1590,2,0,P|345:217|361:286,1,156,2|2,0:2|0:2,0:0:0:0:
505,201,2537,1,2,0:2:0:0:
450,312,2853,6,0,P|378:323|296:340,2,156,2|2|2,0:2|0:2|0:2,0:0:0:0:
402,189,4116,2,0,P|323:176|245:160,1,156,2|2,0:2|0:2,0:0:0:0:
186,101,4748,6,0,P|174:75|171:47,1,52,2|2,0:0|0:0,0:0:0:0:
248,27,5063,2,0,P|260:53|263:81,1,52,2|2,0:0|0:0,0:0:0:0:
248,161,5379,6,0,P|182:165|141:252,2,156,2|2|2,0:2|0:2|0:2,0:0:0:0:
339,252,6642,2,0,P|405:256|446:343,1,156,2|2,0:2|0:2,0:0:0:0:
284,373,7590,1,2,0:2:0:0:
335,256,7905,6,0,P|346:176|366:100,2,156,2|2|2,0:2|0:2|0:2,0:0:0:0:
208,311,9169,2,0,P|197:231|177:155,1,156,2|2,0:2|0:2,0:0:0:0:
175,77,9800,2,0,P|138:84|119:102,2,52,0|0|2,0:0|0:0|0:2,0:0:0:0:
413,11,10432,6,0,P|390:95|378:182,1,175.499994644165,2|2,3:2|0:2,0:0:0:0:
377,265,11063,2,0,P|445:262|440:215,1,116.999996429443,0|2,3:2|0:2,0:0:0:0:
307,85,11695,2,0,B|199:71|242:121|111:103,1,175.499994644165,2|2,3:2|0:2,0:0:0:0:
52,85,12327,2,0,P|62:30|134:32,1,116.999996429443,0|2,3:2|0:2,0:0:0:0:
154,191,12958,6,0,P|141:266|130:374,1,175.499994644165,2|2,3:2|0:2,0:0:0:0:
211,331,13590,2,0,P|238:368|314:368,1,116.999996429443,0|2,3:2|0:2,0:0:0:0:
395,193,14221,2,0,P|331:193|290:301,1,175.499994644165,2|2,3:2|0:2,0:0:0:0:
369,308,14853,1,4,3:2:0:0:
477,225,15169,1,2,0:2:0:0:
375,99,15484,6,0,P|311:112|185:134,1,175.499994644165,6|2,3:2|0:2,0:0:0:0:
137,195,16116,2,0,P|186:229|253:199,1,116.999996429443,0|2,3:2|0:2,0:0:0:0:
279,35,16748,6,0,B|346:51|321:85|388:103,1,116.999996429443,2|0,3:2|0:2,0:0:0:0:
465,100,17221,1,2,0:2:0:0:
465,100,17379,2,0,P|454:128|446:156,1,58.4999982147217,0|0,3:2|3:2,0:0:0:0:
362,182,17695,2,0,P|372:209|381:237,1,58.4999982147217,2|0,1:2|3:2,0:0:0:0:
500,301,18011,6,0,P|491:265|464:238,1,65,6|0,1:2|0:2,0:0:0:0:
381,237,18327,2,0,P|354:262|344:299,1,65,6|0,1:2|0:2,0:0:0:0:
386,373,18642,2,0,P|421:383|458:373,1,65,6|0,1:2|3:2,0:0:0:0:
421,303,18958,1,2,1:2:0:0:
311,356,19116,5,6,1:2:0:0:
480,249,19905,6,0,L|534:255,2,32.5,2|0|2,3:2|3:2|3:2,0:0:0:0:
399,179,20221,1,6,1:2:0:0:
399,179,20379,1,2,3:2:0:0:
375,280,20537,6,0,P|321:289|251:310,1,116.999996429443,6|0,3:2|0:0,0:0:0:0:
252,308,20853,2,0,B|225:276|225:276|237:239,1,77.999997619629,0|0,1:2|0:2,0:0:0:0:
271,143,21169,2,0,P|317:191|402:178,1,155.999995239258,2|2,3:2|1:2,0:0:0:0:
477,112,21642,6,0,P|489:68|503:33,1,77.999997619629,2|0,3:2|0:2,0:0:0:0:
412,13,21958,1,2,3:2:0:0:
412,13,22116,2,0,P|400:57|386:92,1,77.999997619629,2|0,1:2|0:2,0:0:0:0:
399,178,22432,2,0,P|361:176|326:201,2,77.999997619629,2|2|2,3:2|3:2|1:2,0:0:0:0:
214,29,23063,6,0,P|279:53|285:110,1,116.999996429443,2|0,3:2|0:0,0:0:0:0:
293,99,23379,2,0,B|261:124|261:124|225:115,1,77.999997619629,0|0,1:2|0:2,0:0:0:0:
127,74,23695,2,0,P|147:134|166:241,1,155.999995239258,2|2,3:2|1:2,0:0:0:0:
177,317,24169,6,0,P|170:360|147:383,1,77.999997619629,2|0,3:2|0:2,0:0:0:0:
61,345,24484,1,2,3:2:0:0:
61,345,24642,2,0,P|68:302|91:279,1,77.999997619629,2|0,1:2|0:2,0:0:0:0:
164,224,24958,2,0,P|170:185|182:148,2,77.999997619629,2|2|2,3:2|3:2|1:2,0:0:0:0:
411,324,25590,6,0,P|454:277|420:214,1,116.999996429443,6|0,3:2|0:0,0:0:0:0:
435,228,25905,2,0,B|396:222|396:222|366:246,1,77.999997619629,0|0,1:2|0:2,0:0:0:0:
325,351,26221,2,0,P|262:316|264:239,1,155.999995239258,2|2,3:2|1:2,0:0:0:0:
285,144,26695,6,0,P|271:107|262:70,1,77.999997619629,2|0,3:2|0:2,0:0:0:0:
173,94,27011,1,2,3:2:0:0:
173,94,27169,2,0,P|187:131|196:169,1,77.999997619629,2|0,1:2|0:2,0:0:0:0:
263,239,27484,2,0,P|231:277|198:278,1,77.999997619629,2|2,3:2|3:2,0:0:0:0:
146,373,27800,2,0,P|105:344|111:277,1,116.999996429443,2|2,1:2|0:2,0:0:0:0:
112,277,28116,6,0,P|198:295|228:380,1,168.999992263794,6|2,3:2|1:2,0:0:0:0:
327,384,28590,2,0,P|336:343|380:318,1,84.4999961318971,6|0,3:2|0:2,0:0:0:0:
455,285,28905,1,2,1:2:0:0:
438,378,29063,2,0,P|418:296|384:219,1,168.999992263794,6|2,3:2|1:2,0:0:0:0:
474,197,29537,2,0,P|484:153|502:113,1,84.4999961318971,6|0,3:2|0:0,0:0:0:0:
413,37,29853,5,2,1:2:0:0:
413,37,29932,1,0,1:2:0:0:
413,37,30011,2,0,P|364:33|339:65,1,84.4999961318971,2|2,3:2|1:2,0:0:0:0:
402,128,30327,1,2,1:2:0:0:
402,128,30484,1,2,1:2:0:0:
266,105,30642,6,0,B|190:95|220:133|124:120,1,130,6|0,3:2|1:2,0:0:0:0:
34,249,31274,1,2,3:2:0:0:
119,263,31432,2,0,P|114:227|100:189,1,65,2|2,3:2|1:2,0:0:0:0:
139,121,31748,2,0,P|144:85|158:47,1,65,2|0,0:2|3:2,0:0:0:0:
245,0,32063,6,0,P|284:52|353:45,1,130,2|0,3:2|0:0,0:0:0:0:
441,20,32537,2,0,P|425:80|422:135,1,97.5,2|0,3:2|0:0,0:0:0:0:
415,128,32853,2,0,P|440:152|492:148,1,65,2|0,1:2|0:2,0:0:0:0:
512,245,33169,6,0,P|449:256|404:302,1,130,2|2,3:2|1:2,0:0:0:0:
380,384,33642,2,0,B|308:367|350:337|265:313,1,130,2|0,0:2|3:2,0:0:0:0:
264,225,34116,2,0,P|226:245|188:258,1,65,0|2,1:2|0:2,0:0:0:0:
196,265,34353,1,2,0:2:0:0:
190,277,34432,6,0,P|128:250|127:185,1,130,2|0,3:2|3:0,0:0:0:0:
203,150,34905,1,2,3:2:0:0:
124,102,35063,2,0,P|88:108|53:121,1,65,0|0,1:2|3:2,0:0:0:0:
209,57,35379,2,0,P|245:63|280:76,1,65,2|0,1:2|3:2,0:0:0:0:
127,8,35695,6,0,B|56:3|73:40|-11:40,1,130,6|0,3:2|1:2,0:0:0:0:
122,194,36327,1,2,3:2:0:0:
54,137,36484,2,0,P|34:173|34:204,1,65,2|2,3:2|1:2,0:0:0:0:
77,272,36800,1,2,0:2:0:0:
168,271,36958,6,0,P|199:265|231:259,1,65,0|0,3:0|1:0,0:0:0:0:
306,207,37274,2,0,P|309:239|327:266,1,65,2|0,3:2|1:2,0:0:0:0:
386,345,37590,1,2,1:2:0:0:
386,345,37669,1,0,1:2:0:0:
386,345,37748,1,0,1:2:0:0:
454,276,37905,1,2,1:2:0:0:
386,201,38063,1,0,1:2:0:0:
454,139,38221,6,0,B|463:118|453:90|453:90|487:125|474:176,1,143.000004364014,6|0,3:2|3:2,0:0:0:0:
362,103,38695,2,0,B|315:96|324:145|262:136|284:92|237:85,1,143.000004364014,6|0,1:2|3:2,0:0:0:0:
161,34,39169,2,0,P|156:70|140:112,1,71.5000021820069,6|0,3:2|0:2,0:0:0:0:
206,170,39484,5,0,3:2:0:0:
85,195,39642,2,0,B|74:178|75:159|75:159|95:182|119:188|119:188|83:220|90:282,1,178.750005455017,6|0,1:2|0:0,0:0:0:0:
97,289,40116,2,0,P|125:319|162:327,1,71.5000021820069,6|0,1:2|3:2,0:0:0:0:
230,286,40432,2,0,P|202:256|165:248,1,71.5000021820069,6|0,1:2|1:0,0:0:0:0:
231,371,40748,6,0,L|342:353,1,107.25000327301,6|0,3:2|0:0,0:0:0:0:
340,357,41063,2,0,B|363:330|363:330|352:291,1,71.5000021820069,0|0,1:2|0:0,0:0:0:0:
295,202,41379,1,2,3:2:0:0:
373,219,41537,2,0,L|384:148,1,71.5000021820069,2|2,3:2|1:2,0:0:0:0:
296,111,41853,2,0,L|284:40,1,71.5000021820069,2|0,0:2|3:2,0:0:0:0:
376,60,42169,6,0,B|413:47|413:47|424:11,2,71.5000021820069,2|0|0,3:2|1:2|0:0,0:0:0:0:
296,111,42642,2,0,L|188:93,1,107.25000327301,2|0,3:2|0:0,0:0:0:0:
186,89,42958,2,0,L|112:100,1,71.5000021820069,2|0,1:2|0:2,0:0:0:0:
42,33,43274,6,0,B|12:57|12:57|26:167,1,143.000004364014,2|2,3:2|1:2,0:0:0:0:
101,251,43748,1,2,0:2:0:0:
101,251,43905,2,0,L|112:177,2,71.5000021820069,0|0|0,3:0|3:2|1:2,0:0:0:0:
30,317,44379,5,2,0:2:0:0:
30,317,44458,1,2,0:2:0:0:
30,317,44537,1,2,3:2:0:0:
118,365,44695,2,0,B|128:332|128:332|236:308,1,143.000004364014,0|2,1:2|3:2,0:0:0:0:
319,351,45169,2,0,B|334:317|334:317|326:272,1,71.5000021820069,0|0,1:2|3:2,0:0:0:0:
263,215,45484,1,2,1:2:0:0:
350,64,45800,6,0,P|419:68|446:138,1,143.000004364014,6|0,3:2|3:2,0:0:0:0:
419,211,46274,2,0,P|386:190|354:180,1,71.5000021820069,2|0,1:2|3:2,0:0:0:0:
281,131,46590,1,0,3:2:0:0:
246,49,46748,2,0,P|178:71|118:111,1,143.000004364014,2|0,1:2|3:2,0:0:0:0:
33,70,47221,2,0,P|12:98|19:141,1,71.5000021820069,2|0,1:2|3:2,0:0:0:0:
86,193,47537,1,0,1:2:0:0:
30,270,47695,5,0,1:0:0:0:
30,270,47774,1,0,1:0:0:0:
30,270,47853,1,0,1:0:0:0:
90,206,48011,1,0,1:2:0:0:
173,229,48169,1,2,1:2:0:0:
212,316,48327,6,0,P|287:286|385:268,1,168.999992263794,6|0,3:2|1:2,0:0:0:0:
455,308,48800,2,0,P|437:346|389:356,2,84.4999961318971,6|0|0,3:2|3:2|1:2,0:0:0:0:
512,210,49274,6,0,P|495:126|388:119,1,168.999992263794,6|0,3:2|1:2,0:0:0:0:
334,166,49748,2,0,P|375:175|414:192,2,84.4999961318971,6|0|0,3:2|3:2|1:2,0:0:0:0:
280,85,50221,5,6,3:2:0:0:
280,85,50300,1,0,3:0:0:0:
280,85,50379,1,0,1:2:0:0:
208,173,50537,2,0,P|194:126|121:124,1,126.749994197846,6|0,3:2|0:0,0:0:0:0:
121,126,50853,5,6,3:2:0:0:
256,192,50932,12,0,52748,0:0:0:0:
446,72,53221,5,2,0:2:0:0:
446,72,53300,1,2,0:2:0:0:
446,72,53379,2,0,P|439:120|432:187,1,104,2|0,0:2|3:2,0:0:0:0:
423,305,53853,6,0,P|397:242|344:240,1,116.999996429443,6|0,1:2|3:2,0:0:0:0:
334,154,54327,2,0,P|280:168|265:222,1,116.999996429443,6|0,1:2|3:2,0:0:0:0:
297,305,54800,5,6,1:2:0:0:
222,358,54958,1,2,1:2:0:0:
145,331,55116,1,2,1:2:0:0:
118,261,55274,2,0,P|110:226|91:195,1,58.4999982147217,2|2,3:2|3:2,0:0:0:0:
130,120,55590,1,2,1:2:0:0:
46,140,55748,1,2,3:2:0:0:
190,188,55905,6,0,B|263:177|234:147|318:136,1,130,6|0,3:2|1:2,0:0:0:0:
471,53,56537,1,2,3:2:0:0:
381,11,56695,2,0,B|388:44|388:44|381:80,1,65,2|2,3:2|1:2,0:0:0:0:
307,137,57011,1,2,0:2:0:0:
400,169,57169,6,0,P|472:160|518:152,1,97.5,0|0,3:2|0:0,0:0:0:0:
508,169,57484,2,0,P|495:207|494:245,1,65,2|0,1:2|0:0,0:0:0:0:
508,323,57800,1,2,3:2:0:0:
418,292,57958,1,0,3:2:0:0:
329,366,58116,2,0,P|331:349|332:333,3,32.5,2|2|2|2,1:2|0:2|0:2|0:2,0:0:0:0:
319,318,58432,6,0,B|270:310|270:310|246:292|246:292|195:287,1,130,6|0,3:2|3:2,0:0:0:0:
118,330,58905,1,6,1:2:0:0:
42,294,59063,2,0,P|38:334|44:373,1,65,0|0,3:2|3:2,0:0:0:0:
117,250,59379,6,0,L|103:121,1,130,6|0,3:2|3:2,0:0:0:0:
91,26,59853,1,6,1:2:0:0:
178,60,60011,2,0,P|222:61|258:14,1,97.5,0|0,3:2|0:2,0:0:0:0:
261,1,60327,2,0,L|325:8,1,65,6|0,3:2|3:2,0:0:0:0:
379,80,60642,2,0,L|444:73,1,65,2|0,1:2|3:2,0:0:0:0:
332,157,60958,5,6,1:2:0:0:
332,157,61116,1,2,3:2:0:0:
390,241,61274,1,6,1:2:0:0:
390,241,61432,1,2,3:2:0:0:
302,292,61590,2,0,P|263:282|221:278,1,71.5000021820069,6|2,1:2|1:2,0:0:0:0:
388,348,61905,1,2,3:2:0:0:
485,298,62063,6,0,B|501:261|501:261|488:217,1,71.5000021820069,6|0,1:2|0:0,0:0:0:0:
382,174,62379,2,0,B|373:203|373:203|389:240,1,71.5000021820069,6|0,1:2|0:0,0:0:0:0:
479,99,62695,1,2,1:2:0:0:
479,99,62853,1,6,1:2:0:0:
267,152,63169,1,4,1:1:0:0:
