osu file format v14

[General]
AudioFilename: audio.mp3
AudioLeadIn: 0
PreviewTime: 31910
Countdown: 0
SampleSet: Soft
StackLeniency: 0.7
Mode: 0
LetterboxInBreaks: 0
WidescreenStoryboard: 1

[Editor]
Bookmarks: 966,4230,8595,17142,23324,32042,45132,52496
DistanceSpacing: 2.1
BeatDivisor: 8
GridSize: 16
TimelineZoom: 2.599999

[Metadata]
Title:Surge Of Prophecies
TitleUnicode:星天的预告
Artist:Yu-Peng Chen @HOYO-MiX
ArtistUnicode:陈致逸 @HOYO-MiX
Creator:midorijeon
Version:Moete's Insane
Source:Genshin Impact
Tags:Kyuuchie Tsukinyuni Haruto Asagi Crissa Eula- [-Crissaegrim-] Moete Shizuku- Kazato Asa Shikibe Mayu Ayesha Altugle 星天の予知 原神-闪耀的群星 The Stellar Moments Yuán Shén-Shǎnyào De Qúnxīng 原神-輝く星々 Genshin-Kagayaku Hosiboshi Yuan Shen げんしん サウンドトラック 원신 Wonshin miHoYo OST Video Game ゲーム Instrumental Rock Art of Dragon Quartet 国际首席爱乐乐团 International Master Philharmonic Orchestra 阿斯托洛吉斯 莫娜 梅吉斯图斯 占星術師 モナ メギストス Astrologist Mona Megistus
BeatmapID:4143487
BeatmapSetID:1693048

[Difficulty]
HPDrainRate:6
CircleSize:4
OverallDifficulty:8.6
ApproachRate:9
SliderMultiplier:2.7
SliderTickRate:1

[Events]
//Background and Video events
0,0,"BG3.jpg",0,0
//Break Periods
//Storyboard Layer 0 (Background)
//Storyboard Layer 1 (Fail)
//Storyboard Layer 2 (Pass)
//Storyboard Layer 3 (Foreground)
//Storyboard Layer 4 (Overlay)
//Storyboard Sound Samples

[TimingPoints]
966,542.986425339367,3,2,1,55,1,0
1101,-100,3,2,1,48,0,0
1237,-100,3,2,1,41,0,0
1373,-100,3,2,1,36,0,0
1508,-100,3,2,1,55,0,0
1644,-100,3,2,1,48,0,0
1780,-100,3,2,1,41,0,0
1916,-100,3,2,1,36,0,0
2051,526.315789473684,3,2,1,55,1,8
2051,-100,3,2,1,55,0,0
2182,-100,3,2,1,48,0,0
2314,-100,3,2,1,41,0,0
2445,-100,3,2,1,36,0,0
2577,540.540540540541,3,2,1,55,1,0
2577,-100,3,2,1,55,0,0
2712,-100,3,2,1,48,0,0
2847,-100,3,2,1,41,0,0
2982,-100,3,2,1,36,0,0
3117,542.986425339367,3,2,1,55,1,8
3117,-100,3,2,1,55,0,0
3252,-100,3,2,1,48,0,0
3388,-100,3,2,1,41,0,0
3524,-100,3,2,1,36,0,0
3659,571.428571428571,3,2,1,55,1,8
3659,-100,3,2,1,55,0,0
3801,-100,3,2,1,48,0,0
3944,-100,3,2,1,41,0,0
4087,-100,3,2,1,36,0,0
4230,545.454545454546,3,2,1,60,1,0
7366,662.983425414365,3,2,1,60,1,8
7532,545.454545454546,3,2,1,70,1,0
7532,-200,3,2,1,70,0,0
8077,600,3,2,1,70,1,8
8377,437.956204379562,3,2,1,70,1,8
8595,545.454545454546,3,2,1,60,1,0
10435,-100,3,2,1,5,0,0
10504,-100,3,2,1,60,0,0
13708,-100,3,2,1,5,0,0
13776,-100,3,2,1,60,0,0
16776,487.80487804878,3,2,1,60,1,8
17142,545.454545454546,3,2,1,60,1,0
17142,-125,3,2,1,55,0,0
17278,789.473684210526,3,2,1,55,1,8
17376,534.283170080142,3,2,1,55,1,8
17376,-125,3,2,1,55,0,0
17643,534.283170080142,3,2,1,55,1,8
17910,585.365853658537,3,2,1,55,1,8
18203,600,3,2,1,55,1,8
18203,-125,3,2,1,55,0,0
18428,668.523676880223,3,2,1,55,1,0
18762,491.803278688525,3,2,1,55,1,8
19007,545.454545454546,3,2,1,55,1,8
19007,-125,3,2,1,55,0,0
20096,545.454545454546,3,2,1,55,1,0
20232,461.538461538462,3,2,1,55,1,8
20347,476.190476190476,3,2,1,55,1,8
20585,600,3,2,1,55,1,8
20585,-125,3,2,1,55,0,0
20885,674.157303370787,3,2,1,55,1,8
21222,600,3,2,1,55,1,8
21522,621.761658031088,3,2,1,55,1,8
21677,631.578947368421,3,2,1,55,1,0
21992,521.739130434783,3,2,1,55,1,8
22253,606.060606060606,3,2,1,55,1,8
22859,454.545454545455,3,2,1,55,1,8
23086,476.190476190476,3,2,1,55,1,8
23324,545.454545454546,3,2,1,60,1,0
24142,-100,3,2,3,60,0,0
24210,-100,3,2,1,60,0,0
24278,-100,3,2,3,60,0,0
24346,-100,3,2,1,60,0,0
24414,-100,3,2,2,60,0,0
24482,-100,3,2,1,60,0,0
24687,-100,3,2,4,60,0,0
24755,-100,3,2,1,60,0,0
24960,-100,3,2,4,60,0,0
25028,-100,3,2,1,60,0,0
25233,-100,3,2,4,60,0,0
25301,-100,3,2,1,60,0,0
25369,-100,3,2,3,60,0,0
25437,-100,3,2,1,60,0,0
25778,-100,3,2,4,60,0,0
25846,-100,3,2,1,60,0,0
25914,-100,3,2,4,60,0,0
25982,-100,3,2,1,60,0,0
26324,-100,3,2,4,60,0,0
26392,-100,3,2,1,60,0,0
26596,-100,3,2,4,60,0,0
26664,-100,3,2,1,60,0,0
26869,-100,3,2,4,60,0,0
26937,-100,3,2,1,60,0,0
27005,-100,3,2,3,60,0,0
27073,-100,3,2,1,60,0,0
27414,-100,3,2,3,60,0,0
27482,-100,3,2,1,60,0,0
27960,-100,3,2,3,60,0,0
28028,-100,3,2,1,60,0,0
28096,-100,3,2,3,60,0,0
28164,-100,3,2,1,60,0,0
28505,-100,3,2,3,60,0,0
28573,-100,3,2,1,60,0,0
28641,-100,3,2,3,60,0,0
28709,-100,3,2,1,60,0,0
29051,-100,3,2,3,60,0,0
29119,-100,3,2,3,60,0,0
29187,-100,3,2,3,60,0,0
29255,-100,3,2,1,60,0,0
29460,-100,3,2,3,60,0,0
29528,-100,3,2,1,60,0,0
29869,545.454545454546,4,2,7,70,1,0
29869,-76.9230769230769,4,2,7,70,0,0
29937,-76.9230769230769,4,2,7,5,0,0
30687,-76.9230769230769,4,2,5,70,0,0
30755,-76.9230769230769,4,2,5,5,0,0
31096,-76.9230769230769,4,2,5,70,0,0
31164,-76.9230769230769,4,2,5,5,0,0
31369,-76.9230769230769,4,2,5,70,0,0
31505,-76.9230769230769,4,2,6,70,0,0
31573,-76.9230769230769,4,2,6,5,0,0
31778,528.63436123348,4,2,6,70,1,8
32042,545.454545454546,3,2,9,80,1,0
32042,-90.9090909090909,3,2,9,80,0,0
32314,-90.9090909090909,3,2,10,80,0,0
32382,-90.9090909090909,3,2,5,80,0,0
32451,-100,3,2,10,80,0,0
32519,-100,3,2,5,80,0,0
32723,-100,3,2,10,80,0,0
32791,-100,3,2,5,80,0,0
32860,-100,3,2,10,80,0,0
32928,-100,3,2,5,80,0,0
33132,-100,3,2,12,80,0,0
33200,-100,3,2,5,80,0,0
33405,-100,3,2,10,80,0,0
33473,-100,3,2,5,80,0,0
33678,-90.9090909090909,3,2,10,80,0,0
33746,-90.9090909090909,3,2,5,80,0,0
33951,-90.9090909090909,3,2,10,80,0,0
34019,-90.9090909090909,3,2,5,80,0,0
34088,-90.9090909090909,3,2,10,80,0,0
34156,-90.9090909090909,3,2,5,80,0,0
34360,-90.9090909090909,3,2,10,80,0,0
34428,-90.9090909090909,3,2,5,80,0,0
34497,-90.9090909090909,3,2,10,80,0,0
34565,-90.9090909090909,3,2,5,80,0,0
34701,-90.9090909090909,3,2,5,5,0,0
34769,-90.9090909090909,3,2,12,80,0,0
34837,-90.9090909090909,3,2,5,80,0,0
34973,-90.9090909090909,3,2,5,5,0,0
35042,-90.9090909090909,3,2,10,80,0,0
35110,-90.9090909090909,3,2,5,80,0,0
35246,-90.9090909090909,3,2,5,5,0,0
35314,-86.9565217391304,3,2,10,80,0,0
35382,-86.9565217391304,3,2,5,80,0,0
35587,-86.9565217391304,3,2,10,80,0,0
35655,-86.9565217391304,3,2,5,80,0,0
35723,-90.9090909090909,3,2,10,80,0,0
35792,-90.9090909090909,3,2,5,80,0,0
35996,-90.9090909090909,3,2,10,80,0,0
36064,-90.9090909090909,3,2,5,80,0,0
36133,-90.9090909090909,3,2,10,80,0,0
36201,-90.9090909090909,3,2,5,80,0,0
36405,-90.9090909090909,3,2,12,80,0,0
36473,-90.9090909090909,3,2,5,80,0,0
36678,-90.9090909090909,3,2,10,80,0,0
36746,-90.9090909090909,3,2,5,80,0,0
36951,-90.9090909090909,3,2,10,80,0,0
37019,-90.9090909090909,3,2,5,80,0,0
37224,-90.9090909090909,3,2,10,80,0,0
37292,-90.9090909090909,3,2,5,80,0,0
37361,-90.9090909090909,3,2,10,80,0,0
37429,-90.9090909090909,3,2,5,80,0,0
37633,-90.9090909090909,3,2,10,80,0,0
37701,-90.9090909090909,3,2,5,5,0,0
37769,-86.9565217391304,3,2,10,80,0,0
37838,-86.9565217391304,3,2,5,80,0,0
38042,-86.9565217391304,3,2,12,80,0,0
38110,-86.9565217391304,3,2,5,80,0,0
38587,-100,3,2,6,80,0,0
38860,-90.9090909090909,3,2,11,80,0,0
38928,-90.9090909090909,3,2,5,80,0,0
38997,-90.9090909090909,3,2,10,80,0,0
39065,-90.9090909090909,3,2,5,80,0,0
39269,-90.9090909090909,3,2,10,80,0,0
39337,-90.9090909090909,3,2,5,80,0,0
39405,-100,3,2,10,80,0,0
39474,-100,3,2,5,80,0,0
39610,-100,3,2,5,5,0,0
39678,-100,3,2,12,80,0,0
39746,-100,3,2,5,80,0,0
39951,-100,3,2,10,80,0,0
40019,-100,3,2,5,80,0,0
40223,-90.9090909090909,3,2,10,80,0,0
40291,-90.9090909090909,3,2,5,80,0,0
40496,-90.9090909090909,3,2,10,80,0,0
40564,-90.9090909090909,3,2,5,80,0,0
40633,-90.9090909090909,3,2,10,80,0,0
40701,-90.9090909090909,3,2,5,80,0,0
40769,-100,3,2,5,80,0,0
40905,-100,3,2,10,80,0,0
40973,-100,3,2,5,80,0,0
41042,-100,3,2,10,80,0,0
41110,-100,3,2,5,80,0,0
41246,-100,3,2,5,5,0,0
41314,-86.9565217391304,3,2,10,80,0,0
41382,-86.9565217391304,3,2,5,80,0,0
41519,-86.9565217391304,3,2,5,5,0,0
41587,-100,3,2,12,80,0,0
41655,-100,3,2,5,80,0,0
41860,-90.9090909090909,3,2,10,80,0,0
41928,-90.9090909090909,3,2,5,80,0,0
42133,-90.9090909090909,3,2,10,80,0,0
42201,-90.9090909090909,3,2,5,80,0,0
42270,-90.9090909090909,3,2,10,80,0,0
42338,-90.9090909090909,3,2,5,80,0,0
42542,-90.9090909090909,3,2,10,80,0,0
42610,-90.9090909090909,3,2,5,80,0,0
42679,-90.9090909090909,3,2,10,80,0,0
42747,-90.9090909090909,3,2,5,80,0,0
42951,-90.9090909090909,3,2,12,80,0,0
43019,-90.9090909090909,3,2,5,80,0,0
43224,-90.9090909090909,3,2,10,80,0,0
43292,-90.9090909090909,3,2,5,80,0,0
43496,-90.9090909090909,3,2,10,80,0,0
43564,-90.9090909090909,3,2,5,80,0,0
43769,-90.9090909090909,3,2,10,80,0,0
43837,-90.9090909090909,3,2,5,80,0,0
43906,-90.9090909090909,3,2,10,80,0,0
43974,-90.9090909090909,3,2,5,80,0,0
44178,-90.9090909090909,3,2,10,80,0,0
44246,-90.9090909090909,3,2,5,5,0,0
44315,-90.9090909090909,3,2,10,80,0,0
44383,-90.9090909090909,3,2,5,80,0,0
44587,-90.9090909090909,3,2,8,80,0,0
44860,-90.9090909090909,3,2,9,80,0,0
44928,-90.9090909090909,3,2,8,80,0,0
45132,-90.9090909090909,3,2,9,80,0,0
45201,-90.9090909090909,3,2,5,80,0,0
45678,-100,3,2,5,80,0,0
46701,-100,3,2,5,5,0,0
46769,-90.9090909090909,3,2,6,80,0,0
48951,-100,3,2,6,80,0,0
49496,-100,3,2,5,80,0,0
50042,-90.9090909090909,3,2,6,80,0,0
50246,-90.9090909090909,3,2,6,5,0,0
50314,-90.9090909090909,3,2,8,80,0,0
50382,-90.9090909090909,3,2,6,80,0,0
50587,-90.9090909090909,3,2,8,80,0,0
50655,-90.9090909090909,3,2,6,80,0,0
50860,-90.9090909090909,3,2,12,80,0,0
50928,-90.9090909090909,3,2,6,80,0,0
51132,-90.9090909090909,3,2,7,80,0,0
51269,-90.9090909090909,3,2,5,80,0,0
52496,545.454545454546,3,2,9,80,1,0
52496,-125,3,2,9,80,0,0
55632,-125,3,2,6,5,0,0

[Colours]
Combo1 : 141,22,58
Combo2 : 107,137,173
Combo3 : 118,56,58
Combo4 : 223,209,116

[HitObjects]
265,98,966,6,0,P|259:67|235:42,3,67.5,2|2|2|0,0:0|0:0|0:0|0:0,0:0:0:0:
347,153,1508,6,0,P|370:131|380:99,3,67.5,2|2|2|0,0:0|0:0|0:0|0:0,0:0:0:0:
338,245,2051,6,0,P|368:254|402:247,3,67.5,2|2|2|0,0:0|0:0|0:0|0:0,0:0:0:0:
250,287,2577,6,0,P|257:318|281:343,3,67.5,2|2|2|0,0:0|0:0|0:0|0:0,0:0:0:0:
164,240,3117,6,0,P|140:261|130:294,3,67.5,2|2|2|0,0:0|0:0|0:0|0:0,0:0:0:0:
171,142,3659,6,0,P|141:132|107:140,3,67.5,2|2|2|0,0:0|0:0|0:0|0:0,0:0:0:0:
256,192,4230,6,0,B|284:260|230:261|258:339,1,135,10|2,0:1|0:0,0:0:0:0:
324,383,4775,2,0,P|341:345|333:305,1,67.5,10|0,0:1|0:0,0:0:0:0:
339,320,5048,1,2,0:0:0:0:
183,384,5184,2,0,P|166:346|174:306,2,67.5,10|0|2,0:1|0:0|0:2,0:0:0:0:
209,219,5730,5,2,0:0:0:0:
203,223,5866,2,0,P|152:235|129:241,1,67.5,10|0,0:1|0:0,0:0:0:0:
19,168,6139,2,0,P|70:156|93:150,1,67.5,2|0,0:0|0:0,0:0:0:0:
170,72,6411,1,10,0:1:0:0:
247,138,6684,5,2,0:0:0:0:
252,146,6820,1,10,0:1:0:0:
76,76,7093,1,10,0:1:0:0:
247,0,7366,1,2,0:2:0:0:
152,124,7532,6,0,B|118:155|118:155|103:205|136:240,1,135,6|4,0:0|0:2,0:0:0:0:
256,383,8595,6,0,B|232:324|282:321|258:246,1,135,10|10,0:0|0:0,0:0:0:0:
189,195,9004,2,0,P|148:214|137:242,1,67.5,2|8,0:0|0:0,0:0:0:0:
90,314,9276,1,2,0:0:0:0:
90,314,9413,1,10,0:0:0:0:
307,374,9685,6,0,B|318:340|318:340|299:287,1,67.5,10|0,0:0|0:0,0:0:0:0:
204,310,9958,2,0,B|194:340|194:340|205:374,1,67.5,10|0,0:0|0:0,0:0:0:0:
339,230,10231,6,0,L|461:247,1,101.25,10|0,0:0|0:0,0:0:0:0:
449,246,10504,1,10,0:0:0:0:
512,183,10640,2,0,P|499:147|497:100,1,67.5,2|8,0:0|0:0,0:0:0:0:
495,118,10913,1,2,0:0:0:0:
392,131,11049,2,0,P|395:97|413:63,1,67.5,10|0,0:0|0:0,0:0:0:0:
254,2,11322,6,0,B|277:35|277:35|283:62,1,67.5,10|0,0:0|0:0,0:0:0:0:
147,141,11595,2,0,B|164:104|164:104|184:85,1,67.5,10|0,0:0|0:0,0:0:0:0:
283,162,11867,2,0,B|322:210|381:187|381:187|402:148,1,135,10|10,0:0|0:0,0:0:0:0:
394,157,12276,2,0,P|366:179|353:207,1,67.5,2|8,0:0|0:0,0:0:0:0:
387,300,12549,1,2,0:0:0:0:
393,299,12685,2,0,L|473:290,1,67.5,10|0,0:0|0:0,0:0:0:0:
299,382,12958,6,0,P|289:340|274:307,1,67.5,10|0,0:0|0:0,0:0:0:0:
172,302,13231,2,0,P|164:269|152:237,1,67.5,10|0,0:0|0:0,0:0:0:0:
244,168,13504,2,0,P|232:120|208:58,1,101.25,10|0,0:0|0:0,0:0:0:0:
210,63,13776,1,10,0:0:0:0:
118,12,13913,6,0,P|115:58|108:92,1,67.5,2|8,0:0|0:0,0:0:0:0:
76,177,14185,1,2,0:0:0:0:
1,141,14322,2,0,P|32:143|71:155,1,67.5,10|0,0:0|0:0,0:0:0:0:
173,224,14595,5,10,0:0:0:0:
257,180,14731,1,0,0:0:0:0:
177,135,14867,1,10,0:0:0:0:
177,135,15004,1,0,0:0:0:0:
288,67,15140,6,0,P|362:71|390:124,1,135,10|10,0:0|0:0,0:0:0:0:
487,115,15549,1,0,0:0:0:0:
484,121,15685,2,0,P|470:170|466:204,1,67.5,10|0,0:0|0:0,0:0:0:0:
372,236,15958,1,10,0:0:0:0:
419,315,16094,2,0,P|405:266|401:232,1,67.5,2|8,0:0|0:0,0:0:0:0:
304,168,16367,1,2,0:0:0:0:
184,310,17142,6,0,P|212:296|239:294,1,54,2|2,0:0|0:0,0:0:0:0:
242,297,17376,2,0,P|144:311|138:218,1,216,2|0,0:0|0:0,0:0:0:0:
20,113,18203,6,0,P|27:143|40:169,1,54,2|2,0:0|0:0,0:0:0:0:
43,169,18428,2,0,P|103:152|162:215,1,135,2|2,0:0|0:0,0:0:0:0:
287,268,18884,5,2,0:0:0:0:
274,348,19007,2,0,B|241:290|245:217|245:217|270:180|270:180|280:112|238:34,1,324,2|2,0:0|0:0,0:0:0:0:
154,0,20096,2,0,P|148:36|140:72,1,67.5,2|0,0:0|0:0,0:0:0:0:
34,130,20347,5,2,0:0:0:0:
37,143,20426,1,2,0:0:0:0:
40,156,20505,1,2,0:0:0:0:
43,167,20585,2,0,B|18:268|87:307|87:307|115:262|88:235,1,229.5,2|2,0:0|0:0,0:0:0:0:
182,139,21522,5,2,0:0:0:0:
262,160,21677,2,0,P|252:197|242:239,1,67.5,2|0,0:0|0:0,0:0:0:0:
199,324,21992,5,2,0:0:0:0:
199,324,22078,1,2,0:0:0:0:
199,324,22165,1,2,0:0:0:0:
199,324,22253,2,0,B|224:360|294:358|294:358|335:325,1,135,2|2,0:0|0:0,0:0:0:0:
381,267,22657,1,2,0:0:0:0:
386,262,22758,1,2,0:0:0:0:
391,257,22859,1,2,0:0:0:0:
305,191,23086,6,0,L|220:211,1,67.5,2|2,0:0|0:0,0:0:0:0:
228,217,23324,1,2,0:0:0:0:
109,362,23596,6,0,P|101:315|90:282,1,67.5,2|2,0:0|0:0,0:0:0:0:
31,250,23869,2,0,P|88:230|119:307,1,135,2|2,0:3|0:3,0:0:0:0:
24,358,24278,1,2,0:3:0:0:
125,377,24414,2,0,B|158:361|204:381|193:387|223:399|258:378,1,135,2|2,0:3|0:3,0:0:0:0:
373,252,24824,5,2,0:2:0:0:
419,318,24960,2,0,B|392:341|357:347|357:347|316:328|305:303,1,135,2|2,0:3|0:3,0:0:0:0:
303,300,25324,1,2,0:2:0:0:
299,292,25414,1,2,0:2:0:0:
295,284,25505,1,2,0:3:0:0:
135,158,25778,6,0,P|149:109|185:99,1,67.5,2|2,0:3|0:3,0:0:0:0:
171,118,26051,2,0,P|234:179|221:219,1,135,2|2,0:3|0:3,0:0:0:0:
109,332,26460,5,2,0:0:0:0:
42,279,26596,2,0,B|18:252|-29:259|-29:259|-2:234|31:247,1,135,2|2,0:3|0:3,0:0:0:0:
23,244,27005,1,2,0:3:0:0:
111,192,27142,2,0,B|139:178|168:179|168:179|189:188|189:188|221:191|245:176,1,135,2|2,0:3|0:3,0:0:0:0:
318,133,27551,5,0,0:0:0:0:
256,87,27687,2,0,B|235:92|235:92|218:110|217:133,1,67.5,2|0,0:3|0:0,0:0:0:0:
388,89,27960,2,0,B|395:70|395:70|388:49|365:25,1,67.5,2|2,0:3|0:3,0:0:0:0:
310,212,28233,6,0,B|286:255|286:255|286:300|325:335,1,135,2|2,0:3|0:3,0:0:0:0:
320,330,28642,1,2,0:3:0:0:
414,378,28778,2,0,B|402:314|452:333|426:238,1,135,2|2,0:3|0:3,0:0:0:0:
425,240,29119,1,2,0:3:0:0:
421,231,29187,1,2,0:3:0:0:
371,128,29324,5,2,0:3:0:0:
248,159,29460,1,2,0:3:0:0:
320,190,29596,1,2,0:3:0:0:
297,98,29733,1,0,0:0:0:0:
162,215,29869,6,0,L|150:143,1,43.874997991562,14|0,0:1|0:0,0:0:0:0:
406,28,30687,6,0,L|419:96,1,43.874997991562,14|0,0:0|0:0,0:0:0:0:
265,323,31096,6,0,L|257:270,1,43.874997991562,14|0,0:0|0:0,0:0:0:0:
272,28,31369,5,10,0:0:0:0:
274,35,31505,2,0,L|284:98,1,43.874997991562,14|0,0:0|0:0,0:0:0:0:
96,221,32042,6,0,B|51:220|18:251|18:251|18:216|59:205,1,148.50000453186,14|2,0:1|0:3,0:0:0:0:
178,78,32451,2,0,B|192:28|143:-2|143:-2|130:38|153:54,1,135,8|8,0:1|0:1,0:0:0:0:
79,108,32860,1,8,0:1:0:0:
83,114,32996,1,0,0:0:0:0:
190,199,33132,6,0,P|181:236|175:274,1,67.5,8|0,0:2|0:0,0:0:0:0:
42,337,33405,2,0,P|36:303|28:270,1,67.5,8|0,0:1|0:0,0:0:0:0:
223,354,33678,6,0,B|265:336|265:336|314:370|372:357,1,148.50000453186,10|2,0:1|0:3,0:0:0:0:
493,291,34087,2,0,P|456:272|419:264,1,74.2500022659302,8|2,0:1|0:0,0:0:0:0:
311,179,34360,1,8,0:1:0:0:
270,255,34496,2,0,B|266:213|266:213|288:179,1,74.2500022659302,8|0,0:1|0:0,0:0:0:0:
443,171,34769,6,0,B|471:147|471:147|485:85|419:33,1,148.50000453186,10|8,0:2|0:1,0:0:0:0:
429,41,35110,1,8,0:1:0:0:
422,37,35178,1,8,0:1:0:0:
307,51,35314,6,0,B|260:56|218:32|218:32|233:76|272:82,1,155.250002961159,10|2,0:1|0:3,0:0:0:0:
363,192,35723,2,0,P|335:155|294:157,1,74.2500022659302,8|0,0:1|0:0,0:0:0:0:
181,215,35996,1,8,0:1:0:0:
304,305,36132,1,8,0:1:0:0:
148,376,36405,6,0,B|162:349|160:321|160:321|149:295|149:295|146:261|166:224,1,148.50000453186,8|10,0:2|0:1,0:0:0:0:
49,162,36814,1,2,0:0:0:0:
136,91,36951,2,0,B|177:46|235:68|235:68|223:95|198:99,1,148.50000453186,10|2,0:1|0:3,0:0:0:0:
209,96,37360,1,10,0:1:0:0:
236,202,37496,6,0,P|300:197|317:153,1,111.375003398895,2|0,0:0|0:0,0:0:0:0:
320,153,37769,2,0,P|299:184|314:227,1,77.6250014805794,8|0,0:1|0:0,0:0:0:0:
404,328,38042,1,10,0:2:0:0:
512,267,38178,1,8,0:2:0:0:
402,205,38314,1,8,0:1:0:0:
280,340,38587,6,0,L|213:325,1,67.5,14|2,0:1|0:0,0:0:0:0:
106,367,38860,2,0,B|80:335|80:335|74:272|123:243,1,148.50000453186,2|0,0:3|0:0,0:0:0:0:
122,243,39269,1,8,0:1:0:0:
203,186,39405,2,0,B|224:221|224:221|214:262,1,67.5,8|0,0:1|0:0,0:0:0:0:
382,277,39678,5,8,0:2:0:0:
317,374,39814,1,0,0:0:0:0:
301,296,39951,1,8,0:1:0:0:
398,358,40087,1,0,0:0:0:0:
486,270,40223,6,0,B|516:209|516:209|472:132,1,148.50000453186,10|2,0:1|0:3,0:0:0:0:
476,138,40632,1,8,0:1:0:0:
401,76,40769,2,0,P|392:128|383:151,1,67.5,2|8,0:0|0:1,0:0:0:0:
291,222,41042,2,0,P|281:189|277:156,1,67.5,8|0,0:1|0:0,0:0:0:0:
189,91,41314,6,0,P|137:92|104:151,1,116.437502220869,10|0,0:2|0:0,0:0:0:0:
103,142,41587,2,0,P|117:190|121:217,1,67.5,8|0,0:1|0:0,0:0:0:0:
239,281,41860,6,0,B|291:279|330:297|330:297|315:247|277:264,1,148.50000453186,10|2,0:1|0:3,0:0:0:0:
432,159,42269,2,0,P|389:171|351:183,1,74.2500022659302,8|0,0:1|0:0,0:0:0:0:
271,135,42542,1,8,0:1:0:0:
267,129,42678,2,0,B|260:112|260:91|260:91|267:73|281:56,1,74.2500022659302,8|0,0:1|0:0,0:0:0:0:
416,54,42951,6,0,P|470:107|456:186,1,148.50000453186,8|10,0:2|0:1,0:0:0:0:
385,264,43360,1,2,0:0:0:0:
325,194,43496,2,0,P|355:202|385:243,1,74.2500022659302,10|0,0:1|0:0,0:0:0:0:
457,324,43769,1,2,0:3:0:0:
455,331,43905,1,10,0:1:0:0:
371,379,44042,6,0,B|236:359,1,111.375003398895,2|0,0:0|0:0,0:0:0:0:
255,362,44314,2,0,B|254:326|254:326|281:284,1,74.2500022659302,2|8,0:3|0:1,0:0:0:0:
147,160,44587,1,14,0:2:0:0:
247,204,44723,1,10,0:2:0:0:
157,269,44860,1,10,0:1:0:0:
155,275,44928,1,8,0:1:0:0:
152,280,44996,1,8,0:1:0:0:
53,242,45132,6,0,B|86:217|141:223|141:223|176:238|176:238|230:239|269:210,1,222.750006797791,14|0,0:1|0:0,0:0:0:0:
369,104,45678,2,0,B|419:43|492:88|492:88|487:132|449:133,1,202.5,10|0,0:2|0:0,0:0:0:0:
344,298,46223,5,10,0:2:0:0:
424,262,46360,1,8,0:3:0:0:
347,215,46496,1,4,0:3:0:0:
372,257,46632,1,4,0:3:0:0:
243,358,46769,6,0,B|163:382|163:382|110:318|110:318|172:296,1,222.750006797791,14|8,0:1|0:1,0:0:0:0:
208,191,47314,2,0,L|127:214,1,74.2500022659302,10|0,0:2|0:0,0:0:0:0:
35,323,47587,5,8,0:2:0:0:
76,295,47678,1,8,0:2:0:0:
125,308,47769,1,8,0:2:0:0:
152,342,47860,1,10,0:2:0:0:
213,365,47951,1,8,0:2:0:0:
273,361,48041,1,8,0:2:0:0:
305,324,48132,1,8,0:2:0:0:
444,190,48405,6,0,B|427:133|427:133|469:93|469:93|485:146|485:146|452:183,1,222.750006797791,14|8,0:1|0:1,0:0:0:0:
377,298,48951,2,0,B|343:279|302:283|302:283|265:301|265:301|215:304|164:279,1,202.5,10|0,0:2|0:0,0:0:0:0:
42,209,49496,5,6,0:2:0:0:
174,164,49632,1,8,0:1:0:0:
92,143,49769,1,8,0:2:0:0:
121,232,49905,1,4,0:3:0:0:
267,132,50042,6,0,P|327:141|389:150,1,111.375003398895,14|0,0:1|0:0,0:0:0:0:
386,150,50314,2,0,B|404:115|404:115|390:66,1,74.2500022659302,12|8,0:2|0:1,0:0:0:0:
214,24,50587,5,14,0:2:0:0:
155,77,50723,1,8,0:1:0:0:
185,147,50860,1,2,0:3:0:0:
185,147,50996,1,8,0:1:0:0:
269,182,51132,5,14,0:2:0:0:
389,246,51268,1,4,0:3:0:0:
279,314,51405,1,4,0:3:0:0:
279,314,51542,1,4,0:3:0:0:
118,268,52496,6,0,B|107:304|124:372|293:434|419:233|236:157|196:169|163:172|202:267|26:232|26:232|113:195|124:151|124:151|121:114|124:79|127:1|158:-11|158:-11|136:47|151:90|199:91|205:132|229:166|229:166|281:179|338:159|338:159|287:137|235:157,1,1242,14|2,0:1|0:0,0:0:0:0:
