osu file format v14

[General]
AudioFilename: audio.mp3
AudioLeadIn: 0
PreviewTime: 31910
Countdown: 0
SampleSet: Soft
StackLeniency: 0.8
Mode: 0
LetterboxInBreaks: 0
WidescreenStoryboard: 1

[Editor]
Bookmarks: 966,4230,8595,17142,23324,32042,45132,52496
DistanceSpacing: 2
BeatDivisor: 4
GridSize: 16
TimelineZoom: 1.700006

[Metadata]
Title:Surge Of Prophecies
TitleUnicode:星天的预告
Artist:Yu-Peng Chen @HOYO-MiX
ArtistUnicode:陈致逸 @HOYO-MiX
Creator:midorijeon
Version:Ayesha's Mirror Reflection of Doom
Source:Genshin Impact
Tags:Kyuuchie Tsukinyuni Haruto Asagi Crissa Eula- [-Crissaegrim-] Moete Shizuku- Kazato Asa Shikibe Mayu Ayesha Altugle 星天の予知 原神-闪耀的群星 The Stellar Moments Yuán Shén-Shǎnyào De Qúnxīng 原神-輝く星々 Genshin-Kagayaku Hosiboshi Yuan Shen げんしん サウンドトラック 원신 Wonshin miHoYo OST Video Game ゲーム Instrumental Rock Art of Dragon Quartet 国际首席爱乐乐团 International Master Philharmonic Orchestra 阿斯托洛吉斯 莫娜 梅吉斯图斯 占星術師 モナ メギストス Astrologist Mona Megistus
BeatmapID:4143482
BeatmapSetID:1693048

[Difficulty]
HPDrainRate:5
CircleSize:2
OverallDifficulty:8.8
ApproachRate:9
SliderMultiplier:2.8
SliderTickRate:1

[Events]
//Background and Video events
0,0,"BG2.jpg",0,0
//Break Periods
//Storyboard Layer 0 (Background)
//Storyboard Layer 1 (Fail)
//Storyboard Layer 2 (Pass)
//Storyboard Layer 3 (Foreground)
//Storyboard Layer 4 (Overlay)
//Storyboard Sound Samples

[TimingPoints]
966,542.986425339367,3,2,0,55,1,0
1101,-100,3,2,0,48,0,0
1237,-125,3,2,0,41,0,0
1373,-125,3,2,0,36,0,0
1508,-125,3,2,0,55,0,0
1644,-125,3,2,0,48,0,0
1780,-100,3,2,0,41,0,0
1916,-100,3,2,0,36,0,0
2051,526.315789473684,3,2,0,55,1,8
2182,-100,3,2,0,48,0,0
2314,-83.3333333333333,3,2,0,41,0,0
2445,-83.3333333333333,3,2,0,36,0,0
2577,540.540540540541,3,2,0,36,1,0
2712,-100,3,2,0,48,0,0
2847,-71.4285714285714,3,2,0,41,0,0
2982,-71.4285714285714,3,2,0,36,0,0
3117,542.986425339367,3,2,0,36,1,8
3252,-100,3,2,0,48,0,0
3388,-62.5,3,2,0,41,0,0
3524,-62.5,3,2,0,36,0,0
3659,571.428571428571,3,2,0,36,1,8
3801,-100,3,2,0,48,0,0
3944,-55.5555555555556,3,2,0,41,0,0
4087,-55.5555555555556,3,2,0,36,0,0
4230,545.454545454546,3,2,0,60,1,0
7366,662.983425414365,3,2,0,60,1,8
7532,545.454545454546,3,2,0,70,1,0
8077,600,3,2,0,70,1,8
8377,437.956204379562,3,2,0,70,1,8
8595,545.454545454546,3,2,0,60,1,0
16776,487.80487804878,3,2,0,60,1,8
17142,545.454545454546,3,2,0,60,1,0
17278,789.473684210526,3,2,0,55,1,8
17376,534.283170080142,3,2,0,55,1,8
17376,-125,3,2,0,55,0,0
17643,534.283170080142,3,2,0,55,1,8
17910,585.365853658537,3,2,0,55,1,8
18203,600,3,2,0,55,1,8
18428,668.523676880223,3,2,0,55,1,0
18762,491.803278688525,3,2,0,55,1,8
19007,545.454545454546,3,2,0,55,1,8
19007,-125,3,2,0,55,0,0
20096,545.454545454546,3,2,0,55,1,0
20232,461.538461538462,3,2,0,55,1,8
20347,476.190476190476,3,2,0,55,1,8
20585,600,3,2,0,55,1,8
20885,674.157303370787,3,2,0,55,1,8
21222,600,3,2,0,55,1,8
21522,621.761658031088,3,2,0,55,1,8
21677,631.578947368421,3,2,0,55,1,0
21992,521.739130434783,3,2,0,55,1,8
22253,606.060606060606,3,2,0,55,1,8
22859,454.545454545455,3,2,0,55,1,8
23086,476.190476190476,3,2,0,55,1,8
23324,545.454545454546,3,2,0,60,1,0
29324,-200,3,2,0,60,0,0
29801,-200,3,2,0,5,0,0
29869,545.454545454546,4,2,0,70,1,0
29869,-25,4,2,0,70,0,0
29937,-25,4,2,0,5,0,0
30414,-66.6666666666667,4,2,0,70,0,0
31096,-66.6666666666667,4,2,0,70,0,0
31369,-66.6666666666667,4,2,0,70,0,0
31505,-99.009900990099,4,2,0,70,0,0
31778,528.63436123348,4,2,0,70,1,8
32042,545.454545454546,3,2,0,80,1,0
32042,-66.6666666666667,3,2,0,80,0,0
32451,-133.333333333333,3,2,0,80,0,0
33132,-66.6666666666667,3,2,0,80,0,0
34223,-100,3,2,0,80,0,0
34769,-66.6666666666667,3,2,0,80,0,0
35042,-66.6666666666667,3,2,0,80,0,0
35314,-50,3,2,0,80,0,0
35996,-100,3,2,0,80,0,0
36405,-66.6666666666667,3,2,0,80,0,0
38042,-33.3333333333333,3,2,0,80,0,0
38587,-66.6666666666667,3,2,0,80,0,0
39678,-50,3,2,0,80,0,0
40223,-66.6666666666667,3,2,0,80,0,0
41314,-66.6666666666667,3,2,0,80,0,0
41860,-50,3,2,0,80,0,0
42542,-66.6666666666667,3,2,0,80,0,0
42951,-66.6666666666667,3,2,0,80,0,0
44588,-33.3333333333333,3,2,0,80,0,0
45132,-200,3,2,0,80,0,0
45678,-50,3,2,0,80,0,0
46769,-50,3,2,0,80,0,0
48405,-200,3,2,0,80,0,0
48951,-50,3,2,0,80,0,0
50042,-200,3,2,0,80,0,0
50723,-66.6666666666667,3,2,0,80,0,0
52496,545.454545454546,3,2,0,80,1,0
52496,-100,3,2,0,80,0,0
55632,-100,3,2,0,60,0,0

[Colours]
Combo1 : 141,22,58
Combo2 : 107,137,173
Combo3 : 118,56,58
Combo4 : 223,209,116

[HitObjects]
442,361,966,5,2,0:0:0:0:
418,329,1101,1,2,0:0:0:0:
369,332,1237,2,0,P|362:304|362:276,1,56
361,276,1508,5,2,0:0:0:0:
395,237,1644,1,2,0:0:0:0:
452,215,1780,2,0,P|446:184|431:149,1,70
430,148,2051,5,2,0:0:0:0:
380,148,2182,1,2,0:0:0:0:
339,101,2314,2,0,P|331:56|319:20,1,83.9999974365235
318,19,2577,5,2,0:0:0:0:
264,0,2712,1,2,0:0:0:0:
208,20,2847,2,0,P|205:71|188:119,1,97.9999970092774
189,115,3117,5,2,0:0:0:0:
92,96,3252,1,2,0:0:0:0:
16,176,3388,2,0,P|22:231|38:285,1,112
38,285,3659,5,2,0:0:0:0:
132,216,3801,1,2,0:0:0:0:
256,240,3944,2,0,P|277:299|284:361,1,125.999996154785
480,96,4230,5,4,0:3:0:0:
32,96,4502,1,2,0:3:0:0:
480,96,4775,1,4,0:3:0:0:
32,96,5048,5,2,0:3:0:0:
104,160,5184,2,0,P|144:160|179:172,1,70,4|0,0:3|0:0,0:0:0:0:
400,40,5457,2,0,P|360:40|325:28,1,70,2|0,0:3|0:0,0:0:0:0:
279,187,5730,5,2,0:3:0:0:
229,0,5866,2,0,P|241:35|245:72,1,70,4|0,0:3|0:0,0:0:0:0:
279,187,6139,2,0,P|267:152|263:115,1,70,2|0,0:3|0:0,0:0:0:0:
135,68,6411,5,4,0:3:0:0:
367,124,6684,1,2,0:0:0:0:
454,74,6820,6,0,P|458:39|467:5,1,70,2|4,0:3|0:3,0:0:0:0:
54,121,7093,2,0,P|49:155|40:189,1,70,2|0,0:3|0:0,0:0:0:0:
229,0,7366,5,4,0:3:0:0:
279,187,7532,1,2,0:0:0:0:
256,192,7600,12,0,8486,0:0:0:0:
56,228,8595,5,2,0:0:0:0:
30,131,8867,1,2,0:0:0:0:
30,131,9004,1,2,0:0:0:0:
101,61,9276,1,2,0:0:0:0:
101,61,9413,1,2,0:0:0:0:
196,86,9685,1,2,0:0:0:0:
221,180,9958,1,2,0:0:0:0:
404,336,10231,5,2,0:0:0:0:
443,190,10503,1,2,0:0:0:0:
443,190,10640,1,2,0:0:0:0:
336,85,10912,1,2,0:0:0:0:
336,85,11049,1,2,0:0:0:0:
194,123,11321,1,2,0:0:0:0:
156,264,11594,1,2,0:0:0:0:
300,300,11867,5,2,0:0:0:0:
274,203,12139,1,2,0:0:0:0:
274,203,12276,1,2,0:0:0:0:
345,133,12548,1,2,0:0:0:0:
345,133,12685,1,2,0:0:0:0:
440,158,12957,1,2,0:0:0:0:
465,252,13230,1,2,0:0:0:0:
122,298,13504,5,2,0:0:0:0:
83,152,13776,1,2,0:0:0:0:
83,152,13913,1,2,0:0:0:0:
190,47,14185,1,2,0:0:0:0:
190,47,14322,1,2,0:0:0:0:
332,85,14594,1,2,0:0:0:0:
370,226,14867,1,2,0:0:0:0:
266,329,15140,6,0,P|259:295|248:261,1,70,2|0,0:0|0:0,0:0:0:0:
190,47,15412,2,0,P|197:81|208:115,1,70,2|0,0:0|0:0,0:0:0:0:
233,227,15685,2,0,L|244:154,1,70,2|0,0:0|0:0,0:0:0:0:
345,207,15958,5,2,0:0:0:0:
345,207,16094,2,0,P|381:213|419:223,1,70,2|0,0:0|0:0,0:0:0:0:
139,182,16367,2,0,P|103:176|65:166,1,70,2|0,0:0|0:0,0:0:0:0:
70,167,17142,6,0,L|56:91,1,70
123,24,17376,2,0,P|228:24|288:164,1,224,2|2,0:3|0:0,0:0:0:0:
350,10,18202,1,2,0:3:0:0:
274,217,18428,1,2,0:0:0:0:
354,15,18762,2,0,P|404:11|464:-1,1,70,2|0,0:3|0:0,0:0:0:0:
387,151,19007,6,0,P|276:169|168:199,1,224,2|2,0:0|0:0,0:0:0:0:
168,199,19825,6,0,P|136:200|108:186,1,56,2|0,0:3|0:0,0:0:0:0:
254,252,20096,2,0,P|264:289|253:335,1,70,2|0,0:0|0:0,0:0:0:0:
258,156,20347,2,0,P|305:95|375:76,1,140,2|2,0:3|0:0,0:0:0:0:
362,76,20885,2,0,P|394:93|433:97,1,70,2|0,0:3|0:0,0:0:0:0:
447,0,21222,5,2,0:0:0:0:
503,183,21422,2,0,L|514:244,1,46.6666666666667,2|0,0:3|0:0,0:0:0:0:
512,229,21677,6,0,P|442:231|381:199,1,140,2|2,0:2|0:3,0:0:0:0:
381,199,22078,2,0,L|365:144,1,46.6666666666667,0|0,0:3|0:0,0:0:0:0:
275,114,22253,6,0,P|241:122|206:127,1,70,2|0,0:2|0:0,0:0:0:0:
32,211,22556,1,2,0:3:0:0:
55,207,22657,1,0,0:0:0:0:
81,211,22758,1,0,0:0:0:0:
101,225,22859,1,2,0:0:0:0:
229,17,23086,5,2,0:3:0:0:
217,26,23165,1,0,0:0:0:0:
201,28,23244,1,0,0:0:0:0:
187,26,23324,1,2,0:0:0:0:
187,26,23596,2,0,P|175:62|171:98,1,70,2|0,0:0|0:0,0:0:0:0:
221,190,23869,6,0,P|163:230|85:251,1,140,2|0,0:3|0:0,0:0:0:0:
96,249,24278,1,0,0:0:0:0:
96,249,24414,2,0,L|20:233,1,70,2|0,0:0|0:0,0:0:0:0:
391,339,24687,2,0,L|249:372,1,140,0|2,0:0|0:3,0:0:0:0:
254,370,25233,2,0,L|269:270,1,93.3333333333333
256,278,25505,6,0,B|212:254|212:254|193:136,1,140,2|0,0:0|0:0,0:0:0:0:
281,0,25914,1,0,0:0:0:0:
362,74,26051,2,0,B|347:162|347:162|303:186,1,140,2|0,0:3|0:0,0:0:0:0:
303,186,26460,1,0,0:0:0:0:
303,186,26596,6,0,P|372:176|440:160,1,140,6|0,0:3|0:0,0:0:0:0:
440,159,27005,1,0,0:0:0:0:
388,288,27142,2,0,P|319:298|251:314,1,140,2|0,0:3|0:0,0:0:0:0:
250,314,27551,1,0,0:0:0:0:
136,296,27687,6,0,L|150:222,1,70,2|0,0:3|0:0,0:0:0:0:
31,0,27960,2,0,P|30:72|67:138,1,140,0|4,0:3|0:3,0:0:0:0:
60,131,28505,2,0,L|130:115,1,70
255,223,28778,2,0,B|316:233|316:233|336:242|336:242|398:251,1,140,2|0,0:3|0:0,0:0:0:0:
392,251,29187,1,0,0:0:0:0:
512,168,29324,2,2,B|464:131|464:131|480:67,1,122.5,2|0,0:1|0:1,0:1:0:0:
469,61,29869,6,2,B|402:70|402:70|400:72|400:72|330:81,1,140,6|0,1:1|0:1,0:1:0:0:
330,81,30687,6,0,P|307:127|302:179,1,105.000004005432,6|0,1:1|0:0,0:0:0:0:
469,61,30959,1,4,0:3:0:0:
453,248,31096,2,0,P|423:205|410:154,1,105.000004005432,6|0,1:1|0:0,0:0:0:0:
256,8,31369,1,6,0:2:0:0:
414,145,31505,2,2,P|332:194|214:195,1,210,6|0,1:2|0:1,0:1:0:0:
16,31,32042,6,0,B|73:55|73:55|92:149,1,157.500006008148,4|0,1:0|0:0,0:0:0:0:
95,160,32314,1,2,0:0:0:0:
318,90,32451,6,0,L|267:102,1,52.5000020027161,0|0,1:0|0:0,0:0:0:0:
505,254,32723,2,0,L|454:242,1,52.5000020027161,2|0,0:3|3:3,0:0:0:0:
366,293,32996,1,4,0:3:0:0:
0,190,33132,6,0,B|55:212|55:212|80:315,1,157.500006008148,0|0,1:0|0:0,0:0:0:0:
156,369,33405,2,0,P|175:318|162:267,1,105.000004005432,2|0,0:3|0:0,0:0:0:0:
308,0,33678,6,0,L|268:224,1,210.000008010865,4|0,0:3|0:0,0:0:0:0:
185,119,34087,1,2,0:3:0:0:
279,215,34223,6,0,L|294:284,1,70,0|4,0:3|0:3,0:0:0:0:
70,98,34496,2,0,L|180:120,1,105,4|0,0:3|0:0,0:0:0:0:
188,118,34769,2,0,P|209:72|208:8,1,105.000004005432,0|0,1:0|0:0,0:0:0:0:
423,377,35042,2,0,P|402:331|403:267,1,105.000004005432,2|0,0:3|3:0,0:0:0:0:
406,267,35246,1,0,3:0:0:0:
413,255,35314,1,4,0:3:0:0:
303,143,35451,6,0,P|193:156|85:258,1,210,4|0,0:3|0:0,0:0:0:0:
112,224,35723,2,0,P|55:190|49:119,1,140,8|0,0:3|0:0,0:0:0:0:
152,4,35996,2,0,P|151:39|116:79,1,70,4|0,0:3|0:0,0:0:0:0:
133,68,36269,1,4,0:3:0:0:
416,268,36405,6,0,P|390:186|496:148,1,210.000008010865,0|4,1:3|0:3,0:0:0:0:
250,52,36814,1,2,0:3:0:0:
497,153,36951,6,2,P|411:210|309:199,1,210.000008010865,2|0,1:2|0:0,0:1:0:0:
26,362,37360,1,0,3:0:0:0:
12,339,37428,1,0,3:0:0:0:
9,314,37496,1,8,0:3:0:0:
134,200,37632,2,0,L|112:302,1,105.000004005432,2|0,0:3|0:0,0:0:0:0:
111,302,37905,1,4,0:3:0:0:
248,52,38042,6,0,B|264:152|264:152|269:158|269:158|286:257,2,210.000008010865,4|0|0,1:3|1:0|1:0,0:0:0:0:
356,112,38451,1,8,0:3:0:0:
203,314,38587,6,0,B|177:288|177:288|110:302,1,105.000004005432,4|0,3:1|0:0,0:0:0:0:
510,179,38860,5,2,0:0:0:0:
474,367,38996,2,0,P|412:307|411:197,1,157.500006008148,4|0,0:3|0:0,0:0:0:0:
402,231,39269,2,0,P|441:263|498:275,1,105.000004005432,4|0,0:3|0:0,0:0:0:0:
303,365,39542,1,4,0:3:0:0:
298,203,39678,6,0,P|349:115|315:19,1,210,0|0,1:0|0:0,0:0:0:0:
474,13,39951,2,0,P|444:83|363:66,1,140,8|0,0:3|3:0,0:0:0:0:
381,95,40155,1,0,3:0:0:0:
375,105,40223,2,0,P|285:70|156:71,1,210.000008010865,8|0,0:3|0:0,0:0:0:0:
172,67,40632,1,8,0:3:0:0:
204,281,40769,5,2,0:0:0:0:
320,317,40905,1,4,0:3:0:0:
298,203,41042,1,4,0:3:0:0:
298,203,41314,6,0,B|268:243|268:243|106:270,1,210.000008010865,0|0,1:0|0:0,0:0:0:0:
27,226,41723,1,0,3:0:0:0:
320,317,41860,6,0,P|391:322|452:364,1,140,8|0,0:3|0:0,0:0:0:0:
212,153,42132,1,2,0:3:0:0:
440,370,42269,6,0,P|372:284|409:131,1,210,8|0,0:3|0:0,0:0:0:0:
373,187,42542,1,8,0:3:0:0:
494,70,42678,2,0,B|450:97|450:97|396:87,1,105.000004005432,4|0,0:3|0:0,0:0:0:0:
200,355,42951,6,0,B|114:294|114:294|-19:326,1,210.000008010865,0|0,1:0|3:3,0:0:0:0:
184,165,43360,1,2,0:3:0:0:
320,317,43496,6,0,B|421:341|421:341|507:280,1,210.000008010865,4|0,0:3|3:3,0:0:0:0:
458,146,43905,1,2,0:0:0:0:
458,146,43973,1,2,0:0:0:0:
458,146,44042,2,0,P|412:199|405:250,1,105.000004005432,0|8,3:0|0:3,0:0:0:0:
217,161,44314,2,0,P|171:112|175:6,1,157.500006008148,8|0,0:3|0:0,0:0:0:0:
169,14,44587,5,0,1:0:0:0:
324,154,44723,1,0,1:0:0:0:
108,235,44860,1,8,0:3:0:0:
108,235,45132,6,0,P|100:182|67:136,1,105.000004005432,4|0,0:3|0:0,0:0:0:0:
64,134,45678,6,2,P|210:108|328:324,1,420,6|0,1:2|0:1,0:1:0:0:
365,95,46223,5,0,1:0:0:0:
237,365,46360,1,8,0:3:0:0:
237,365,46769,6,2,P|268:263|533:242,1,350,6|0,1:0|0:0,0:1:0:0:
482,206,47178,5,8,0:3:0:0:
341,268,47314,2,0,P|269:277|209:226,1,140,2|0,1:3|0:0,0:0:0:0:
16,91,47587,5,0,1:0:0:0:
104,152,47678,1,0,1:0:0:0:
6,197,47769,1,0,1:0:0:0:
33,97,47860,5,8,0:3:0:0:
87,163,47951,1,8,0:3:0:0:
2,177,48042,1,8,0:3:0:0:
41,141,48132,5,4,0:3:0:0:
256,14,48405,6,0,P|204:51|160:38,1,105,4|0,0:1|0:0,0:0:0:0:
158,58,48951,6,2,P|353:80|405:280,1,420,4|0,1:1|0:1,0:1:0:0:
348,368,49496,5,4,0:0:0:0:
512,288,49632,1,4,0:3:0:0:
353,187,49769,1,0,1:0:0:0:
353,187,50042,6,0,L|344:221,1,35,4|0,0:0|0:0,0:0:0:0:
257,163,50314,2,0,L|248:197,1,35,0|0,1:0|0:0,0:0:0:0:
348,368,50587,5,0,1:0:0:0:
285,19,50723,1,8,0:3:0:0:
473,290,51132,5,0,1:3:0:0:
403,89,51269,1,4,0:3:0:0:
264,249,51405,1,4,0:3:0:0:
48,168,52496,6,0,B|76:60|172:-60|416:-86|559:101|561:296|414:426|250:364|250:364|378:365|439:282|421:110|291:40|145:103|107:220|153:288|179:316,1,1540,6|0,1:1|0:1,0:1:0:0:
264,249,55632,1,2,0:0:0:0:
