osu file format v14

[General]
AudioFilename: audio.mp3
AudioLeadIn: 0
PreviewTime: 31910
Countdown: 0
SampleSet: Soft
StackLeniency: 0.5
Mode: 0
LetterboxInBreaks: 0
WidescreenStoryboard: 1

[Editor]
Bookmarks: 966,4230,8595,17142,23324,32042,45132,52496
DistanceSpacing: 1.1
BeatDivisor: 8
GridSize: 32
TimelineZoom: 2.499999

[Metadata]
Title:Surge Of Prophecies
TitleUnicode:星天的预告
Artist:Yu-Peng Chen @HOYO-MiX
ArtistUnicode:陈致逸 @HOYO-MiX
Creator:midorijeon
Version:Asagi's Normal
Source:Genshin Impact
Tags:Kyuuchie Tsukinyuni Haruto Asagi Crissa Eula- [-Crissaegrim-] Moete Shizuku- Kazato Asa Shikibe Mayu Ayesha Altugle 星天の予知 原神-闪耀的群星 The Stellar Moments Yuán Shén-Shǎnyào De Qúnxīng 原神-輝く星々 Genshin-Kagayaku Hosiboshi Yuan Shen げんしん サウンドトラック 원신 Wonshin miHoYo OST Video Game ゲーム Instrumental Rock Art of Dragon Quartet 国际首席爱乐乐团 International Master Philharmonic Orchestra 阿斯托洛吉斯 莫娜 梅吉斯图斯 占星術師 モナ メギストス Astrologist Mona Megistus
BeatmapID:4191683
BeatmapSetID:1693048

[Difficulty]
HPDrainRate:5
CircleSize:3.2
OverallDifficulty:4.5
ApproachRate:5
SliderMultiplier:1.8
SliderTickRate:1

[Events]
//Background and Video events
0,0,"BG3.jpg",0,0
//Break Periods
//Storyboard Layer 0 (Background)
//Storyboard Layer 1 (Fail)
//Storyboard Layer 2 (Pass)
//Storyboard Layer 3 (Foreground)
//Storyboard Layer 4 (Overlay)
//Storyboard Sound Samples

[TimingPoints]
966,542.986425339367,3,2,1,55,1,0
966,-100,3,2,1,55,0,0
1101,-100,3,2,1,48,0,0
1237,-100,3,2,1,41,0,0
1373,-100,3,2,1,36,0,0
1508,-100,3,2,1,55,0,0
1644,-100,3,2,1,48,0,0
1780,-100,3,2,1,41,0,0
1916,-100,3,2,1,36,0,0
2051,526.315789473684,3,2,1,55,1,8
2051,-100,3,2,1,55,0,8
2182,-100,3,2,1,48,0,8
2314,-100,3,2,1,41,0,8
2445,-100,3,2,1,36,0,8
2577,540.540540540541,3,2,1,36,1,0
2577,-100,3,2,1,55,0,0
2712,-100,3,2,1,48,0,0
2847,-100,3,2,1,41,0,0
2982,-100,3,2,1,36,0,0
3117,542.986425339367,3,2,1,36,1,8
3252,-100,3,2,1,48,0,8
3388,-100,3,2,1,41,0,8
3524,-100,3,2,1,36,0,8
3659,571.428571428571,3,2,1,36,1,8
3801,-100,3,2,1,48,0,8
3944,-100,3,2,1,41,0,8
4230,545.454545454546,3,2,1,60,1,0
7366,662.983425414365,3,2,1,60,1,8
7532,545.454545454546,3,2,1,70,1,0
8077,600,3,2,1,70,1,8
8377,437.956204379562,3,2,1,70,1,8
8595,545.454545454546,3,2,1,60,1,0
16776,487.80487804878,3,2,1,60,1,8
17142,545.454545454546,3,2,1,60,1,0
17278,789.473684210526,3,2,1,55,1,8
17376,534.283170080142,3,2,1,55,1,8
17643,534.283170080142,3,2,1,55,1,8
17910,585.365853658537,3,2,1,55,1,8
18203,600,3,2,1,55,1,8
18428,668.523676880223,3,2,1,55,1,0
18762,491.803278688525,3,2,1,55,1,8
19007,545.454545454546,3,2,1,55,1,8
20096,545.454545454546,3,2,1,55,1,0
20232,461.538461538462,3,2,1,55,1,8
20347,476.190476190476,3,2,1,55,1,8
20585,600,3,2,1,55,1,8
20885,674.157303370787,3,2,1,55,1,8
21222,600,3,2,1,55,1,8
21522,621.761658031088,3,2,1,55,1,8
21677,631.578947368421,3,2,1,55,1,0
21887,-100,3,2,1,5,0,0
21992,521.739130434783,3,2,1,55,1,8
22253,606.060606060606,3,2,1,55,1,8
22859,454.545454545455,3,2,1,55,1,8
23086,476.190476190476,3,2,1,55,1,8
23324,545.454545454546,3,2,1,60,1,0
24142,-100,3,2,3,60,0,0
24210,-100,3,2,1,60,0,0
24278,-100,3,2,3,60,0,0
24346,-100,3,2,1,60,0,0
24414,-100,3,2,2,60,0,0
24482,-100,3,2,1,60,0,0
24687,-100,3,2,4,60,0,0
24755,-100,3,2,1,60,0,0
24960,-100,3,2,4,60,0,0
25028,-100,3,2,1,60,0,0
25142,-100,3,2,1,5,0,0
25233,-100,3,2,4,60,0,0
25301,-100,3,2,1,60,0,0
25369,-100,3,2,3,60,0,0
25437,-100,3,2,1,60,0,0
25778,-100,3,2,4,60,0,0
25846,-100,3,2,1,60,0,0
25914,-100,3,2,4,60,0,0
25982,-100,3,2,1,60,0,0
26324,-100,3,2,4,60,0,0
26392,-100,3,2,1,60,0,0
26596,-100,3,2,4,60,0,0
26664,-100,3,2,1,60,0,0
26869,-100,3,2,4,60,0,0
26937,-100,3,2,1,60,0,0
27005,-100,3,2,3,60,0,0
27073,-100,3,2,1,60,0,0
27414,-100,3,2,3,60,0,0
27482,-100,3,2,1,60,0,0
27960,-100,3,2,3,60,0,0
28028,-100,3,2,1,60,0,0
28096,-100,3,2,3,60,0,0
28164,-100,3,2,1,60,0,0
28505,-100,3,2,3,60,0,0
28573,-100,3,2,1,60,0,0
28641,-100,3,2,3,60,0,0
28709,-100,3,2,1,60,0,0
29051,-100,3,2,3,60,0,0
29119,-100,3,2,1,60,0,0
29187,-100,3,2,3,60,0,0
29255,-100,3,2,1,60,0,0
29460,-100,3,2,3,60,0,0
29528,-100,3,2,1,60,0,0
29869,545.454545454546,4,2,7,70,1,0
30687,-100,4,2,5,70,0,0
30755,-100,4,2,5,5,0,0
31096,-100,4,2,5,70,0,0
31164,-100,4,2,5,5,0,0
31369,-100,4,2,5,70,0,0
31505,-100,4,2,6,70,0,0
31573,-100,4,2,6,5,0,0
31778,528.63436123348,4,2,6,70,1,8
32042,545.454545454546,3,2,9,80,1,0
32314,-100,3,2,10,80,0,0
32382,-100,3,2,5,80,0,0
32451,-100,3,2,10,80,0,0
32519,-100,3,2,5,80,0,0
32723,-100,3,2,10,80,0,0
32791,-100,3,2,5,80,0,0
32860,-100,3,2,10,80,0,0
32928,-100,3,2,5,80,0,0
33132,-100,3,2,12,80,0,0
33200,-100,3,2,5,80,0,0
33405,-100,3,2,10,80,0,0
33473,-100,3,2,5,80,0,0
33678,-100,3,2,10,80,0,0
33746,-100,3,2,5,80,0,0
33951,-100,3,2,10,80,0,0
34019,-100,3,2,5,80,0,0
34088,-100,3,2,10,80,0,0
34156,-100,3,2,5,80,0,0
34360,-100,3,2,10,80,0,0
34428,-100,3,2,5,80,0,0
34497,-100,3,2,10,80,0,0
34565,-100,3,2,5,80,0,0
34701,-100,3,2,5,5,0,0
34769,-100,3,2,12,80,0,0
34837,-100,3,2,5,80,0,0
34973,-100,3,2,5,5,0,0
35042,-100,3,2,10,80,0,0
35110,-100,3,2,5,80,0,0
35246,-100,3,2,5,5,0,0
35314,-100,3,2,10,80,0,0
35382,-100,3,2,5,80,0,0
35587,-100,3,2,10,80,0,0
35655,-100,3,2,5,80,0,0
35724,-100,3,2,10,80,0,0
35792,-100,3,2,5,80,0,0
35996,-100,3,2,10,80,0,0
36064,-100,3,2,5,80,0,0
36133,-100,3,2,10,80,0,0
36201,-100,3,2,5,80,0,0
36405,-100,3,2,12,80,0,0
36473,-100,3,2,5,80,0,0
36678,-100,3,2,10,80,0,0
36746,-100,3,2,5,80,0,0
36951,-100,3,2,10,80,0,0
37019,-100,3,2,5,80,0,0
37224,-100,3,2,10,80,0,0
37292,-100,3,2,5,80,0,0
37361,-100,3,2,10,80,0,0
37429,-100,3,2,5,80,0,0
37633,-100,3,2,10,80,0,0
37701,-100,3,2,5,80,0,0
37770,-100,3,2,10,80,0,0
37838,-100,3,2,5,80,0,0
38042,-100,3,2,12,80,0,0
38110,-100,3,2,5,80,0,0
38587,-100,3,2,6,80,0,0
38860,-100,3,2,11,80,0,0
38928,-100,3,2,5,80,0,0
38997,-100,3,2,10,80,0,0
39065,-100,3,2,5,80,0,0
39269,-100,3,2,10,80,0,0
39337,-100,3,2,5,80,0,0
39406,-100,3,2,10,80,0,0
39474,-100,3,2,5,80,0,0
39610,-100,3,2,5,5,0,0
39678,-100,3,2,12,80,0,0
39746,-100,3,2,5,80,0,0
39951,-100,3,2,10,80,0,0
40019,-100,3,2,5,80,0,0
40223,-100,3,2,10,80,0,0
40291,-100,3,2,5,80,0,0
40496,-100,3,2,10,80,0,0
40564,-100,3,2,5,80,0,0
40633,-100,3,2,10,80,0,0
40701,-100,3,2,5,80,0,0
40905,-100,3,2,10,80,0,0
40973,-100,3,2,5,80,0,0
41042,-100,3,2,10,80,0,0
41110,-100,3,2,5,80,0,0
41246,-100,3,2,5,5,0,0
41314,-100,3,2,10,80,0,0
41382,-100,3,2,5,80,0,0
41587,-100,3,2,12,80,0,0
41655,-100,3,2,5,80,0,0
41860,-100,3,2,10,80,0,0
41928,-100,3,2,5,80,0,0
42133,-100,3,2,10,80,0,0
42201,-100,3,2,5,80,0,0
42270,-100,3,2,10,80,0,0
42338,-100,3,2,5,80,0,0
42542,-100,3,2,10,80,0,0
42610,-100,3,2,5,80,0,0
42679,-100,3,2,10,80,0,0
42747,-100,3,2,5,80,0,0
42951,-100,3,2,12,80,0,0
43019,-100,3,2,5,80,0,0
43224,-100,3,2,10,80,0,0
43292,-100,3,2,5,80,0,0
43496,-100,3,2,10,80,0,0
43564,-100,3,2,5,80,0,0
43769,-100,3,2,10,80,0,0
43837,-100,3,2,5,80,0,0
43906,-100,3,2,10,80,0,0
43974,-100,3,2,5,80,0,0
44178,-100,3,2,10,80,0,0
44246,-100,3,2,5,80,0,0
44315,-100,3,2,10,80,0,0
44383,-100,3,2,5,80,0,0
44587,-100,3,2,8,80,0,0
45132,-100,3,2,9,80,0,0
45201,-100,3,2,5,80,0,0
46701,-100,3,2,5,5,0,0
46769,-100,3,2,6,80,0,0
49496,-100,3,2,5,80,0,0
50042,-100,3,2,6,80,0,0
50314,-100,3,2,8,80,0,0
50382,-100,3,2,6,80,0,0
50587,-100,3,2,8,80,0,0
50655,-100,3,2,6,80,0,0
50860,-100,3,2,12,80,0,0
50928,-100,3,2,6,80,0,0
51132,-100,3,2,7,80,0,0
51269,-100,3,2,5,80,0,0
52496,545.454545454546,3,2,9,80,1,0
55632,-100,3,2,6,5,0,0

[Colours]
Combo1 : 141,22,58
Combo2 : 107,137,173
Combo3 : 118,56,58
Combo4 : 223,209,116

[HitObjects]
75,216,966,6,0,L|79:260,2,45,2|2|2,0:0|0:0|0:0,0:0:0:0:
25,130,1508,2,0,B|64:109|64:109|108:120,1,90,2|2,0:0|0:0,0:0:0:0:
208,128,2051,2,0,L|203:83,2,45,2|2|2,0:0|0:0|0:0,0:0:0:0:
177,219,2577,2,0,B|221:230|221:230|260:209,1,90,2|2,0:0|0:0,0:0:0:0:
354,183,3117,2,0,L|358:227,2,45,2|2|2,0:0|0:0|0:0,0:0:0:0:
298,96,3659,2,0,B|337:75|337:75|381:86,1,90,2|2,0:0|0:0,0:0:0:0:
470,156,4230,6,0,L|477:245,1,90,10|2,0:1|0:0,0:0:0:0:
444,339,4775,2,0,P|401:345|366:319,1,90,10|2,0:1|0:0,0:0:0:0:
326,289,5184,2,0,P|282:282|247:308,1,90,10|2,0:1|0:2,0:0:0:0:
176,379,5730,1,2,0:0:0:0:
133,353,5866,6,0,B|115:313|115:313|127:267,1,90,10|2,0:1|0:0,0:0:0:0:
97,173,6411,2,0,P|50:177|17:149,1,90,10|2,0:1|0:0,0:0:0:0:
7,102,6820,1,10,0:1:0:0:
63,20,7093,2,0,P|110:16|142:43,1,90,10|2,0:1|0:2,0:0:0:0:
169,95,7532,6,0,B|340:68|246:183|462:125,1,279,6|0,0:0|0:0,0:0:0:0:
488,189,8595,5,10,0:0:0:0:
504,290,8867,1,10,0:0:0:0:
504,290,9004,2,0,P|457:294|425:267,1,90,2|2,0:0|0:0,0:0:0:0:
382,243,9413,2,0,P|335:239|303:266,1,90,10|10,0:0|0:0,0:0:0:0:
274,359,9958,1,10,0:0:0:0:
184,316,10231,6,0,L|90:324,1,90,10|10,0:0|0:0,0:0:0:0:
49,303,10640,2,0,P|29:263|45:218,1,90,2|2,0:0|0:0,0:0:0:0:
83,192,11049,2,0,L|177:184,1,90,10|10,0:0|0:0,0:0:0:0:
257,236,11595,1,10,0:0:0:0:
320,154,11867,6,0,B|302:113|302:113|317:70,1,90,10|10,0:0|0:0,0:0:0:0:
363,52,12276,1,2,0:0:0:0:
458,93,12549,1,2,0:0:0:0:
458,93,12685,2,0,B|473:50|473:50|455:9,2,90,10|10|10,0:0|0:0|0:0,0:0:0:0:
510,184,13504,5,10,0:0:0:0:
437,250,13776,1,10,0:0:0:0:
437,250,13913,2,0,L|339:244,1,90,2|2,0:0|0:0,0:0:0:0:
305,273,14322,2,0,L|214:267,1,90,10|10,0:0|0:0,0:0:0:0:
139,330,14867,1,10,0:0:0:0:
48,289,15140,6,0,B|32:248|32:248|49:202,1,90,10|10,0:0|0:0,0:0:0:0:
136,160,15685,2,0,P|179:162|211:132,1,90,10|10,0:0|0:0,0:0:0:0:
222,83,16095,1,2,0:0:0:0:
299,21,16367,2,0,B|334:48|334:48|328:138,1,135,2|0,0:0|0:0,0:0:0:0:
500,279,17376,6,0,B|398:263|439:335|320:311,1,180,2|0,0:0|0:0,0:0:0:0:
184,259,18428,2,0,P|141:257|107:286,1,90,2|2,0:0|0:0,0:0:0:0:
22,315,19007,2,0,P|16:225|5:135,1,180,2|0,0:0|0:0,0:0:0:0:
84,76,19825,1,2,0:0:0:0:
165,130,20096,6,0,P|215:126|242:91,1,83,2|2,0:0|0:0,0:0:0:0:
291,47,20585,2,0,B|402:36|347:107|482:86,1,190.5,2|2,0:0|0:0,0:0:0:0:
511,224,21677,6,0,P|500:267|497:312,1,90,2|2,0:0|0:0,0:0:0:0:
422,353,22253,2,0,P|368:285|284:300,1,180,2|2,0:0|0:0,0:0:0:0:
129,367,23324,5,2,0:0:0:0:
53,303,23596,2,0,P|55:280|53:258,1,45,2|2,0:0|0:0,0:0:0:0:
42,209,23869,2,0,P|123:184|178:250,1,180,2|2,0:3|0:3,0:0:0:0:
268,210,24687,2,0,P|266:187|268:165,1,45,2|2,0:3|0:2,0:0:0:0:
309,136,24960,6,0,P|352:139|386:111,1,90,2|2,0:0|0:2,0:0:0:0:
321,35,25505,2,0,B|218:26|262:90|143:72,1,180,2|2,0:3|0:3,0:0:0:0:
58,109,26324,1,2,0:3:0:0:
104,196,26596,6,0,P|189:186|232:259,1,180,2|2,0:3|0:3,0:0:0:0:
272,349,27414,1,2,0:3:0:0:
368,371,27687,2,0,P|379:328|368:285,1,90,2|2,0:3|0:3,0:0:0:0:
424,202,28233,6,0,P|467:207|504:182,1,90,2|2,0:3|0:3,0:0:0:0:
507,83,28778,2,0,P|418:88|332:65,1,180,2|2,0:3|0:3,0:0:0:0:
251,8,29596,1,2,0:3:0:0:
159,46,29869,6,0,P|154:135|147:225,1,180,14|0,0:1|0:0,0:0:0:0:
100,313,30687,2,0,B|142:331|142:331|184:318,1,90,14|0,0:0|0:0,0:0:0:0:
218,281,31096,2,0,B|307:288,1,90,14|10,0:0|0:0,0:0:0:0:
330,329,31505,2,0,L|419:322,1,90,14|0,0:0|0:0,0:0:0:0:
483,248,32042,6,0,P|497:206|483:164,1,90,14|2,0:1|0:3,0:0:0:0:
441,134,32451,2,0,P|397:135|362:109,1,90,10|8,0:1|0:1,0:0:0:0:
345,62,32860,1,8,0:1:0:0:
255,21,33132,2,0,P|240:62|254:105,1,90,8|8,0:2|0:1,0:0:0:0:
177,168,33678,6,0,B|135:186|135:186|92:175,1,90,10|2,0:1|0:3,0:0:0:0:
58,211,34087,2,0,L|65:301,1,90,8|8,0:1|0:1,0:0:0:0:
111,319,34496,1,8,0:1:0:0:
203,355,34769,2,0,B|244:337|244:337|288:348,1,90,10|8,0:2|0:1,0:0:0:0:
385,366,35314,6,0,B|419:340|419:340|413:245,1,135,10|8,0:1|0:1,0:0:0:0:
486,181,35996,1,8,0:1:0:0:
455,141,36132,2,0,P|411:144|377:116,1,90,8|8,0:1|0:2,0:0:0:0:
334,26,36678,2,0,L|289:30,1,45,10|2,0:1|0:0,0:0:0:0:
261,71,36951,6,0,L|171:66,1,90,10|2,0:1|0:3,0:0:0:0:
137,29,37360,2,0,L|41:38,1,90,10|8,0:1|0:1,0:0:0:0:
20,79,37769,1,8,0:1:0:0:
45,174,38042,2,0,L|0:179,2,45,10|8|8,0:2|0:2|0:1,0:0:0:0:
114,244,38587,6,0,L|118:293,1,45,14|2,0:1|0:0,0:0:0:0:
126,337,38860,2,0,B|189:362|189:362|248:329,1,135,2|8,0:3|0:1,0:0:0:0:
279,291,39405,1,8,0:1:0:0:
290,192,39678,2,0,B|247:178|247:178|207:197,1,90,8|8,0:2|0:1,0:0:0:0:
114,244,40223,6,0,P|96:203|106:160,1,90,10|2,0:1|0:3,0:0:0:0:
141,124,40632,2,0,L|134:24,1,90,8|8,0:1|0:1,0:0:0:0:
181,16,41042,1,8,0:1:0:0:
243,94,41314,2,0,P|288:101|330:69,1,90,10|8,0:2|0:1,0:0:0:0:
409,27,41860,6,0,P|474:26|509:80,1,135,10|8,0:1|0:1,0:0:0:0:
476,173,42542,1,8,0:1:0:0:
439,205,42678,2,0,L|434:294,1,90,8|8,0:1|0:2,0:0:0:0:
337,271,43223,2,0,L|340:227,1,45,10|2,0:1|0:0,0:0:0:0:
306,192,43496,6,0,P|242:181|201:232,1,135,10|10,0:1|0:1,0:0:0:0:
176,273,44042,2,0,P|133:278|97:252,1,90,2|2,0:0|0:3,0:0:0:0:
19,195,44587,2,0,L|23:148,1,45,14|8,0:2|0:2,0:0:0:0:
62,119,44860,2,0,L|58:72,1,45,8|8,0:1|0:1,0:0:0:0:
21,42,45132,5,14,0:1:0:0:
213,104,45678,2,0,B|318:88|277:156|389:134,1,180,10|8,0:2|0:2,0:0:0:0:
423,104,46360,1,10,0:3:0:0:
465,246,46769,6,0,P|381:234|338:307,1,180,14|10,0:1|0:2,0:0:0:0:
242,327,47587,2,0,L|245:371,2,45,8|8|10,0:2|0:0|0:2,0:0:0:0:
179,251,48132,1,8,0:2:0:0:
119,329,48405,6,0,B|81:300|81:300|75:200,1,135,14|8,0:1|0:1,0:0:0:0:
45,174,48951,2,0,P|130:182|182:113,1,180,10|6,0:2|0:2,0:0:0:0:
261,51,49769,2,0,L|331:49,1,45,8|4,0:2|0:3,0:0:0:0:
350,26,50042,6,0,P|353:70|356:115,1,90,14|12,0:1|0:2,0:0:0:0:
381,211,50587,2,0,P|447:204|484:262,1,135,14|8,0:2|0:1,0:0:0:0:
483,304,51132,2,0,L|479:348,1,45,14|4,0:2|0:3,0:0:0:0:
432,365,51405,1,4,0:3:0:0:
256,192,52496,12,2,55632,0:0:0:0:
