osu file format v14

[General]
AudioFilename: audio.mp3
AudioLeadIn: 0
PreviewTime: 31780
Countdown: 0
SampleSet: Soft
StackLeniency: 0.7
Mode: 2
LetterboxInBreaks: 0
WidescreenStoryboard: 0

[Editor]
Bookmarks: 17380
DistanceSpacing: 1
BeatDivisor: 4
GridSize: 4
TimelineZoom: 1

[Metadata]
Title:Rockin' With Fire
TitleUnicode:迸发的炽焰
Artist:Yu-Peng Chen @HOYO-MiX
ArtistUnicode:陈致逸 @HOYO-MiX
Creator:[_-Kukkai-_]
Version:Rock On!!
Source:Genshin Impact
Tags:rew0825 苑迪萌 dimeng yuan 原神 miHoYo 辛焱 Xinyan 王雅欣 闪耀的群星 The Stellar Moments rock Video Game Instrumental
BeatmapID:2835459
BeatmapSetID:1371400

[Difficulty]
HPDrainRate:6
CircleSize:4.2
OverallDifficulty:9.4
ApproachRate:9.4
SliderMultiplier:2
SliderTickRate:2

[Events]
//Background and Video events
0,0,"bg.jpg",0,0
//Break Periods
//Storyboard Layer 0 (Background)
//Storyboard Layer 1 (Fail)
//Storyboard Layer 2 (Pass)
//Storyboard Layer 3 (Foreground)
//Storyboard Layer 4 (Overlay)
//Storyboard Sound Samples

[TimingPoints]
580,300,4,2,1,40,1,0
5380,-100,4,2,1,45,0,0
7780,-100,4,2,1,40,0,0
16330,-100,4,2,1,45,0,0
17380,-90.9090909090909,4,2,1,45,0,0
31780,-90.9090909090909,4,2,1,50,0,1
50830,-90.9090909090909,4,2,1,50,0,0
51730,-90.9090909090909,4,2,1,30,0,0

[Colours]
Combo1 : 220,199,196
Combo2 : 170,94,85
Combo3 : 224,70,41

[HitObjects]
432,340,580,6,0,L|184:128,2,300,2|0|0,0:2|0:2|0:2,0:0:0:0:
192,338,1930,1,0,0:2:0:0:
432,344,2380,2,0,P|492:272|412:212,1,200,0|0,0:2|0:2,0:0:0:0:
332,212,2830,1,0,0:2:0:0:
80,340,2980,6,0,L|328:128,2,300,2|0|0,0:2|0:2|0:2,0:0:0:0:
320,356,4330,1,0,0:2:0:0:
108,352,4780,2,0,P|32:288|112:132,1,300,0|0,0:2|0:2,0:0:0:0:
412,128,5380,5,8,0:2:0:0:
232,128,5680,1,8,0:2:0:0:
392,128,5980,1,8,0:2:0:0:
204,128,6280,1,8,0:2:0:0:
360,128,6580,1,8,0:2:0:0:
176,128,6880,1,8,0:2:0:0:
332,128,7180,1,8,0:2:0:0:
100,128,7480,1,8,0:2:0:0:
480,352,7780,6,0,L|480:248,1,100,0|0,1:2|0:2,0:0:0:0:
376,212,8080,2,0,L|252:212,1,100,0|0,0:2|0:2,0:0:0:0:
436,212,8380,1,0,1:2:0:0:
244,156,8680,5,0,0:2:0:0:
344,156,8830,1,0,0:2:0:0:
444,156,8980,1,0,1:2:0:0:
344,156,9130,2,0,L|220:156,1,100,0|0,0:2|0:2,0:0:0:0:
448,360,9580,2,0,L|448:256,1,100,0|0,1:2|0:2,0:0:0:0:
348,260,9880,2,0,L|472:260,1,100,0|0,0:2|0:2,0:0:0:0:
212,192,10180,6,0,L|96:192,2,100,0|0|0,1:2|0:2|0:2,0:0:0:0:
312,196,10630,1,0,0:2:0:0:
160,136,10780,1,0,1:2:0:0:
348,356,11080,6,0,L|468:356,2,100,0|0|0,0:2|0:2|1:2,0:0:0:0:
248,356,11530,2,0,L|356:356,1,100,0|0,0:2|0:2,0:0:0:0:
152,288,11980,2,0,L|152:184,1,100,0|0,1:2|0:2,0:0:0:0:
252,188,12280,2,0,L|360:188,1,100,0|0,0:2|0:2,0:0:0:0:
100,148,12580,6,0,L|228:148,1,100,0|0,1:2|0:2,0:0:0:0:
300,148,12880,2,0,L|300:36,1,100,0|0,0:2|0:2,0:0:0:0:
144,56,13180,1,0,1:2:0:0:
344,52,13480,6,0,L|344:184,1,100,0|0,0:2|0:2,0:0:0:0:
244,148,13780,2,0,L|136:148,1,100,0|0,1:2|0:2,0:0:0:0:
296,272,14080,1,0,0:2:0:0:
104,276,14380,2,0,L|104:164,1,100,0|0,1:2|0:2,0:0:0:0:
264,176,14680,2,0,L|264:64,1,100,0|0,0:2|0:2,0:0:0:0:
48,72,14980,6,0,L|168:72,1,100,0|0,1:2|0:2,0:0:0:0:
248,72,15280,2,0,L|128:72,1,100,0|0,0:2|0:2,0:0:0:0:
308,72,15580,1,0,1:2:0:0:
104,352,15880,2,0,L|4:352,2,100,0|0|0,0:2|0:2|1:2,0:0:0:0:
336,236,16330,6,0,L|124:236,1,200,8|0,0:2|1:2,0:0:0:0:
368,172,16780,2,0,L|500:172,1,100,8|0,0:2|0:2,0:0:0:0:
240,112,17080,1,8,0:2:0:0:
464,172,17230,1,8,0:2:0:0:
200,360,17380,6,0,L|64:360,1,110.000003356934,4|0,1:2|0:2,0:0:0:0:
332,272,17680,1,8,0:2:0:0:
212,272,17830,1,0,0:2:0:0:
436,216,17980,1,0,1:2:0:0:
160,276,18130,2,0,L|40:276,1,110.000003356934,0|8,1:2|0:2,0:0:0:0:
276,200,18430,1,0,0:2:0:0:
52,172,18580,6,0,L|180:172,1,110.000003356934,0|0,1:2|0:2,0:0:0:0:
380,96,18880,2,0,L|252:96,1,110.000003356934,8|0,0:2|0:2,0:0:0:0:
480,348,19180,2,0,L|352:348,1,110.000003356934,0|0,1:2|1:2,0:0:0:0:
148,352,19480,2,0,L|276:352,1,110.000003356934,8|0,0:2|0:2,0:0:0:0:
36,164,19780,5,0,1:2:0:0:
144,168,19930,1,0,0:2:0:0:
36,164,20080,1,8,0:2:0:0:
300,96,20230,1,0,0:2:0:0:
192,96,20380,1,0,1:2:0:0:
80,96,20530,1,0,1:2:0:0:
340,40,20680,5,8,0:2:0:0:
232,40,20830,1,0,0:2:0:0:
340,44,20980,1,0,1:2:0:0:
56,40,21130,1,0,0:2:0:0:
168,40,21280,1,8,0:2:0:0:
56,40,21430,1,0,0:2:0:0:
312,344,21580,2,0,L|68:344,1,220.000006713867,0|8,1:0|0:2,0:0:0:0:
92,344,22030,1,0,0:0:0:0:
328,216,22180,6,0,L|456:216,1,110.000003356934,0|0,1:2|0:2,0:0:0:0:
180,156,22480,1,8,0:2:0:0:
300,156,22630,1,0,0:2:0:0:
76,104,22780,1,0,1:2:0:0:
340,96,22930,2,0,L|204:96,1,110.000003356934,0|8,1:2|0:2,0:0:0:0:
16,100,23230,1,0,0:2:0:0:
236,48,23380,6,0,L|376:48,1,110.000003356934,0|0,1:2|1:2,0:0:0:0:
72,348,23680,2,0,L|212:348,1,110.000003356934,8|0,0:2|0:2,0:0:0:0:
392,344,23980,2,0,L|244:344,1,110.000003356934,0|0,1:2|1:2,0:0:0:0:
492,256,24280,2,0,L|368:256,1,110.000003356934,8|0,0:2|0:2,0:0:0:0:
118,256,24580,5,8,0:2:0:0:
228,256,24730,1,0,1:2:0:0:
336,256,24880,1,0,1:2:0:0:
124,96,25030,1,8,0:2:0:0:
232,96,25180,1,0,1:2:0:0:
124,96,25330,1,0,1:2:0:0:
368,152,25480,1,8,0:2:0:0:
260,156,25630,5,0,1:2:0:0:
152,156,25780,1,0,1:2:0:0:
380,204,25930,1,8,0:2:0:0:
272,204,26080,1,0,1:2:0:0:
380,204,26230,1,0,1:2:0:0:
136,204,26380,6,0,L|-20:204,1,110.000003356934,8|0,0:2|1:2,0:0:0:0:
264,132,26680,1,8,0:2:0:0:
24,204,26830,1,8,0:2:0:0:
336,360,26980,5,0,1:2:0:0:
386,344,27055,1,0,3:2:0:0:
407,295,27130,1,0,3:2:0:0:
382,248,27205,1,0,3:2:0:0:
329,238,27280,1,8,3:2:0:0:
472,240,27430,1,8,3:2:0:0:
212,152,27580,1,0,1:2:0:0:
267,152,27655,1,0,3:2:0:0:
322,152,27730,1,0,3:2:0:0:
190,152,27880,1,8,3:2:0:0:
324,152,28030,1,8,3:2:0:0:
116,360,28180,5,0,1:2:0:0:
89,313,28255,1,0,3:2:0:0:
97,259,28330,1,0,3:2:0:0:
137,222,28405,1,0,3:2:0:0:
190,218,28480,1,8,3:2:0:0:
48,224,28630,1,8,3:2:0:0:
300,136,28780,1,0,1:2:0:0:
245,136,28855,1,0,3:2:0:0:
190,136,28930,1,0,3:2:0:0:
322,136,29080,1,8,3:2:0:0:
188,136,29230,1,8,3:2:0:0:
416,352,29380,5,0,1:2:0:0:
366,353,29455,1,0,3:2:0:0:
316,352,29530,1,0,3:2:0:0:
266,351,29605,1,0,3:2:0:0:
216,350,29680,1,8,3:2:0:0:
352,356,29830,1,8,3:2:0:0:
104,356,29980,2,0,L|16:356,2,55.0000016784668,0|0|0,1:2|3:2|3:2,0:0:0:0:
248,356,30280,1,8,3:2:0:0:
104,356,30430,2,0,L|180:356,1,55.0000016784668,8|0,3:2|3:2,0:0:0:0:
400,272,30580,5,8,1:2:0:0:
176,264,30730,1,8,1:2:0:0:
444,100,31180,1,8,1:2:0:0:
168,328,31330,2,0,P|92:264|192:208,1,220.000006713867,8|0,1:2|0:2,0:0:0:0:
452,196,31780,6,0,L|324:196,1,110.000003356934,6|0,1:2|0:2,0:0:0:0:
112,348,32080,2,0,L|240:348,1,110.000003356934,10|0,0:2|0:2,0:0:0:0:
448,336,32380,1,2,1:2:0:0:
192,280,32530,2,0,L|44:280,1,110.000003356934,2|8,1:2|0:2,0:0:0:0:
324,280,32830,6,0,L|324:160,1,110.000003356934,2|0,1:2|0:2,0:0:0:0:
180,160,33130,2,0,L|180:40,1,110.000003356934,2|8,1:2|0:2,0:0:0:0:
324,48,33430,2,0,L|480:48,1,110.000003356934,2|0,0:2|1:2,0:0:0:0:
188,296,33730,2,0,L|60:296,1,110.000003356934,2|8,1:2|0:2,0:0:0:0:
324,296,34030,1,2,0:2:0:0:
68,308,34180,6,0,L|68:152,1,110.000003356934,2|0,1:2|0:2,0:0:0:0:
296,200,34480,2,0,L|436:200,1,110.000003356934,10|0,0:2|0:2,0:0:0:0:
168,144,34780,1,2,1:2:0:0:
424,112,34930,2,0,L|304:112,1,110.000003356934,2|8,1:2|0:2,0:0:0:0:
88,352,35230,6,0,L|88:224,1,110.000003356934,2|0,1:2|0:2,0:0:0:0:
232,240,35530,2,0,L|364:240,1,110.000003356934,2|8,1:2|0:2,0:0:0:0:
120,240,35830,1,2,0:2:0:0:
344,240,35980,1,2,1:2:0:0:
232,240,36130,1,0,1:2:0:0:
344,236,36280,1,10,0:2:0:0:
232,240,36430,1,0,0:2:0:0:
456,184,36580,6,0,L|456:64,1,110.000003356934,2|0,1:2|0:2,0:0:0:0:
232,84,36880,2,0,L|96:84,1,110.000003356934,10|0,0:2|0:2,0:0:0:0:
360,88,37180,1,2,1:2:0:0:
124,356,37330,2,0,L|-12:356,1,110.000003356934,2|8,1:2|0:2,0:0:0:0:
256,288,37630,6,0,L|392:288,1,110.000003356934,2|0,1:2|0:2,0:0:0:0:
108,204,37930,2,0,L|240:204,1,110.000003356934,2|8,1:2|0:2,0:0:0:0:
448,204,38230,2,0,L|448:64,1,110.000003356934,2|0,0:2|1:2,0:0:0:0:
156,100,38530,2,0,L|296:100,1,110.000003356934,2|8,1:2|0:2,0:0:0:0:
492,96,38830,1,2,0:2:0:0:
192,368,38980,6,0,L|192:224,1,110.000003356934,2|0,1:2|0:2,0:0:0:0:
440,256,39280,2,0,L|440:124,1,110.000003356934,10|0,0:2|0:2,0:0:0:0:
188,148,39580,1,2,1:2:0:0:
460,136,39730,2,0,L|336:136,1,110.000003356934,2|8,1:2|0:2,0:0:0:0:
108,140,40030,2,0,L|108:24,1,110.000003356934,2|0,1:2|0:2,0:0:0:0:
352,24,40330,5,2,1:2:0:0:
112,328,40480,1,10,0:2:0:0:
220,328,40630,1,0,0:2:0:0:
112,328,40780,1,2,1:2:0:0:
352,236,40930,1,0,1:2:0:0:
240,236,41080,1,10,0:2:0:0:
484,168,41230,1,0,0:2:0:0:
152,352,41380,6,0,P|76:288|164:232,1,220.000006713867,6|0,1:2|1:2,0:0:0:0:
260,228,41830,1,0,1:2:0:0:
488,232,41980,2,0,L|488:108,1,110.000003356934,10|0,0:2|1:2,0:0:0:0:
376,128,42280,2,0,L|500:128,1,110.000003356934,0|0,0:2|0:2,0:0:0:0:
260,72,42580,5,2,0:2:0:0:
384,72,42730,2,0,L|384:220,1,110.000003356934,8|0,0:2|1:2,0:0:0:0:
24,352,43180,2,0,L|292:352,1,220.000006713867,10|0,0:2|1:2,0:0:0:0:
132,352,43630,1,0,0:2:0:0:
396,272,43780,6,0,P|468:220|376:160,1,220.000006713867,2|0,1:2|1:2,0:0:0:0:
280,156,44230,1,0,1:2:0:0:
60,156,44380,2,0,L|312:156,1,220.000006713867,10|0,0:2|1:2,0:0:0:0:
392,156,44830,1,0,0:2:0:0:
136,356,44980,5,2,0:2:0:0:
28,356,45130,2,0,L|28:224,1,110.000003356934,8|0,0:2|1:2,0:0:0:0:
388,232,45580,2,0,L|156:232,1,220.000006713867,10|0,0:2|1:2,0:0:0:0:
56,236,46030,1,0,0:2:0:0:
288,232,46180,6,0,P|356:188|280:108,1,220.000006713867,6|0,1:2|1:2,0:0:0:0:
172,112,46630,1,0,1:2:0:0:
400,316,46780,2,0,L|168:316,1,220.000006713867,10|0,0:2|1:2,0:0:0:0:
180,204,47230,1,0,0:2:0:0:
460,140,47380,5,10,1:2:0:0:
304,136,47580,1,10,1:2:0:0:
464,144,47780,1,10,1:2:0:0:
152,72,47980,2,0,L|380:72,1,220.000006713867,10|0,1:2|1:2,0:0:0:0:
372,184,48430,1,0,0:2:0:0:
124,360,48580,6,0,P|52:324|136:248,1,220.000006713867,2|0,1:2|1:2,0:0:0:0:
232,244,49030,1,0,1:2:0:0:
16,176,49180,2,0,L|248:176,1,220.000006713867,10|0,0:2|1:2,0:0:0:0:
348,176,49630,1,0,0:2:0:0:
120,120,49780,5,2,0:2:0:0:
348,176,49930,2,0,L|348:48,1,110.000003356934,8|0,0:2|1:2,0:0:0:0:
236,68,50230,1,0,0:2:0:0:
488,344,50380,2,0,L|328:344,1,110.000003356934,10|0,0:2|1:2,0:0:0:0:
140,340,50680,1,8,0:2:0:0:
408,248,50830,5,8,0:2:0:0:
88,204,51580,1,4,0:2:0:0:
256,192,51730,12,0,57280,0:2:0:0:
