osu file format v14

[General]
AudioFilename: audio.mp3
AudioLeadIn: 0
PreviewTime: 31780
Countdown: 0
SampleSet: Soft
StackLeniency: 0.7
Mode: 2
LetterboxInBreaks: 0
WidescreenStoryboard: 1

[Editor]
Bookmarks: 17380
DistanceSpacing: 1
BeatDivisor: 2
GridSize: 4
TimelineZoom: 1

[Metadata]
Title:Rockin' With Fire
TitleUnicode:迸发的炽焰
Artist:Yu-Peng Chen @HOYO-MiX
ArtistUnicode:陈致逸 @HOYO-MiX
Creator:[_-Kukkai-_]
Version:Cup
Source:Genshin Impact
Tags:rew0825 苑迪萌 dimeng yuan 原神 miHoYo 辛焱 Xinyan 王雅欣 闪耀的群星 The Stellar Moments rock Video Game Instrumental
BeatmapID:2835456
BeatmapSetID:1371400

[Difficulty]
HPDrainRate:2
CircleSize:2.5
OverallDifficulty:6
ApproachRate:6
SliderMultiplier:1.2
SliderTickRate:1

[Events]
//Background and Video events
0,0,"bg.jpg",0,0
//Break Periods
//Storyboard Layer 0 (Background)
//Storyboard Layer 1 (Fail)
//Storyboard Layer 2 (Pass)
//Storyboard Layer 3 (Foreground)
//Storyboard Layer 4 (Overlay)
//Storyboard Sound Samples

[TimingPoints]
580,300,4,2,1,40,1,0
5380,-100,4,2,1,45,0,0
7780,-100,4,2,1,40,0,0
16330,-100,4,2,1,45,0,0
17380,-100,4,2,1,45,0,0
31780,-90.9090909090909,4,2,1,50,0,1
50830,-90.9090909090909,4,2,1,50,0,0
51730,-90.9090909090909,4,2,1,30,0,0

[Colours]
Combo1 : 220,199,196
Combo2 : 170,94,85
Combo3 : 224,70,41

[HitObjects]
256,312,580,6,0,L|452:312,2,180,2|0|0,0:2|0:2|0:2,0:0:0:0:
76,300,1930,1,0,0:2:0:0:
256,300,2380,2,0,L|256:168,1,120,0|0,0:2|0:2,0:0:0:0:
112,192,2980,6,0,L|304:192,2,180,2|0|0,0:2|0:2|0:2,0:0:0:0:
292,196,4330,1,0,0:2:0:0:
472,196,4780,2,0,L|472:48,1,120,0|0,0:2|0:0,0:0:0:0:
336,360,5380,5,8,0:2:0:0:
216,360,5680,1,8,0:2:0:0:
96,356,5980,2,0,L|96:208,1,120,8|8,0:2|0:2,0:0:0:0:
244,232,6580,5,8,0:2:0:0:
364,232,6880,1,8,0:2:0:0:
244,232,7180,1,8,0:2:0:0:
364,232,7480,1,8,0:2:0:0:
216,304,7780,6,0,L|88:252,2,120,0|0|0,1:2|0:2|1:2,0:0:0:0:
336,84,8680,2,0,L|336:216,1,120,0|0,0:2|1:2,0:0:0:0:
216,204,9280,1,0,0:2:0:0:
336,204,9580,2,0,L|428:204,2,60,0|0|0,1:2|0:2|0:2,0:0:0:0:
184,344,10180,6,0,L|184:216,1,120,0|0,1:2|0:2,0:0:0:0:
304,344,10780,1,0,1:2:0:0:
184,344,11080,2,0,L|68:288,2,120,0|0|0,0:2|1:2|0:2,0:0:0:0:
304,296,11980,1,0,1:2:0:0:
244,296,12130,1,0,0:2:0:0:
184,296,12280,1,0,0:2:0:0:
336,360,12580,6,0,L|456:288,2,120,0|0|0,1:2|0:2|1:2,0:0:0:0:
216,368,13480,2,0,L|72:304,1,120,0|0,0:2|1:2,0:0:0:0:
106,319,14080,1,0,0:2:0:0:
224,320,14380,1,0,1:2:0:0:
284,320,14530,1,0,0:2:0:0:
344,320,14680,1,0,0:2:0:0:
192,212,14980,5,0,1:2:0:0:
72,208,15280,2,0,L|72:72,1,120,0|0,0:2|1:2,0:0:0:0:
192,88,15880,1,0,0:2:0:0:
336,272,16180,6,0,L|336:184,1,60,0|8,1:2|0:2,0:0:0:0:
204,204,16630,2,0,L|124:204,1,60,0|8,1:2|0:2,0:0:0:0:
276,204,17080,2,0,L|356:204,1,60,8|8,0:2|0:2,0:0:0:0:
408,204,17380,6,0,L|408:56,1,120,4|8,1:2|0:2,0:0:0:0:
276,84,17980,2,0,L|204:84,2,60,0|0|8,1:2|1:2|0:2,0:0:0:0:
408,84,18580,5,0,1:2:0:0:
276,76,18880,1,8,0:2:0:0:
144,80,19180,2,0,L|144:152,1,60,0|0,1:2|1:2,0:0:0:0:
208,140,19480,1,8,0:2:0:0:
352,352,19780,6,0,L|192:352,1,120,0|8,1:2|0:2,0:0:0:0:
364,352,20380,2,0,L|436:352,2,60,0|0|8,1:2|1:2|0:2,0:0:0:0:
232,352,20980,6,0,L|232:220,1,120,0|8,1:2|0:2,0:0:0:0:
364,232,21580,1,0,1:2:0:0:
296,232,21730,1,0,1:2:0:0:
232,232,21880,1,8,0:2:0:0:
384,156,22180,6,0,L|384:24,1,120,0|8,1:2|0:2,0:0:0:0:
252,24,22780,1,0,1:2:0:0:
192,28,22930,1,0,1:2:0:0:
132,28,23080,1,8,0:2:0:0:
264,24,23380,6,0,L|328:24,2,60,0|0|8,1:2|1:2|0:2,0:0:0:0:
132,28,23980,2,0,L|132:104,1,60,0|0,1:2|1:2,0:0:0:0:
196,88,24280,1,8,0:2:0:0:
344,92,24580,5,8,0:2:0:0:
212,88,24880,2,0,L|112:88,1,60,0|8,1:2|0:2,0:0:0:0:
284,92,25330,2,0,L|284:172,1,60,0|8,1:2|0:2,0:0:0:0:
416,156,25780,6,0,L|484:156,1,60,0|8,1:2|0:2,0:0:0:0:
344,156,26230,2,0,L|264:156,1,60,0|8,1:2|0:2,0:0:0:0:
416,156,26680,1,8,1:2:0:0:
283,164,26980,6,0,L|139:164,1,120,0|8,1:2|3:2,0:0:0:0:
163,164,27430,1,8,3:2:0:0:
223,164,27580,2,0,L|375:164,1,120,0|8,1:2|3:2,0:0:0:0:
200,364,28180,6,0,L|200:224,1,120,0|8,1:2|3:2,0:0:0:0:
264,240,28630,1,8,3:2:0:0:
328,236,28780,2,0,L|328:92,1,120,0|8,1:2|3:2,0:0:0:0:
184,104,29380,6,0,L|28:104,1,120,0|8,1:2|3:2,0:0:0:0:
128,104,29830,1,8,3:2:0:0:
192,104,29980,2,0,L|336:104,1,120,0|8,1:2|3:2,0:0:0:0:
164,360,30580,6,0,L|164:260,1,60,8|8,1:2|1:2,0:0:0:0:
376,296,31180,2,0,L|452:296,1,60,8|8,1:2|1:2,0:0:0:0:
209,287,31780,6,0,L|209:143,1,132.00000402832,6|10,1:2|0:2,0:0:0:0:
355,152,32380,1,2,1:2:0:0:
419,152,32530,1,2,1:2:0:0:
355,152,32830,2,0,L|183:152,1,132.00000402832,2|2,1:2|1:2,0:0:0:0:
356,359,33430,2,0,L|356:179,1,132.00000402832,2|2,0:2|1:2,0:0:0:0:
212,228,34030,6,0,L|146:228,1,66.0000020141602,2|2,0:2|1:2,0:0:0:0:
278,228,34480,1,10,0:2:0:0:
148,228,34780,2,0,L|52:228,1,66.0000020141602,2|2,1:2|1:2,0:0:0:0:
146,228,35230,2,0,L|342:228,1,132.00000402832,2|2,1:2|1:2,0:0:0:0:
136,132,35830,2,0,L|64:132,2,66.0000020141602,2|2|0,0:2|1:2|1:2,0:0:0:0:
281,131,36430,1,0,0:2:0:0:
353,73,36580,6,0,L|173:73,1,132.00000402832,2|10,1:2|0:2,0:0:0:0:
346,132,37180,2,0,L|346:224,1,66.0000020141602,2|2,1:2|1:2,0:0:0:0:
213,195,37630,2,0,L|69:195,1,132.00000402832,2|2,1:2|1:2,0:0:0:0:
213,195,38230,2,0,L|213:43,1,132.00000402832,2|2,0:2|1:2,0:0:0:0:
67,64,38830,6,0,L|151:64,1,66.0000020141602,2|2,0:2|1:2,0:0:0:0:
265,60,39280,1,10,0:2:0:0:
133,64,39580,2,0,L|133:160,1,66.0000020141602,2|2,1:2|1:2,0:0:0:0:
265,131,40030,2,0,L|429:131,1,132.00000402832,2|2,1:2|1:2,0:0:0:0:
265,131,40630,2,0,L|185:131,2,66.0000020141602,0|2|0,0:2|1:2|1:2,0:0:0:0:
411,267,41230,1,0,0:2:0:0:
484,264,41380,6,0,L|484:84,1,132.00000402832,6|0,1:2|1:2,0:0:0:0:
343,139,41980,2,0,L|183:139,1,132.00000402832,10|0,0:2|0:2,0:0:0:0:
343,139,42580,6,0,L|439:139,2,66.0000020141602,2|8|0,0:2|0:2|1:2,0:0:0:0:
211,139,43180,2,0,L|211:279,1,132.00000402832,10|0,0:2|1:2,0:0:0:0:
371,287,43780,6,0,L|207:287,1,132.00000402832,2|0,1:2|1:2,0:0:0:0:
107,299,44380,2,0,L|107:151,1,132.00000402832,10|0,0:2|1:2,0:0:0:0:
239,163,44980,5,2,0:2:0:0:
173,163,45130,1,8,0:2:0:0:
107,163,45280,1,0,1:2:0:0:
239,163,45580,2,0,L|399:163,1,132.00000402832,10|0,0:2|1:2,0:0:0:0:
207,367,46180,6,0,L|207:223,1,132.00000402832,6|0,1:2|1:2,0:0:0:0:
339,231,46780,2,0,L|339:75,1,132.00000402832,10|0,0:2|1:2,0:0:0:0:
175,127,47380,6,0,L|67:127,2,88.000002685547,10|10|10,1:2|1:2|1:2,0:0:0:0:
263,123,47980,2,0,L|262:273,1,132.00000402832,10|0,1:2|1:2,0:0:0:0:
103,359,48580,6,0,L|103:207,1,132.00000402832,2|0,1:2|1:2,0:0:0:0:
235,215,49180,2,0,L|387:131,1,132.00000402832,10|0,0:2|1:2,0:0:0:0:
187,155,49780,6,0,L|115:155,2,66.0000020141602,2|8|0,0:2|0:2|1:2,0:0:0:0:
319,159,50380,1,10,0:2:0:0:
155,159,50680,2,0,L|155:67,1,66.0000020141602,8|8,0:2|0:2,0:0:0:0:
443,111,51580,5,4,0:2:0:0:
256,192,52180,12,0,57280,0:2:0:0:
