osu file format v14

[General]
AudioFilename: audio.mp3
AudioLeadIn: 0
PreviewTime: 73219
Countdown: 0
SampleSet: Soft
StackLeniency: 0.1
Mode: 0
LetterboxInBreaks: 0
WidescreenStoryboard: 0

[Editor]
Bookmarks: 1233,21087,47570,60812,72288,72398,74047,88122
DistanceSpacing: 0.3
BeatDivisor: 4
GridSize: 32
TimelineZoom: 2.7

[Metadata]
Title:Rex Incognito
TitleUnicode:尘世闲游
Artist:Yu-Peng Chen @HOYO-MiX
ArtistUnicode:陈致逸 @HOYO-MiX
Creator:Crissa
Version:Planet Befall
Source:Genshin Impact
Tags:浮世閑歩 原神 钟离 zhongli trailer theme electronic instrumental video game gacha mihoyo the stellar moments ost hazu- cris-
BeatmapID:2831037
BeatmapSetID:1369139

[Difficulty]
HPDrainRate:5
CircleSize:5
OverallDifficulty:8.8
ApproachRate:9.4
SliderMultiplier:1.6
SliderTickRate:1

[Events]
//Background and Video events
0,0,"bg37.jpg",0,0
//Break Periods
//Storyboard Layer 0 (Background)
//Storyboard Layer 1 (Fail)
//Storyboard Layer 2 (Pass)
//Storyboard Layer 3 (Foreground)
//Storyboard Layer 4 (Overlay)
//Storyboard Sound Samples
Sample,72599,0,"order.ogg",75

[TimingPoints]
1233,413.793103448276,4,2,1,40,1,0
1233,-166.666666666667,4,2,1,40,0,0
2681,-166.666666666667,4,2,1,5,0,0
2888,-166.666666666667,4,2,1,40,0,0
6260,363.636363636364,4,2,1,50,1,0
6441,400,4,2,1,50,1,0
6441,-250,4,2,1,50,0,0
6741,-250,4,2,1,5,0,0
6841,419.58041958042,4,2,1,50,1,0
6841,-200,4,2,1,50,0,0
7050,-250,4,2,1,5,0,0
7155,408.163265306122,4,2,1,50,1,0
7155,-166.666666666667,4,2,1,50,0,0
7359,-250,4,2,1,5,0,0
7461,454.545454545455,4,2,1,50,1,0
7574,-250,4,2,1,5,0,0
7688,-250,4,2,1,50,0,0
7856,413.793103448276,4,2,1,50,1,0
7856,-166.666666666667,4,2,1,50,0,0
9511,424.028268551237,4,2,1,40,1,0
9511,-166.666666666667,4,2,1,40,0,0
10571,413.793103448276,4,2,1,50,1,0
10571,-142.857142857143,4,2,1,50,0,0
11181,444.444444444444,4,2,1,50,1,0
11514,472.44094488189,4,2,1,40,1,0
11985,413.793103448276,4,2,1,50,1,0
11985,-166.666666666667,4,2,1,50,0,0
12812,413.793103448276,4,2,1,50,1,0
12812,-166.666666666667,4,2,1,50,0,0
15191,-166.666666666667,4,2,1,5,0,0
15294,-166.666666666667,4,2,1,50,0,0
17777,-125,4,2,1,50,0,0
18605,-166.666666666667,4,2,1,55,0,0
19432,-125,4,2,1,60,0,0
20260,-125,4,2,1,65,0,0
21087,-125,4,2,1,70,0,0
22329,-71.4285714285714,4,2,1,70,0,0
22536,-125,4,2,1,70,0,0
22743,-71.4285714285714,4,2,1,70,0,0
22949,-125,4,2,1,70,0,0
25639,-71.4285714285714,4,2,1,70,0,0
25846,-125,4,2,1,70,0,0
26053,-71.4285714285714,4,2,1,70,0,0
26260,-125,4,2,1,70,0,0
28949,-71.4285714285714,4,2,1,70,0,0
29156,-125,4,2,1,70,0,0
29570,-71.4285714285714,4,2,1,70,0,0
29777,-125,4,2,1,70,0,0
32260,-71.4285714285715,4,2,1,70,0,0
32467,-125,4,2,1,70,0,0
34329,-71.4285714285715,4,2,1,70,0,0
34743,-125,4,2,1,70,0,0
35570,-71.4285714285714,4,2,1,70,0,0
35777,-125,4,2,1,70,0,0
35984,-71.4285714285714,4,2,1,70,0,0
36191,-125,4,2,1,70,0,0
38880,-71.4285714285714,4,2,1,70,0,0
39087,-125,4,2,1,70,0,0
39294,-71.4285714285714,4,2,1,70,0,0
39501,-125,4,2,1,70,0,0
42191,-71.4285714285714,4,2,1,70,0,0
42398,-125,4,2,1,70,0,0
45501,-71.4285714285714,4,2,1,70,0,0
45708,-125,4,2,1,70,0,0
47595,413.793103448276,4,2,1,80,1,0
47595,-125,4,2,1,80,0,0
47801,-125,4,2,1,50,0,0
49284,413.793103448276,4,2,1,50,1,0
50467,422.535211267606,4,2,1,50,1,0
50889,413.793103448276,4,2,1,50,1,0
55822,413.793103448276,4,2,1,50,1,0
55874,413.793103448276,4,2,1,50,1,0
55874,-125,4,2,1,50,0,0
56212,413.793103448276,4,2,1,50,1,0
56605,434.782608695652,4,2,1,50,1,0
57442,444.444444444444,4,2,1,55,1,0
58330,413.793103448276,4,2,1,60,1,0
59985,410.958904109589,4,2,1,65,1,0
59985,-83.3333333333333,4,2,1,65,0,0
60395,-62.5,4,2,1,70,0,0
60806,413.793103448276,4,2,1,75,1,0
60806,-50,4,2,1,75,0,0
67426,-50,4,2,1,80,0,0
71150,-38.4615384615385,4,2,1,80,0,0
71564,-55.5555555555556,4,2,1,80,0,0
71978,-31.25,4,2,1,80,0,0
72288,-31.25,4,2,1,90,0,0
73219,-333.333333333333,4,2,1,60,0,0
73323,-333.333333333333,4,2,1,5,0,0
73426,-333.333333333333,4,2,1,60,0,0
73633,-333.333333333333,4,2,1,5,0,0
73840,-333.333333333333,4,2,1,60,0,0
73943,-333.333333333333,4,2,1,5,0,0
74047,-71.4285714285714,4,2,2,85,0,0
75702,-45.4545454545455,4,2,2,85,0,0
75909,-71.4285714285714,4,2,2,85,0,0
77357,-45.4545454545455,4,2,2,85,0,0
77564,-71.4285714285714,4,2,2,85,0,0
79840,-71.4285714285714,4,2,2,85,0,0
80668,-71.4285714285714,4,2,2,85,0,0
81495,-50,4,2,2,85,0,0
81909,-71.4285714285714,4,2,2,85,0,0
87702,-71.4285714285714,4,2,2,5,0,0
88116,-125,4,2,2,80,0,0
88185,-125,4,2,1,40,0,0
90663,387.096774193548,4,2,1,30,1,0
90663,-200,4,2,1,30,0,0
91243,-200,4,2,1,5,0,0
91437,422.535211267606,4,2,1,30,1,0
91437,-200,4,2,1,30,0,0
92625,480,4,2,1,30,1,0
92625,-200,4,2,1,30,0,0
93937,410.958904109589,4,2,1,30,1,0
93937,-200,4,2,1,30,0,0
94553,-200,4,2,1,5,0,0
94758,-200,4,2,1,30,0,0
95580,408.163265306122,4,2,1,30,1,0
95580,-200,4,2,1,30,0,0
97235,428.571428571429,4,2,1,30,1,0
97235,-200,4,2,1,30,0,0
97877,-200,4,2,1,5,0,0
98092,-200,4,2,1,30,0,0
98520,387.096774193548,4,2,1,30,1,0
98907,422.535211267606,4,2,1,30,1,0
98907,-200,4,2,1,30,0,0
100676,413.793103448276,4,2,1,30,1,0
103986,-100,4,2,1,5,0,0

[Colours]
Combo1 : 254,214,118
Combo2 : 255,157,60
Combo3 : 179,138,98
Combo4 : 176,176,176

[HitObjects]
87,185,1233,5,2,0:0:0:0:
126,192,1336,1,2,0:0:0:0:
154,177,1439,1,2,0:0:0:0:
166,156,1543,2,0,B|163:113|126:101|126:101|133:97|133:97|115:61|139:26|185:16|215:42|225:87|191:109,1,263.99999194336,2|0,0:0|0:0,0:0:0:0:
269,244,2888,6,0,P|241:211|320:201,1,164.571423549107,2|2,0:0|0:3,0:0:0:0:
350,257,3715,1,2,0:3:0:0:
385,171,3833,2,0,P|410:158|447:159,2,54.8571411830358,2|2|2,0:3|0:3|0:3,0:0:0:0:
459,333,4543,5,2,0:0:0:0:
461,301,4646,1,2,0:0:0:0:
479,276,4750,1,0,0:0:0:0:
498,269,4853,2,0,B|509:257|522:250|522:250|466:245|458:188,1,125.999996154785,0|2,0:0|0:0,0:0:0:0:
442,17,6260,5,2,0:0:0:0:
442,17,6441,2,0,L|430:67,1,48,2|0,0:0|0:0,0:0:0:0:
405,82,6841,2,0,L|419:136,1,40,2|0,0:0|0:0,0:0:0:0:
403,159,7155,2,0,L|450:182,1,47.9999985351563,2|0,0:0|0:0,0:0:0:0:
512,204,7461,2,0,L|462:217,1,40,2|0,0:0|0:0,0:0:0:0:
386,244,7688,1,2,0:0:0:0:
497,359,7856,5,2,0:0:0:0:
461,340,7959,1,2,0:0:0:0:
427,343,8062,1,2,0:0:0:0:
405,361,8166,2,0,B|381:365|359:358|345:335|342:317|342:317|336:321|336:321|289:302|255:343|255:343|255:336|255:336|207:340|192:299,1,263.99999194336,2|2,0:0|0:3,0:0:0:0:
168,204,9407,1,2,0:3:0:0:
161,218,9511,6,0,B|129:209|103:191|103:191|112:162|130:133|130:133|162:143|187:160|187:160|179:189|161:218,1,239.999992675781,2|2,0:3|0:0,0:0:0:0:
113,331,10726,1,2,0:0:0:0:
113,331,10777,2,0,P|144:328|174:322,1,55.9999982910157,2|0,0:0|0:0,0:0:0:0:
289,245,11181,1,2,0:0:0:0:
306,256,11292,2,0,P|313:276|312:304,1,40,2|0,0:0|0:0,0:0:0:0:
285,357,11514,1,0,0:0:0:0:
498,235,11985,6,0,P|453:224|442:166,1,95.9999970703126,2|0,0:0|3:3,0:0:0:0:
495,92,12605,2,0,L|512:96,1,11.9999996337891,0|0,3:3|3:0,0:0:0:0:
310,49,12812,6,0,B|303:55|300:67|300:67|312:73|325:77|325:77|332:66|336:54|336:54|326:45|313:41,1,95.9999970703126,4|0,3:3|0:2,0:0:0:0:
225,267,13639,2,0,B|241:246|251:226|251:226|244:203|225:175,1,95.9999970703126,10|0,0:0|0:0,0:0:0:0:
20,333,14467,6,0,B|75:350|103:302|103:302|114:310|114:310|124:296|124:296|131:303|131:303|140:300|140:300|147:309|147:309|163:310,1,167.999994873047,10|0,0:2|0:0,0:0:0:0:
176,314,15294,1,2,0:3:0:0:
233,355,15708,1,0,3:0:0:0:
325,316,15915,1,0,3:0:0:0:
336,314,15984,1,0,3:0:0:0:
396,353,16122,6,0,P|440:344|496:336,1,95.9999970703126,2|0,3:2|0:0,0:0:0:0:
351,194,16949,2,0,B|350:240|350:240|395:271,1,95.9999970703126,8|0,0:0|0:0,0:0:0:0:
487,30,17777,5,2,3:2:0:0:
457,63,17880,1,2,0:2:0:0:
419,69,17984,1,2,0:2:0:0:
386,57,18087,2,0,P|354:60|330:84,1,64,2|0,0:0|0:0,0:0:0:0:
302,176,18398,2,0,L|313:219,1,32,0|0,3:0|3:0,0:0:0:0:
183,110,18605,6,0,B|175:94|175:94|256:106,1,95.9999970703126,0|0,3:0|0:0,0:0:0:0:
191,17,19225,1,0,3:0:0:0:
264,188,19432,2,0,B|306:176|306:176|316:161|316:161|391:146,1,128,0|8,3:0|3:0,0:0:0:0:
252,105,20053,1,8,3:3:0:0:
217,323,20260,5,4,3:3:0:0:
286,290,20467,1,4,3:3:0:0:
129,295,20674,5,8,3:2:0:0:
371,302,20880,1,8,3:2:0:0:
81,365,21087,5,4,1:2:0:0:
81,365,21294,2,0,P|69:349|57:335,1,32,2|0,0:0|0:0,0:0:0:0:
118,267,21501,2,0,P|120:282|122:298,1,32
194,261,21708,2,0,P|200:246|205:231,1,32
32,261,21915,1,0,0:0:0:0:
32,261,22122,6,0,P|21:245|16:227,1,32,2|0,0:0|0:0,0:0:0:0:
187,352,22329,2,0,B|216:354|216:354|243:337,1,55.9999982910157,2|0,1:2|0:0,0:0:0:0:
105,283,22536,2,0,P|100:266|99:249,1,32,2|0,0:0|0:0,0:0:0:0:
308,363,22743,6,0,B|319:345|319:345|307:299,1,55.9999982910157,10|0,0:2|0:0,0:0:0:0:
229,148,22949,6,0,L|264:169,1,32,0|0,1:0|0:0,0:0:0:0:
311,118,23156,2,0,L|330:153,1,32
397,133,23363,2,0,L|396:173,1,32
464,285,23570,6,0,L|492:270,1,32
445,216,23777,2,0,L|462:189,1,32
396,164,23984,2,0,L|397:133,1,32,2|0,0:0|0:0,0:0:0:0:
311,118,24191,5,0,0:0:0:0:
312,134,24294,1,0,0:0:0:0:
229,148,24398,5,2,1:2:0:0:
190,125,24501,1,2,0:0:0:0:
181,87,24605,1,2,0:0:0:0:
195,58,24708,1,2,0:0:0:0:
209,53,24812,6,0,P|225:58|247:65,1,32
286,117,25018,2,0,P|307:111|322:104,1,32
405,11,25225,2,0,P|404:29|402:50,1,32,2|0,0:0|0:0,0:0:0:0:
462,83,25432,2,0,P|448:95|434:107,1,32
217,197,25639,6,0,B|240:213|240:213|282:207,1,55.9999982910157,0|0,1:0|0:0,0:0:0:0:
456,177,25846,2,0,P|434:175|405:170,1,32
147,172,26053,6,0,B|137:190|137:190|152:251,1,55.9999982910157,10|0,0:2|0:0,0:0:0:0:
281,351,26260,2,0,P|262:346|245:345,1,32,0|0,1:0|0:0,0:0:0:0:
344,315,26467,2,0,P|361:307|380:302,1,32
271,218,26674,2,0,L|295:211,3,16,2|0|0|0,0:0|0:0|0:0|0:0,0:0:0:0:
265,230,26880,6,0,L|254:187,1,32,2|0,1:2|0:0,0:0:0:0:
207,137,27087,2,0,L|196:180,1,32,0|0,3:0|3:0,0:0:0:0:
120,207,27294,2,0,L|159:216,1,32,2|0,3:2|0:0,0:0:0:0:
199,286,27501,2,0,L|167:278,1,32,0|0,3:0|0:0,0:0:0:0:
44,101,27708,5,2,1:2:0:0:
88,80,27812,1,2,0:2:0:0:
124,100,27915,1,2,0:2:0:0:
159,88,28018,1,2,0:2:0:0:
176,98,28122,6,0,P|182:118|187:136,1,32
253,148,28329,2,0,P|249:167|243:184,1,32
172,276,28536,2,0,P|195:269|208:266,1,32
236,331,28743,2,0,P|252:333|269:338,1,32
447,239,28949,6,0,B|460:266|460:266|448:297,1,55.9999982910157,0|0,1:0|0:0,0:0:0:0:
316,272,29156,2,0,P|336:269|357:265,1,32
469,114,29363,1,8,0:2:0:0:
423,103,29467,1,0,0:0:0:0:
396,126,29570,2,0,B|386:150|386:150|399:177,1,55.9999982910157,2|0,1:2|0:0,0:0:0:0:
405,29,29777,6,0,P|386:25|368:21,1,32
321,63,29984,2,0,P|307:50|296:38,1,32
161,57,30191,6,0,P|163:72|168:89,1,32
238,3,30398,2,0,P|233:14|224:34,1,32
228,145,30605,2,0,P|234:127|238:111,1,32,2|0,0:0|0:0,0:0:0:0:
186,207,30812,2,0,P|171:192|157:181,1,32
423,201,31018,5,2,1:2:0:0:
381,218,31122,1,2,0:2:0:0:
348,206,31225,2,0,L|326:168,1,32,2|0,0:2|0:0,0:0:0:0:
346,63,31432,5,0,0:0:0:0:
357,56,31501,1,0,0:0:0:0:
369,56,31570,1,0,0:0:0:0:
379,62,31639,1,0,3:1:0:0:
388,71,31708,1,0,0:0:0:0:
400,73,31777,1,0,0:0:0:0:
412,69,31846,5,2,0:0:0:0:
454,71,31949,1,2,0:0:0:0:
485,101,32053,1,2,0:0:0:0:
481,143,32156,1,2,0:0:0:0:
403,163,32260,6,0,B|421:157|421:157|462:172,1,55.9999982910157,0|0,1:0|0:0,0:0:0:0:
494,268,32467,2,0,L|489:236,1,32,0|0,3:0|0:0,0:0:0:0:
252,361,32674,5,8,0:2:0:0:
354,360,32812,5,2,0:0:0:0:
404,271,32949,5,2,0:0:0:0:
351,183,33087,5,2,0:0:0:0:
390,273,33225,5,2,0:0:0:0:
345,351,33363,5,2,0:0:0:0:
202,261,33501,5,0,1:2:0:0:
235,118,33708,2,0,P|239:130|243:148,1,32,0|0,3:0|3:0,0:0:0:0:
316,158,33915,2,0,P|312:173|303:194,1,32,0|0,3:0|0:0,0:0:0:0:
178,265,34122,2,0,L|181:294,3,16,0|0|0|0,3:0|0:0|0:0|0:0,0:0:0:0:
182,253,34329,6,0,B|166:245|166:245|158:190,1,55.9999982910157,2|0,1:2|0:0,0:0:0:0:
102,79,34536,1,2,0:0:0:0:
66,105,34639,1,2,0:0:0:0:
64,132,34743,2,0,P|66:151|71:172,1,32
34,226,34949,2,0,P|51:237|73:249,1,32
141,274,35156,6,0,P|124:285|102:297,1,32
185,331,35363,2,0,P|178:348|171:366,1,32
312,197,35570,6,0,B|288:184|288:184|257:194,1,55.9999982910157,0|0,1:0|0:0,0:0:0:0:
320,321,35777,2,0,P|326:338|334:356,1,32
390,146,35984,6,0,B|382:130|382:130|334:106,1,55.9999982910157,8|0,0:2|0:0,0:0:0:0:
385,296,36191,2,0,P|403:302|421:309,1,32,0|0,1:0|0:0,0:0:0:0:
450,244,36398,2,0,P|465:242|481:240,1,32
485,168,36605,2,0,P|502:158|519:146,1,32
489,53,36812,6,0,P|484:70|477:89,1,32
512,151,37018,2,0,P|498:159|485:168,1,32
481,240,37225,2,0,P|465:242|450:245,1,32,2|0,0:0|0:0,0:0:0:0:
415,306,37432,5,0,0:0:0:0:
399,300,37536,1,0,0:0:0:0:
350,357,37639,5,2,1:2:0:0:
312,379,37743,1,2,0:2:0:0:
275,376,37846,1,2,0:2:0:0:
252,361,37949,1,2,0:2:0:0:
247,347,38053,6,0,P|244:328|244:312,1,32
185,275,38260,2,0,P|187:256|192:237,1,32
281,140,38467,2,0,P|299:151|318:163,1,32,2|0,0:0|0:0,0:0:0:0:
253,206,38674,2,0,P|258:223|268:244,1,32
51,313,38880,6,0,B|37:304|37:304|27:261,1,55.9999982910157,0|0,1:0|0:0,0:0:0:0:
96,118,39087,2,0,P|104:99|111:80,1,32
168,343,39294,6,0,B|144:358|144:358|111:350,1,55.9999982910157,8|0,0:2|0:0,0:0:0:0:
263,236,39501,2,0,P|282:243|305:254,1,32,0|0,1:0|0:0,0:0:0:0:
359,222,39708,2,0,P|363:239|369:264,1,32
374,368,39915,2,0,L|376:385,3,16,2|0|0|0,0:2|0:0|0:0|0:0,0:0:0:0:
362,374,40122,2,0,P|343:369|324:362,1,32,2|0,1:2|0:0,0:0:0:0:
259,369,40329,2,0,P|248:350|240:330,1,32,0|0,3:0|3:0,0:0:0:0:
168,188,40536,6,0,P|156:199|146:211,1,32,2|0,3:2|0:0,0:0:0:0:
186,274,40743,2,0,P|182:290|180:306,1,32,0|0,3:0|0:0,0:0:0:0:
380,360,40949,5,2,1:2:0:0:
416,324,41053,1,2,0:2:0:0:
421,277,41156,1,2,0:2:0:0:
406,244,41260,1,2,0:2:0:0:
393,234,41363,6,0,P|373:232|353:231,1,32
309,180,41570,2,0,P|293:188|276:198,1,32
225,255,41777,6,0,P|219:235|215:220,1,32,2|0,0:0|0:0,0:0:0:0:
139,288,41984,2,0,P|147:269|153:252,1,32
94,30,42191,6,0,B|85:56|85:56|103:91,1,55.9999982910157,0|0,1:0|0:0,0:0:0:0:
234,66,42398,2,0,P|214:62|194:59,1,32
0,154,42605,1,10,0:2:0:0:
38,166,42708,1,2,0:2:0:0:
44,185,42812,2,0,P|46:203|50:226,1,32,2|2,1:2|0:0,0:0:0:0:
107,252,43018,2,0,P|98:269|87:290,1,32
118,344,43225,2,0,P|99:349|78:355,1,32
201,302,43432,6,0,P|185:297|170:293,1,32
279,300,43639,2,0,P|269:280|258:256,1,32
426,327,43846,6,0,P|421:312|415:297,1,32,2|0,0:0|0:0,0:0:0:0:
334,357,44053,2,0,P|343:342|353:326,1,32
413,138,44260,5,2,1:2:0:0:
365,148,44363,1,2,0:2:0:0:
342,177,44467,2,0,L|336:221,1,32,2|0,0:2|0:0,0:0:0:0:
264,271,44674,5,2,0:0:0:0:
251,272,44743,1,0,0:0:0:0:
239,266,44812,1,0,0:0:0:0:
232,255,44880,1,0,3:0:0:0:
231,242,44949,1,0,0:0:0:0:
235,229,45018,1,0,0:0:0:0:
243,219,45087,5,2,0:2:0:0:
274,180,45191,1,2,0:2:0:0:
271,136,45294,1,2,0:2:0:0:
240,112,45398,1,2,0:2:0:0:
203,55,45501,6,0,B|210:83|210:83|203:111,1,55.9999982910157,0|0,1:0|0:0,0:0:0:0:
91,94,45708,2,0,L|129:85,1,32
243,219,45915,5,10,0:2:0:0:
264,265,46018,1,2,0:0:0:0:
254,309,46122,1,2,1:2:0:0:
222,330,46225,1,2,0:0:0:0:
175,329,46329,5,2,0:0:0:0:
141,356,46432,1,2,0:0:0:0:
108,339,46536,1,2,0:0:0:0:
85,347,46639,1,2,0:0:0:0:
0,240,46743,5,2,1:2:0:0:
36,274,46846,1,2,0:0:0:0:
87,275,46949,1,2,0:0:0:0:
135,254,47053,1,2,0:0:0:0:
170,192,47156,5,2,3:2:0:0:
239,191,47260,1,2,0:0:0:0:
261,256,47363,1,2,0:0:0:0:
205,297,47467,1,2,0:0:0:0:
148,256,47595,6,0,B|136:223|157:223|145:192,1,64,6|0,0:0|0:0,0:0:0:0:
181,163,49043,1,2,0:0:0:0:
219,308,49284,5,2,0:0:0:0:
287,296,49491,1,2,0:0:0:0:
355,284,49697,1,2,0:0:0:0:
460,38,50467,5,0,3:0:0:0:
399,56,50572,1,0,3:0:0:0:
364,109,50678,1,0,3:0:0:0:
360,173,50783,1,0,3:0:0:0:
389,229,50889,1,0,1:0:0:0:
389,229,51716,5,0,1:0:0:0:
385,249,51785,1,0,1:0:0:0:
382,270,51854,1,0,1:0:0:0:
181,336,53302,5,2,0:0:0:0:
178,330,53371,1,2,0:0:0:0:
160,211,53647,5,0,3:0:0:0:
142,92,53923,5,0,3:0:0:0:
253,133,54130,5,0,3:0:0:0:
258,145,54199,1,0,3:0:0:0:
260,160,54268,1,0,3:0:0:0:
257,178,54337,1,0,3:0:0:0:
249,192,54406,1,0,1:0:0:0:
412,363,55026,5,2,0:0:0:0:
423,360,55095,1,2,0:0:0:0:
451,226,55302,1,2,0:0:0:0:
234,100,55822,5,2,0:0:0:0:
230,87,55874,2,0,P|230:63|236:46,1,32,2|2,0:0|0:0,0:0:0:0:
378,52,56212,2,0,P|342:52|305:78,1,80,2|2,0:0|0:0,0:0:0:0:
354,231,56605,5,2,0:0:0:0:
343,209,56749,1,2,0:0:0:0:
345,185,56894,1,2,0:0:0:0:
359,165,57039,1,2,0:0:0:0:
381,156,57184,1,2,0:0:0:0:
404,157,57329,1,2,0:0:0:0:
425,166,57442,6,0,L|443:183,1,20,2|2,0:0|0:0,0:0:0:0:
455,254,57664,1,2,0:0:0:0:
401,329,57886,1,2,0:0:0:0:
399,337,57942,1,2,0:0:0:0:
236,373,58275,5,2,0:0:0:0:
231,361,58330,1,2,0:0:0:0:
81,298,58743,1,2,0:0:0:0:
85,286,58795,2,0,L|95:256,1,20,2|0,0:0|0:0,0:0:0:0:
308,195,59157,5,2,0:0:0:0:
303,183,59209,1,2,0:0:0:0:
87,109,59571,1,2,0:0:0:0:
92,98,59623,2,0,L|107:65,1,20,2|0,0:0|0:0,0:0:0:0:
319,24,59985,5,2,0:0:0:0:
326,33,60036,2,0,L|319:61,1,23.9999992675781,2|0,0:0|0:0,0:0:0:0:
297,136,60190,2,0,L|283:192,1,47.9999985351563,2|0,0:0|0:0,0:0:0:0:
451,79,60396,5,2,0:0:0:0:
458,88,60447,2,0,L|449:123,1,32,2|0,0:0|0:0,0:0:0:0:
421,233,60601,2,0,L|401:309,1,64,2|0,0:0|0:0,0:0:0:0:
132,326,60806,6,0,P|176:269|264:288,1,160,4|0,1:2|0:0,0:0:0:0:
322,356,61116,1,8,3:0:0:0:
255,280,61219,2,0,P|244:247|263:204,1,80,4|0,3:0|0:0,0:0:0:0:
325,84,61426,2,0,P|336:117|317:160,1,80,8|0,0:2|0:0,0:0:0:0:
319,157,61633,2,0,P|323:108|209:112,1,160,4|6,0:3|3:0,0:0:0:0:
167,135,61909,1,2,0:0:0:0:
152,131,61978,1,2,0:0:0:0:
138,128,62047,2,0,P|124:97|147:53,1,80,6|0,3:0|0:0,0:0:0:0:
203,193,62254,2,0,P|217:229|199:264,1,80,8|0,3:0|0:0,0:0:0:0:
0,325,62461,6,0,B|47:333|47:333|53:342|53:342|152:359,1,160,0|0,1:0|0:0,0:0:0:0:
269,300,62771,1,8,3:0:0:0:
136,369,62874,2,0,L|57:355,1,80,4|0,3:0|0:0,0:0:0:0:
235,211,63081,2,0,L|262:286,1,80,8|0,0:2|0:0,0:0:0:0:
233,378,63288,5,4,3:0:0:0:
262,286,63495,1,0,3:0:0:0:
317,111,63702,1,4,3:0:0:0:
379,324,63909,5,0,1:0:0:0:
394,321,63978,1,0,1:0:0:0:
409,318,64047,1,0,1:0:0:0:
424,315,64116,6,0,B|436:261|436:261|428:245|428:245|445:151,1,160,8|0,1:2|0:0,0:0:0:0:
469,37,64426,1,8,3:0:0:0:
429,166,64530,2,0,L|413:251,1,80,4|0,3:0|0:0,0:0:0:0:
331,48,64737,2,0,L|347:133,1,80,8|0,0:0|0:0,0:0:0:0:
220,281,64943,6,0,P|203:244|309:218,1,160,4|6,3:0|3:0,0:0:0:0:
360,248,65219,1,2,0:0:0:0:
374,259,65288,1,2,0:0:0:0:
387,270,65357,2,0,L|468:259,1,80,6|0,3:0|0:0,0:0:0:0:
488,88,65564,2,0,L|457:163,1,80,8|0,3:0|0:0,0:0:0:0:
354,371,65771,6,0,B|306:376|306:376|289:363|289:363|196:373,1,160,0|0,1:0|0:0,0:0:0:0:
84,374,66081,1,8,3:3:0:0:
209,357,66185,2,0,L|303:347,1,80,4|0,3:0|0:0,0:0:0:0:
164,188,66392,2,0,L|125:274,1,80,8|0,0:0|0:0,0:0:0:0:
84,374,66599,5,4,3:0:0:0:
131,261,66806,1,0,3:0:0:0:
205,78,67012,1,4,3:0:0:0:
253,320,67219,5,0,1:0:0:0:
268,316,67288,1,0,1:0:0:0:
283,312,67357,1,0,1:0:0:0:
298,308,67426,6,0,B|335:230|265:230|300:154,1,160,8|0,0:0|0:0,0:0:0:0:
358,50,67737,1,8,3:0:0:0:
286,152,67840,2,0,P|275:198|284:234,1,80,4|0,3:0|0:0,0:0:0:0:
465,196,68047,2,0,P|431:184|376:203,1,80,8|0,0:2|0:0,0:0:0:0:
389,193,68254,6,0,P|462:235|448:311,1,160,4|6,3:0|3:0,0:0:0:0:
386,354,68530,1,2,0:0:0:0:
367,359,68599,1,2,0:0:0:0:
348,364,68668,2,0,B|323:369|323:369|305:318,1,80,6|0,3:0|0:0,0:0:0:0:
202,192,68874,2,0,B|227:187|227:187|245:238,1,80,8|0,3:0|0:0,0:0:0:0:
47,337,69081,6,0,B|88:327|88:327|110:344|110:344|202:326,1,160,0|0,1:0|0:0,0:0:0:0:
313,304,69392,1,8,3:0:0:0:
191,342,69495,2,0,L|107:358,1,80,4|0,3:0|0:0,0:0:0:0:
316,235,69702,2,0,L|400:251,1,80,8|0,0:2|0:0,0:0:0:0:
197,257,69909,5,4,3:0:0:0:
316,235,70116,1,0,3:0:0:0:
508,199,70323,1,4,3:0:0:0:
255,126,70530,5,0,1:0:0:0:
251,141,70599,1,0,1:0:0:0:
247,156,70668,1,0,1:0:0:0:
243,171,70737,6,0,B|215:202|215:202|171:197,1,80,0|0,1:0|0:0,0:0:0:0:
138,106,70943,2,0,B|165:74|165:74|209:79,1,80,0|0,1:0|0:0,0:0:0:0:
313,35,71150,6,0,B|350:72|350:72|344:144,1,103.999995239258,0|0,1:0|0:0,0:0:0:0:
75,241,71357,2,0,B|37:205|37:205|43:133,1,103.999995239258,0|0,1:0|0:0,0:0:0:0:
425,111,71564,6,0,L|410:164,2,35.9999989013672,0|0|0,1:0|3:0|3:0,0:0:0:0:
317,199,71771,2,0,L|330:245,2,35.9999989013672,0|0|0,1:0|3:0|3:0,0:0:0:0:
477,362,71978,6,0,L|401:375,2,64,0|0|0,1:0|3:0|3:0,0:0:0:0:
270,302,72185,2,0,L|190:287,2,64,0|0|0,1:0|3:0|3:0,0:0:0:0:
29,343,72392,5,6,1:2:0:0:
353,117,73219,6,0,L|359:134,1,11.9999996337891,2|0,0:0|0:0,0:0:0:0:
369,131,73426,2,0,L|361:108,1,23.9999992675781,2|0,0:0|0:0,0:0:0:0:
417,197,73840,6,0,L|411:214,1,11.9999996337891,2|0,0:0|0:0,0:0:0:0:
66,193,74047,6,0,P|94:206|110:238,1,55.9999982910157,4|0,3:2|0:0,0:0:0:0:
97,174,74254,2,0,P|110:201|101:236,1,55.9999982910157,2|0,0:0|0:0,0:0:0:0:
132,179,74461,2,0,P|124:208|95:230,1,55.9999982910157,2|0,0:0|0:0,0:0:0:0:
28,267,74668,1,0,0:0:0:0:
15,261,74771,1,0,0:0:0:0:
42,348,74874,6,0,P|61:329|95:319,1,55.9999982910157
72,371,75081,2,0,P|74:344|93:314,1,55.9999982910157
320,322,75288,6,0,B|320:338|320:338|336:338|336:338|337:323|337:323|320:322,1,55.9999982910157,2|0,3:0|0:0,0:0:0:0:
331,227,75495,2,0,B|330:211|330:211|315:211|315:211|314:227|314:227|331:227,1,55.9999982910157
421,204,75702,6,0,B|393:231|393:231|378:236|378:236|279:335,1,176.000005371094,8|2,0:2|0:0,0:0:0:0:
217,346,75978,1,2,0:0:0:0:
222,360,76047,1,2,0:0:0:0:
226,373,76116,2,0,L|127:343,1,55.9999982910157,2|0,0:0|0:0,0:0:0:0:
116,286,76323,2,0,L|17:256,1,55.9999982910157,2|0,0:0|0:0,0:0:0:0:
315,191,76530,5,2,3:2:0:0:
230,219,76668,5,2,0:2:0:0:
142,200,76806,5,2,0:2:0:0:
75,140,76943,5,2,0:2:0:0:
47,54,77081,5,2,0:2:0:0:
61,51,77150,1,2,0:0:0:0:
75,49,77219,1,0,0:0:0:0:
89,47,77288,1,0,0:0:0:0:
103,45,77357,6,0,P|149:58|129:183,1,176.000005371094,2|0,3:2|0:0,0:0:0:0:
86,234,77633,1,2,0:0:0:0:
89,248,77702,1,2,0:0:0:0:
93,262,77771,6,0,L|113:340,1,55.9999982910157,2|0,0:0|0:0,0:0:0:0:
61,283,77978,2,0,L|126:329,1,55.9999982910157,2|0,0:0|0:0,0:0:0:0:
205,376,78185,6,0,L|185:298,1,55.9999982910157,2|0,0:0|0:0,0:0:0:0:
237,355,78392,2,0,L|172:309,1,55.9999982910157,2|0,0:0|0:0,0:0:0:0:
21,184,78599,6,0,B|20:168|20:168|5:168|5:168|4:184|4:184|21:184,1,55.9999982910157,0|0,3:0|0:0,0:0:0:0:
171,147,78806,2,0,L|116:159,1,55.9999982910157,2|0,0:0|0:0,0:0:0:0:
13,7,79012,6,0,P|28:31|57:41,1,55.9999982910157,10|0,0:2|0:0,0:0:0:0:
1,41,79219,2,0,P|27:49|56:38,1,55.9999982910157
182,0,79426,5,0,0:0:0:0:
186,14,79495,1,0,0:0:0:0:
189,28,79564,1,0,0:0:0:0:
192,42,79633,1,0,0:0:0:0:
196,56,79702,1,0,0:0:0:0:
200,70,79771,1,0,0:0:0:0:
226,65,79840,6,0,L|218:117,1,37.3333321940105,10|0,1:2|0:0,0:0:0:0:
208,167,79978,6,0,L|201:212,1,37.3333321940105,8|2,1:2|0:0,0:0:0:0:
190,269,80116,6,0,L|183:314,1,37.3333321940105,8|0,1:2|0:0,0:0:0:0:
172,371,80254,6,0,L|162:308,1,55.9999982910157,10|0,1:2|0:0,0:0:0:0:
68,193,80461,2,0,L|74:164,4,18.6666660970052,0|0|0|0|0,3:0|0:0|0:0|0:0|0:0,0:0:0:0:
11,127,80668,5,2,0:0:0:0:
11,127,80943,5,2,0:0:0:0:
11,127,81219,5,2,0:0:0:0:
44,346,81495,6,0,P|218:361|287:370,1,240,4|0,3:2|0:0,0:0:0:0:
300,364,81909,6,0,P|311:335|304:307,1,55.9999982910157,2|0,3:2|0:0,0:0:0:0:
261,203,82116,2,0,P|250:232|257:260,1,55.9999982910157
494,283,82323,6,0,P|454:286|414:216,1,111.999996582031,8|0,0:2|0:0,0:0:0:0:
434,142,82599,1,2,0:0:0:0:
442,129,82668,1,2,0:0:0:0:
451,117,82737,2,0,L|480:69,1,55.9999982910157,2|0,0:0|0:0,0:0:0:0:
357,8,82943,2,0,L|386:55,1,55.9999982910157,2|0,0:0|0:0,0:0:0:0:
245,53,83150,6,0,P|273:57|301:79,1,55.9999982910157,2|0,3:2|0:0,0:0:0:0:
248,98,83357,2,0,P|269:79|303:71,1,55.9999982910157,2|0,0:0|0:0,0:0:0:0:
285,124,83564,2,0,P|284:95|300:64,1,55.9999982910157
102,55,83771,6,0,L|76:48,4,18.6666660970052,2|0|0|0|0,0:0|0:0|0:0|0:0|0:0,0:0:0:0:
144,105,83978,2,0,L|170:98,4,18.6666660970052,2|0|0|0|0,3:2|0:0|0:0|0:0|0:0,0:0:0:0:
0,168,84254,5,2,0:0:0:0:
125,196,84392,1,2,0:0:0:0:
251,225,84530,1,2,0:0:0:0:
376,254,84668,1,2,0:0:0:0:
501,283,84806,5,2,0:0:0:0:
376,254,85012,1,2,0:0:0:0:
125,196,85219,5,0,3:0:0:0:
251,225,85426,1,2,0:0:0:0:
0,168,85633,6,0,L|5:147,3,18.6666660970052,10|2|0|0,0:2|0:0|0:0|0:0,0:0:0:0:
125,196,85909,2,0,L|130:175,5,18.6666660970052,2|2|0|0|0|0,3:2|0:0|0:0|0:0|0:0|0:0,0:0:0:0:
251,225,86254,2,0,L|256:204,3,18.6666660970052,2|2|0|0,3:2|0:0|0:0|0:0,0:0:0:0:
376,254,86461,1,0,3:0:0:0:
441,191,86668,5,2,1:2:0:0:
437,176,86737,1,2,1:2:0:0:
433,161,86806,1,2,1:2:0:0:
429,146,86874,1,2,1:2:0:0:
313,81,87081,1,2,0:2:0:0:
239,265,87288,6,0,B|209:256|184:239|184:239|193:212|207:187|207:187|239:192|262:213|262:213|255:237|239:265,1,223.999993164063,2|0,0:2|0:0,0:0:0:0:
42,334,88116,6,0,P|33:322|28:308,24,21.3333333333333,0|0|0|0|0|0|0|0|0|0|0|0|0|0|0|0|0|0|0|0|0|0|0|0|0,1:0|0:0|0:0|0:0|0:0|0:0|0:0|0:0|0:0|0:0|0:0|0:0|0:0|0:0|0:0|0:0|0:0|0:0|0:0|0:0|0:0|0:0|0:0|0:0|0:0,0:0:0:0:
420,324,90663,6,0,B|444:264|398:264|418:207,1,120,2|0,0:0|0:0,0:0:0:0:
256,240,91437,2,0,P|300:230|340:217,1,80,2|2,0:0|0:0,0:0:0:0:
158,189,92282,5,2,0:0:0:0:
268,119,92625,1,2,0:0:0:0:
276,109,92685,2,0,P|282:90|281:75,1,30,2|2,0:0|0:0,0:0:0:0:
215,13,93105,1,2,0:0:0:0:
124,45,93345,1,2,0:0:0:0:
36,313,93937,6,0,B|92:338|91:288|152:311,1,120,2|0,0:0|0:0,0:0:0:0:
236,356,94758,2,0,P|227:323|244:279,1,80,0|2,0:0|0:0,0:0:0:0:
389,330,95580,5,2,0:0:0:0:
420,189,95852,1,2,0:0:0:0:
418,178,95920,1,2,0:0:0:0:
416,167,95988,2,0,L|409:120,1,40,2|2,0:0|0:0,0:0:0:0:
307,216,96396,1,2,0:0:0:0:
235,162,96600,1,2,0:0:0:0:
75,31,97235,6,0,P|100:26|140:99,1,120
287,37,98092,2,0,P|247:32|215:63,1,80,0|2,0:0|0:0,0:0:0:0:
194,238,98907,5,2,0:0:0:0:
292,319,99188,1,2,0:0:0:0:
302,317,99259,1,2,0:0:0:0:
312,315,99329,2,0,L|361:308,1,40,2|2,0:0|0:0,0:0:0:0:
472,291,99752,1,2,0:0:0:0:
498,202,99963,1,2,0:0:0:0:
256,192,100676,5,2,0:0:0:0:
256,192,100779,12,0,103986,0:0:0:0:
