osu file format v14

[General]
AudioFilename: audio.mp3
AudioLeadIn: 0
PreviewTime: 73219
Countdown: 0
SampleSet: Soft
StackLeniency: 0.5
Mode: 0
LetterboxInBreaks: 0
WidescreenStoryboard: 1

[Editor]
Bookmarks: 1233,21087,47570,60812,72288,72398,74047,88122
DistanceSpacing: 1.6
BeatDivisor: 4
GridSize: 32
TimelineZoom: 2.7

[Metadata]
Title:Rex Incognito
TitleUnicode:尘世闲游
Artist:Yu-Peng Chen @HOYO-MiX
ArtistUnicode:陈致逸 @HOYO-MiX
Creator:Crissa
Version:Normal
Source:Genshin Impact
Tags:浮世閑歩 原神 钟离 zhongli trailer theme electronic instrumental video game gacha mihoyo the stellar moments ost hazu- cris-
BeatmapID:2839507
BeatmapSetID:1369139

[Difficulty]
HPDrainRate:3
CircleSize:3.5
OverallDifficulty:5
ApproachRate:6
SliderMultiplier:1.2
SliderTickRate:1

[Events]
//Background and Video events
0,0,"bg37.jpg",0,0
//Break Periods
2,47795,58935
//Storyboard Layer 0 (Background)
//Storyboard Layer 1 (Fail)
//Storyboard Layer 2 (Pass)
//Storyboard Layer 3 (Foreground)
//Storyboard Layer 4 (Overlay)
//Storyboard Sound Samples
Sample,72599,0,"order.ogg",75

[TimingPoints]
1233,413.793103448276,4,2,1,40,1,0
1233,-125,4,2,1,40,0,0
2681,-125,4,2,1,5,0,0
2888,-125,4,2,1,40,0,0
6260,363.636363636364,4,2,1,50,1,0
6260,-125,4,2,1,50,0,0
6441,400,4,2,1,50,1,0
6441,-125,4,2,1,50,0,0
6741,-125,4,2,1,5,0,0
6841,419.58041958042,4,2,1,50,1,0
6841,-125,4,2,1,50,0,0
7050,-125,4,2,1,5,0,0
7155,408.163265306122,4,2,1,50,1,0
7155,-125,4,2,1,50,0,0
7359,-125,4,2,1,5,0,0
7461,454.545454545455,4,2,1,50,1,0
7461,-125,4,2,1,50,0,0
7574,-125,4,2,1,5,0,0
7688,-125,4,2,1,50,0,0
7856,413.793103448276,4,2,1,50,1,0
7856,-125,4,2,1,50,0,0
9511,424.028268551237,4,2,1,40,1,0
9511,-125,4,2,1,40,0,0
10571,413.793103448276,4,2,1,50,1,0
10571,-125,4,2,1,50,0,0
11181,444.444444444444,4,2,1,50,1,0
11181,-125,4,2,1,50,0,0
11514,472.44094488189,4,2,1,40,1,0
11985,413.793103448276,4,2,1,50,1,0
11985,-125,4,2,1,50,0,0
12812,413.793103448276,4,2,1,50,1,0
12812,-125,4,2,1,50,0,0
15191,-125,4,2,1,5,0,0
15294,-125,4,2,1,50,0,0
17777,-125,4,2,1,50,0,0
18605,-125,4,2,1,55,0,0
19432,-125,4,2,1,60,0,0
20260,-125,4,2,1,65,0,0
21087,-100,4,2,1,70,0,0
22329,-100,4,2,1,70,0,0
22536,-100,4,2,1,70,0,0
22743,-100,4,2,1,70,0,0
22949,-100,4,2,1,70,0,0
25639,-100,4,2,1,70,0,0
25846,-100,4,2,1,70,0,0
26053,-100,4,2,1,70,0,0
26260,-100,4,2,1,70,0,0
28949,-100,4,2,1,70,0,0
29156,-100,4,2,1,70,0,0
29570,-100,4,2,1,70,0,0
29777,-100,4,2,1,70,0,0
32260,-100,4,2,1,70,0,0
32467,-100,4,2,1,70,0,0
34329,-100,4,2,1,70,0,0
34743,-100,4,2,1,70,0,0
35570,-100,4,2,1,70,0,0
35777,-100,4,2,1,70,0,0
35984,-100,4,2,1,70,0,0
36191,-100,4,2,1,70,0,0
38880,-100,4,2,1,70,0,0
39087,-100,4,2,1,70,0,0
39294,-100,4,2,1,70,0,0
39501,-100,4,2,1,70,0,0
42191,-100,4,2,1,70,0,0
42398,-100,4,2,1,70,0,0
45501,-100,4,2,1,70,0,0
45708,-100,4,2,1,70,0,0
47595,413.793103448276,4,2,1,80,1,0
47595,-100,4,2,1,80,0,0
47801,-100,4,2,1,50,0,0
49284,413.793103448276,4,2,1,50,1,0
49284,-100,4,2,1,50,0,0
50467,422.535211267606,4,2,1,50,1,0
50467,-100,4,2,1,50,0,0
50889,413.793103448276,4,2,1,50,1,0
50889,-100,4,2,1,50,0,0
55822,413.793103448276,4,2,1,50,1,0
55874,413.793103448276,4,2,1,50,1,0
55874,-100,4,2,1,50,0,0
56212,413.793103448276,4,2,1,50,1,0
56605,434.782608695652,4,2,1,50,1,0
57442,444.444444444444,4,2,1,55,1,0
58330,413.793103448276,4,2,1,60,1,0
59985,410.958904109589,4,2,1,65,1,0
59985,-100,4,2,1,65,0,0
60395,-100,4,2,1,70,0,0
60806,413.793103448276,4,2,1,75,1,0
60806,-100,4,2,1,75,0,0
67426,-100,4,2,1,80,0,0
71150,-100,4,2,1,80,0,0
71564,-100,4,2,1,80,0,0
71978,-100,4,2,1,80,0,0
72288,-100,4,2,1,90,0,0
73219,-100,4,2,1,60,0,0
73323,-100,4,2,1,5,0,0
73426,-100,4,2,1,60,0,0
73633,-100,4,2,1,5,0,0
73840,-100,4,2,1,60,0,0
73943,-100,4,2,1,5,0,0
74047,-100,4,2,2,85,0,0
75702,-100,4,2,2,85,0,0
75909,-100,4,2,2,85,0,0
77357,-100,4,2,2,85,0,0
77564,-100,4,2,2,85,0,0
79840,-100,4,2,2,85,0,0
80668,-100,4,2,2,85,0,0
81495,-100,4,2,2,85,0,0
81909,-100,4,2,2,85,0,0
87702,-100,4,2,2,5,0,0
88116,-100,4,2,2,80,0,0
88185,-100,4,2,1,40,0,0
90663,387.096774193548,4,2,1,30,1,0
90663,-100,4,2,1,30,0,0
91243,-100,4,2,1,5,0,0
91437,422.535211267606,4,2,1,30,1,0
91437,-100,4,2,1,30,0,0
92625,480,4,2,1,30,1,0
92625,-100,4,2,1,30,0,0
93937,410.958904109589,4,2,1,30,1,0
93937,-100,4,2,1,30,0,0
94553,-100,4,2,1,5,0,0
94758,-100,4,2,1,30,0,0
95580,408.163265306122,4,2,1,30,1,0
95580,-100,4,2,1,30,0,0
97235,428.571428571429,4,2,1,30,1,0
97235,-100,4,2,1,30,0,0
97877,-100,4,2,1,5,0,0
98092,-100,4,2,1,30,0,0
98520,387.096774193548,4,2,1,30,1,0
98520,-100,4,2,1,30,0,0
98907,422.535211267606,4,2,1,30,1,0
98907,-100,4,2,1,30,0,0
100676,413.793103448276,4,2,1,30,1,0
100676,-100,4,2,1,30,0,0
103986,-100,4,2,1,5,0,0

[Colours]
Combo1 : 254,214,118
Combo2 : 255,157,60
Combo3 : 179,138,98
Combo4 : 176,176,176

[HitObjects]
66,167,1233,6,0,P|189:137|79:19,1,336,2|0,0:0|0:0,0:0:0:0:
34,80,2888,1,2,0:0:0:0:
144,359,4543,6,0,B|232:323|238:392|331:357,1,192,2|2,0:0|0:0,0:0:0:0:
504,118,6260,2,0,B|457:131|457:131|422:96|366:81|366:81|346:114|304:134|304:134|299:97|262:67|262:67|238:88|190:89,1,377,2|2,0:0|0:0,0:0:0:0:
137,48,7856,6,0,P|102:40|62:51,1,72,2|2,0:0|0:0,0:0:0:0:
45,362,9511,2,0,P|36:285|-9:76,1,287,2|2,0:3|0:0,0:0:0:0:
102,27,11181,6,0,B|186:-4|188:66|274:29,1,174,2|2,0:0|0:0,0:0:0:0:
404,28,12398,1,0,3:3:0:0:
411,104,12605,1,0,3:3:0:0:
419,180,12812,2,0,B|442:223|442:223|427:269,1,96,4|0,3:3|0:2,0:0:0:0:
274,280,13639,2,0,B|251:237|251:237|266:191,1,96,10|0,0:0|0:0,0:0:0:0:
327,51,14467,6,0,P|286:69|155:-3,1,192,10|2,0:2|0:3,0:0:0:0:
11,44,15708,2,0,L|24:108,1,48,0|0,3:0|3:0,0:0:0:0:
38,166,16122,1,2,3:2:0:0:
344,178,16949,2,0,L|329:276,1,96,8|0,0:0|0:0,0:0:0:0:
215,376,17777,6,0,P|209:308|88:289,1,192,2|0,3:2|3:0,0:0:0:0:
11,66,19225,1,0,3:0:0:0:
74,109,19432,2,0,P|123:121|172:126,1,96,0|8,3:0|3:0,0:0:0:0:
208,61,20053,1,8,3:3:0:0:
208,61,20260,2,0,L|217:2,2,48,4|4|8,3:3|3:3|3:2,0:0:0:0:
390,121,21087,6,0,P|452:131|485:296,1,240,4|0,1:2|0:0,0:0:0:0:
421,341,22122,1,2,0:0:0:0:
421,341,22329,2,0,L|347:326,1,60,2|2,1:2|0:0,0:0:0:0:
279,378,22743,1,10,0:2:0:0:
207,314,22949,2,0,B|169:227|244:226|205:141,1,180,0|0,1:0|0:0,0:0:0:0:
34,51,23984,2,0,L|20:114,1,60,2|0,0:0|0:0,0:0:0:0:
81,185,24398,6,0,B|34:228|34:228|65:352,1,180,2|0,1:2|0:0,0:0:0:0:
152,374,25225,2,0,P|239:357|331:344,1,180,2|0,0:0|0:0,0:0:0:0:
422,370,26053,1,10,0:2:0:0:
496,309,26260,2,0,P|495:237|400:211,1,180,0|2,1:0|1:2,0:0:0:0:
224,278,27294,2,0,L|207:209,1,60,2|0,3:2|3:0,0:0:0:0:
137,155,27708,6,0,P|187:181|217:50,1,240,2|0,1:2|0:0,0:0:0:0:
34,26,28949,1,0,1:0:0:0:
25,217,29363,1,8,0:2:0:0:
108,168,29570,2,0,P|153:172|285:203,1,180,2|0,1:2|0:0,0:0:0:0:
438,317,30605,1,2,0:0:0:0:
504,137,31018,6,0,B|445:154|445:154|400:111,1,120,2|0,1:2|0:0,0:0:0:0:
382,19,31639,1,0,3:1:0:0:
297,64,31846,2,0,B|239:87|237:39|176:65,1,120,2|0,0:0|1:0,0:0:0:0:
97,236,32674,2,0,P|94:196|204:184,1,180,8|2,0:2|0:0,0:0:0:0:
297,166,33501,2,0,P|317:207|300:283,1,120,2|0,1:2|3:0,0:0:0:0:
129,360,34329,5,2,1:2:0:0:
45,311,34536,2,0,B|8:227|84:225|45:138,1,180,2|0,0:0|0:0,0:0:0:0:
184,5,35570,1,0,1:0:0:0:
340,116,35984,2,0,B|365:60|365:60|328:9,2,120,8|0|0,0:2|0:0|0:0,0:0:0:0:
150,145,37225,1,2,0:0:0:0:
237,316,37639,6,0,B|323:356|321:280|411:317,1,180,2|0,1:2|0:0,0:0:0:0:
498,354,38467,2,0,P|504:295|463:241,1,120,2|0,0:0|1:0,0:0:0:0:
497,56,39294,1,8,0:2:0:0:
407,90,39501,2,0,P|341:91|264:82,1,120,0|2,1:0|0:0,0:0:0:0:
195,57,40122,2,0,P|202:88|211:130,1,60,2|0,1:2|3:0,0:0:0:0:
220,211,40536,1,2,3:2:0:0:
63,321,40949,6,0,B|28:288|28:288|56:139,1,180,2|0,1:2|0:0,0:0:0:0:
137,113,41777,2,0,L|122:34,1,60,2|0,0:0|0:0,0:0:0:0:
42,5,42191,1,0,1:0:0:0:
123,196,42605,2,0,B|172:201|172:201|197:191|197:191|268:198,2,120,10|0|0,0:2|0:0|0:0,0:0:0:0:
9,350,43846,1,2,0:0:0:0:
201,346,44260,6,0,B|230:290|230:290|205:217,1,120,2|2,1:2|0:0,0:0:0:0:
124,196,44880,1,0,3:0:0:0:
107,101,45087,2,0,B|138:95|138:95|155:102|155:102|232:90,1,120,2|0,0:2|1:0,0:0:0:0:
385,196,45915,6,0,L|400:125,1,60,10|2,0:2|1:2,0:0:0:0:
489,107,46329,2,0,L|476:165,1,60,2|2,0:0|0:0,0:0:0:0:
453,259,46743,2,0,L|465:317,1,60,2|2,1:2|0:0,0:0:0:0:
369,318,47156,2,0,L|288:323,1,60,2|2,3:2|0:0,0:0:0:0:
217,379,47595,5,6,0:0:0:0:
58,197,59985,6,0,L|126:210,1,60,2|2,0:0|0:0,0:0:0:0:
183,269,60395,2,0,L|251:256,1,60,2|2,0:0|0:0,0:0:0:0:
323,207,60806,6,0,B|342:148|292:147|319:89,1,120,4|4,1:2|3:0,0:0:0:0:
393,30,61426,2,0,L|461:22,1,60,8|4,0:2|0:3,0:0:0:0:
507,207,62047,2,0,L|447:214,1,60,6|8,3:0|3:0,0:0:0:0:
382,285,62461,2,0,B|326:308|327:261|264:284,1,120,0|4,1:0|3:0,0:0:0:0:
186,337,63081,2,0,L|169:272,2,60,8|4|0,0:2|3:0|3:0,0:0:0:0:
97,374,63702,1,4,3:0:0:0:
4,205,64116,6,0,P|52:222|111:169,1,120,8|4,1:2|3:0,0:0:0:0:
140,98,64737,1,8,0:0:0:0:
140,98,64943,2,0,L|124:33,2,60,4|6|6,3:0|3:0|3:0,0:0:0:0:
242,260,65771,2,0,B|301:262|301:262|311:257|311:257|377:261,1,120,0|4,1:0|3:0,0:0:0:0:
448,300,66392,2,0,L|427:169,1,120,8|0,0:0|3:0,0:0:0:0:
416,86,67012,1,4,3:0:0:0:
323,111,67219,1,0,1:0:0:0:
265,33,67426,6,0,B|205:9|208:54|148:33,1,120,8|4,0:0|3:0,0:0:0:0:
55,9,68047,2,0,P|56:65|115:121,1,120,8|6,0:2|3:0,0:0:0:0:
189,132,68668,1,6,3:0:0:0:
262,192,68874,1,8,3:0:0:0:
233,283,69081,2,0,L|109:300,1,120,0|4,1:0|3:0,0:0:0:0:
18,315,69702,1,8,0:2:0:0:
201,384,70116,1,0,3:0:0:0:
201,384,70323,2,0,L|260:375,1,60,4|0,3:0|1:0,0:0:0:0:
356,364,70737,5,0,1:0:0:0:
227,221,71150,2,0,B|217:192|217:192|225:158,1,60,0|0,1:0|1:0,0:0:0:0:
307,115,71564,2,0,B|313:86|313:86|303:57,1,60,0|0,1:0|1:0,0:0:0:0:
223,3,71978,2,0,L|153:8,1,60,0|0,1:0|1:0,0:0:0:0:
82,59,72392,5,6,1:2:0:0:
116,351,73219,5,2,0:0:0:0:
116,351,73426,1,2,0:0:0:0:
303,310,73840,1,2,0:0:0:0:
371,377,74047,6,0,P|397:315|286:215,1,240,4|0,3:2|0:0,0:0:0:0:
159,360,75288,1,2,3:0:0:0:
4,246,75702,2,0,B|-11:185|-11:185|29:128,1,120,8|2,0:2|0:0,0:0:0:0:
94,209,76323,1,2,0:0:0:0:
94,209,76530,2,0,L|154:201,1,60,2|0,3:2|0:0,0:0:0:0:
339,145,77150,5,2,0:0:0:0:
339,145,77357,2,0,B|400:160|400:160|457:120,1,120,2|2,3:2|0:0,0:0:0:0:
377,61,77978,1,2,0:0:0:0:
377,61,78185,2,0,L|363:-19,1,60,2|2,0:0|0:0,0:0:0:0:
207,110,78806,1,2,0:0:0:0:
275,176,79012,2,0,B|282:224|282:224|277:231|277:231|288:303,1,120,10|0,0:2|0:0,0:0:0:0:
104,354,79840,2,0,L|90:255,1,80,10|8,1:2|1:2,0:0:0:0:
126,242,80254,2,0,L|135:156,1,60,10|0,1:2|3:0,0:0:0:0:
103,90,80668,5,2,0:0:0:0:
483,231,81495,2,0,P|433:224|391:283,1,120,4|2,3:2|3:2,0:0:0:0:
226,372,82323,2,0,B|200:317|200:317|222:260,1,120,8|2,0:2|0:0,0:0:0:0:
281,188,82943,1,2,0:0:0:0:
281,188,83150,2,0,L|215:173,1,60,2|2,3:2|0:0,0:0:0:0:
126,7,83771,5,2,0:0:0:0:
126,7,83978,2,0,B|152:62|152:62|130:119,1,120,2|2,3:2|0:0,0:0:0:0:
71,191,84598,1,0,3:0:0:0:
71,191,84805,2,0,L|137:206,1,60,2|2,0:0|0:0,0:0:0:0:
185,283,85219,2,0,L|251:268,1,60,0|2,3:0|0:0,0:0:0:0:
337,292,85633,2,0,B|356:232|316:231|334:175,1,120,10|0,0:2|0:0,0:0:0:0:
489,61,86461,6,0,L|515:-2,2,60,0|2|2,3:0|1:2|1:2,0:0:0:0:
407,112,87081,1,2,0:2:0:0:
443,201,87288,2,0,L|468:327,1,120,2|0,0:2|0:0,0:0:0:0:
281,372,88116,5,0,1:0:0:0:
256,192,88219,12,2,90663,0:0:0:0:
