osu file format v14

[General]
AudioFilename: audio.mp3
AudioLeadIn: 0
PreviewTime: 73219
Countdown: 0
SampleSet: Soft
StackLeniency: 0.5
Mode: 0
LetterboxInBreaks: 0
WidescreenStoryboard: 1

[Editor]
Bookmarks: 1233,21087,47570,60812,72288,72398,74047,88122
DistanceSpacing: 0.3
BeatDivisor: 4
GridSize: 32
TimelineZoom: 2.7

[Metadata]
Title:Rex Incognito
TitleUnicode:尘世闲游
Artist:Yu-Peng Chen @HOYO-MiX
ArtistUnicode:陈致逸 @HOYO-MiX
Creator:Crissa
Version:Easy
Source:Genshin Impact
Tags:浮世閑歩 原神 钟离 zhongli trailer theme electronic instrumental video game gacha mihoyo the stellar moments ost hazu- cris-
BeatmapID:2839505
BeatmapSetID:1369139

[Difficulty]
HPDrainRate:2
CircleSize:3
OverallDifficulty:3
ApproachRate:4
SliderMultiplier:1
SliderTickRate:1

[Events]
//Background and Video events
0,0,"bg37.jpg",0,0
//Break Periods
2,47795,59486
//Storyboard Layer 0 (Background)
//Storyboard Layer 1 (Fail)
//Storyboard Layer 2 (Pass)
//Storyboard Layer 3 (Foreground)
//Storyboard Layer 4 (Overlay)
//Storyboard Sound Samples
Sample,72599,0,"order.ogg",75

[TimingPoints]
1233,413.793103448276,4,2,1,40,1,0
1233,-100,4,2,1,40,0,0
2681,-100,4,2,1,5,0,0
2888,-100,4,2,1,40,0,0
6260,363.636363636364,4,2,1,50,1,0
6260,-100,4,2,1,50,0,0
6441,400,4,2,1,50,1,0
6441,-100,4,2,1,50,0,0
6741,-100,4,2,1,5,0,0
6841,419.58041958042,4,2,1,50,1,0
6841,-100,4,2,1,50,0,0
7050,-100,4,2,1,5,0,0
7155,408.163265306122,4,2,1,50,1,0
7155,-100,4,2,1,50,0,0
7359,-100,4,2,1,5,0,0
7461,454.545454545455,4,2,1,50,1,0
7461,-100,4,2,1,50,0,0
7574,-100,4,2,1,5,0,0
7688,-100,4,2,1,50,0,0
7856,413.793103448276,4,2,1,50,1,0
7856,-100,4,2,1,50,0,0
9511,424.028268551237,4,2,1,40,1,0
9511,-100,4,2,1,40,0,0
10571,413.793103448276,4,2,1,50,1,0
10571,-100,4,2,1,50,0,0
11181,444.444444444444,4,2,1,50,1,0
11181,-100,4,2,1,50,0,0
11514,472.44094488189,4,2,1,40,1,0
11985,413.793103448276,4,2,1,50,1,0
11985,-100,4,2,1,50,0,0
12812,413.793103448276,4,2,1,50,1,0
12812,-100,4,2,1,50,0,0
15191,-100,4,2,1,5,0,0
15294,-100,4,2,1,50,0,0
17777,-100,4,2,1,50,0,0
18605,-100,4,2,1,55,0,0
19432,-100,4,2,1,60,0,0
20260,-100,4,2,1,65,0,0
21087,-100,4,2,1,70,0,0
22329,-100,4,2,1,70,0,0
22536,-100,4,2,1,70,0,0
22743,-100,4,2,1,70,0,0
22949,-100,4,2,1,70,0,0
25639,-100,4,2,1,70,0,0
25846,-100,4,2,1,70,0,0
26053,-100,4,2,1,70,0,0
26260,-100,4,2,1,70,0,0
28949,-100,4,2,1,70,0,0
29156,-100,4,2,1,70,0,0
29570,-100,4,2,1,70,0,0
29777,-100,4,2,1,70,0,0
32260,-100,4,2,1,70,0,0
32467,-100,4,2,1,70,0,0
34329,-100,4,2,1,70,0,0
34743,-100,4,2,1,70,0,0
35570,-100,4,2,1,70,0,0
35777,-100,4,2,1,70,0,0
35984,-100,4,2,1,70,0,0
36191,-100,4,2,1,70,0,0
38880,-100,4,2,1,70,0,0
39087,-100,4,2,1,70,0,0
39294,-100,4,2,1,70,0,0
39501,-100,4,2,1,70,0,0
42191,-100,4,2,1,70,0,0
42398,-100,4,2,1,70,0,0
45501,-100,4,2,1,70,0,0
45708,-100,4,2,1,70,0,0
47595,413.793103448276,4,2,1,80,1,0
47595,-100,4,2,1,80,0,0
47801,-100,4,2,1,50,0,0
49284,413.793103448276,4,2,1,50,1,0
49284,-100,4,2,1,50,0,0
50467,422.535211267606,4,2,1,50,1,0
50467,-100,4,2,1,50,0,0
50889,413.793103448276,4,2,1,50,1,0
50889,-100,4,2,1,50,0,0
55822,413.793103448276,4,2,1,50,1,0
55874,413.793103448276,4,2,1,50,1,0
55874,-100,4,2,1,50,0,0
56212,413.793103448276,4,2,1,50,1,0
56605,434.782608695652,4,2,1,50,1,0
57442,444.444444444444,4,2,1,55,1,0
58330,413.793103448276,4,2,1,60,1,0
59985,410.958904109589,4,2,1,65,1,0
59985,-100,4,2,1,65,0,0
60395,-100,4,2,1,70,0,0
60806,413.793103448276,4,2,1,75,1,0
60806,-100,4,2,1,75,0,0
67426,-100,4,2,1,80,0,0
71150,-100,4,2,1,80,0,0
71564,-100,4,2,1,80,0,0
71978,-100,4,2,1,80,0,0
72288,-100,4,2,1,90,0,0
73219,-100,4,2,1,60,0,0
73323,-100,4,2,1,5,0,0
73426,-100,4,2,1,60,0,0
73633,-100,4,2,1,5,0,0
73840,-100,4,2,1,60,0,0
73943,-100,4,2,1,5,0,0
74047,-100,4,2,2,85,0,0
75702,-100,4,2,2,85,0,0
75909,-100,4,2,2,85,0,0
77357,-100,4,2,2,85,0,0
77564,-100,4,2,2,85,0,0
79840,-100,4,2,2,85,0,0
80668,-100,4,2,2,85,0,0
81495,-100,4,2,2,85,0,0
81909,-100,4,2,2,85,0,0
87702,-100,4,2,2,5,0,0
88116,-100,4,2,2,80,0,0
88185,-100,4,2,1,40,0,0
90663,387.096774193548,4,2,1,30,1,0
90663,-100,4,2,1,30,0,0
91243,-100,4,2,1,5,0,0
91437,422.535211267606,4,2,1,30,1,0
91437,-100,4,2,1,30,0,0
92625,480,4,2,1,30,1,0
92625,-100,4,2,1,30,0,0
93937,410.958904109589,4,2,1,30,1,0
93937,-100,4,2,1,30,0,0
94553,-100,4,2,1,5,0,0
94758,-100,4,2,1,30,0,0
95580,408.163265306122,4,2,1,30,1,0
95580,-100,4,2,1,30,0,0
97235,428.571428571429,4,2,1,30,1,0
97235,-100,4,2,1,30,0,0
97877,-100,4,2,1,5,0,0
98092,-100,4,2,1,30,0,0
98520,387.096774193548,4,2,1,30,1,0
98520,-100,4,2,1,30,0,0
98907,422.535211267606,4,2,1,30,1,0
98907,-100,4,2,1,30,0,0
100676,413.793103448276,4,2,1,30,1,0
100676,-100,4,2,1,30,0,0
103986,-100,4,2,1,5,0,0

[Colours]
Combo1 : 254,214,118
Combo2 : 255,157,60
Combo3 : 179,138,98
Combo4 : 176,176,176

[HitObjects]
40,167,1233,6,0,P|110:221|247:25,1,400,2|2,0:0|0:0,0:0:0:0:
434,360,4543,2,0,P|472:343|455:194,1,200,2|2,0:0|0:0,0:0:0:0:
256,32,6260,5,2,0:0:0:0:
0,272,7856,2,0,P|140:244|361:364,1,400,2|2,0:0|0:3,0:0:0:0:
500,166,11181,2,0,P|445:172|382:74,1,181,2|2,0:0|0:0,0:0:0:0:
243,222,12812,5,4,3:3:0:0:
105,76,13639,1,10,0:0:0:0:
34,263,14467,2,0,B|128:307|127:223|232:266,1,200,10|2,0:2|0:3,0:0:0:0:
303,327,15708,6,0,L|292:389,2,50,0|0|2,3:0|3:0|3:2,0:0:0:0:
471,218,16949,2,0,L|453:107,1,100,8|0,0:0|0:0,0:0:0:0:
387,45,17777,6,0,P|363:87|215:87,1,200,2|0,3:2|3:0,0:0:0:0:
141,11,19018,1,0,0:0:0:0:
26,45,19432,1,0,3:0:0:0:
6,163,19846,2,0,L|21:223,1,50,8|8,3:0|3:3,0:0:0:0:
12,253,20260,2,0,L|112:240,1,100,4|8,3:3|3:2,0:0:0:0:
207,311,21087,6,0,P|260:321|275:199,1,200,4|0,1:2|0:0,0:0:0:0:
183,146,22329,1,2,1:2:0:0:
296,106,22743,2,0,B|324:65|324:65|309:12,1,100,10|0,0:2|0:0,0:0:0:0:
193,43,23570,1,0,0:0:0:0:
222,159,23984,1,2,0:0:0:0:
113,210,24398,6,0,B|66:223|66:223|7:200,1,100,2|0,1:2|0:0,0:0:0:0:
29,84,25225,2,0,B|76:71|76:71|135:94,1,100,2|0,0:0|1:0,0:0:0:0:
222,159,26053,2,0,B|276:161|276:161|300:147|300:147|385:151,1,150,10|2,0:2|0:0,0:0:0:0:
404,132,26880,2,0,L|424:239,1,100,2|2,1:2|3:2,0:0:0:0:
471,340,27708,6,0,B|381:386|375:305|277:350,1,200,2|0,1:2|0:0,0:0:0:0:
205,254,28949,1,0,1:0:0:0:
90,289,29363,2,0,B|47:259|47:259|43:206,1,100,8|0,0:2|0:0,0:0:0:0:
37,91,30191,1,0,0:0:0:0:
145,39,30605,1,2,0:0:0:0:
241,109,31018,2,0,L|357:99,1,100,2|0,1:2|0:0,0:0:0:0:
426,184,31846,2,0,L|326:192,1,100,2|0,0:0|1:0,0:0:0:0:
240,277,32674,6,0,P|266:328|352:332,1,150,8|2,0:2|0:0,0:0:0:0:
380,305,33501,2,0,P|409:292|474:311,1,100,2|0,1:2|3:0,0:0:0:0:
509,194,34329,5,2,1:2:0:0:
395,156,34743,2,0,P|378:117|417:63,2,100,2|0|2,0:0|0:0|1:2,0:0:0:0:
373,274,35984,2,0,P|347:230|200:228,1,200,8|0,0:2|0:0,0:0:0:0:
122,300,37225,1,2,0:0:0:0:
19,237,37639,6,0,B|-7:164|50:161|19:92,1,150,2|0,1:2|0:0,0:0:0:0:
52,68,38467,2,0,B|125:42|128:99|197:68,1,150,2|0,0:0|0:0,0:0:0:0:
227,41,39294,2,0,L|252:249,1,200,8|2,0:2|1:2,0:0:0:0:
267,358,40536,1,2,3:2:0:0:
379,316,40949,6,0,B|407:274|407:274|397:220,1,100,2|0,1:2|0:0,0:0:0:0:
302,152,41777,1,2,0:0:0:0:
395,76,42191,1,0,1:0:0:0:
290,17,42605,2,0,B|253:12|253:12|240:18|240:18|177:10,2,100,10|0|0,0:2|0:0|0:0,0:0:0:0:
322,132,43846,1,2,0:0:0:0:
237,217,44260,6,0,L|120:206,1,100,2|2,1:2|0:0,0:0:0:0:
57,296,45087,2,0,L|156:305,1,100,2|0,0:2|1:0,0:0:0:0:
261,364,45915,6,0,L|280:248,1,100,10|2,0:2|0:0,0:0:0:0:
382,322,46743,1,2,1:2:0:0:
466,236,47156,1,2,3:2:0:0:
394,130,47595,5,6,0:0:0:0:
20,113,60806,6,0,P|79:134|162:38,1,200,4|4,1:2|0:3,0:0:0:0:
251,125,62047,1,6,3:0:0:0:
331,36,62461,2,0,P|389:23|465:136,1,200,0|4,1:0|3:0,0:0:0:0:
442,238,63702,1,4,3:0:0:0:
343,307,64116,6,0,L|231:288,1,100,8|4,1:2|3:0,0:0:0:0:
124,302,64943,2,0,L|143:190,1,100,4|6,3:0|3:0,0:0:0:0:
129,83,65771,2,0,L|283:108,1,150,0|8,1:0|0:0,0:0:0:0:
302,139,66599,2,0,L|400:123,1,100,4|4,3:0|3:0,0:0:0:0:
498,192,67426,6,0,P|433:217|401:342,1,200,8|4,0:0|3:0,0:0:0:0:
284,374,68668,1,6,3:0:0:0:
179,314,69081,2,0,P|263:270|271:166,1,200,0|4,1:0|3:0,0:0:0:0:
226,62,70323,1,4,3:0:0:0:
106,73,70737,5,0,1:0:0:0:
41,174,71150,1,0,1:0:0:0:
127,256,71564,1,0,1:0:0:0:
69,361,71978,2,0,B|18:366|18:366|-6:319,1,100,0|6,1:0|1:2,0:0:0:0:
349,20,74047,6,0,B|360:69|360:69|331:109|331:109|354:211,1,200,4|0,3:2|0:0,0:0:0:0:
458,263,75288,1,2,3:0:0:0:
371,346,75702,2,0,B|323:342|323:342|314:328|314:328|225:318,1,150,8|2,0:2|0:0,0:0:0:0:
191,332,76530,2,0,L|137:327,1,50,2|0,3:2|0:0,0:0:0:0:
19,195,77357,6,0,P|84:211|146:160,1,150,2|2,3:2|0:0,0:0:0:0:
175,136,78185,2,0,P|175:107|167:80,1,50,2|2,0:0|0:0,0:0:0:0:
285,224,79012,2,0,B|332:237|332:237|391:208,1,100,10|0,0:2|0:0,0:0:0:0:
471,139,79840,2,0,L|458:36,1,100,10|10,1:2|1:2,0:0:0:0:
430,11,80461,2,0,L|380:5,1,50,0|2,3:0|0:0,0:0:0:0:
262,214,81495,5,4,3:2:0:0:
235,96,81909,1,2,3:2:0:0:
130,36,82323,6,0,B|96:74|96:74|116:178,1,150,8|2,0:2|0:0,0:0:0:0:
98,208,83150,2,0,L|111:270,1,50,2|2,3:2|0:0,0:0:0:0:
265,344,83978,6,0,B|340:312|339:373|410:342,1,150,2|0,3:2|3:0,0:0:0:0:
444,322,84806,2,0,L|465:210,1,100,2|0,0:0|3:0,0:0:0:0:
404,118,85633,5,10,0:2:0:0:
300,178,86047,1,2,0:2:0:0:
219,88,86461,1,0,3:0:0:0:
106,130,86874,2,0,P|64:108|98:69,1,100,2|2,1:2|0:2,0:0:0:0:
321,29,88116,5,0,1:0:0:0:
256,192,88323,12,2,90663,0:0:0:0:
