osu file format v14

[General]
AudioFilename: audio.mp3
AudioLeadIn: 0
PreviewTime: 73219
Countdown: 0
SampleSet: Soft
StackLeniency: 0.4
Mode: 0
LetterboxInBreaks: 0
WidescreenStoryboard: 1

[Editor]
DistanceSpacing: 1.5
BeatDivisor: 3
GridSize: 4
TimelineZoom: 3.499999

[Metadata]
Title:Rex Incognito
TitleUnicode:尘世闲游
Artist:Yu-Peng Chen @HOYO-MiX
ArtistUnicode:陈致逸 @HOYO-MiX
Creator:Crissa
Version:Cris' Dominus Lapidis
Source:Genshin Impact
Tags:浮世閑歩 原神 钟离 zhongli trailer theme electronic instrumental video game gacha mihoyo the stellar moments ost hazu- cris-
BeatmapID:2839504
BeatmapSetID:1369139

[Difficulty]
HPDrainRate:5
CircleSize:4.5
OverallDifficulty:8.5
ApproachRate:9.2
SliderMultiplier:1.5
SliderTickRate:1

[Events]
//Background and Video events
0,0,"bg37.jpg",0,0
//Break Periods
//Storyboard Layer 0 (Background)
//Storyboard Layer 1 (Fail)
//Storyboard Layer 2 (Pass)
//Storyboard Layer 3 (Foreground)
//Storyboard Layer 4 (Overlay)
//Storyboard Sound Samples
Sample,72599,0,"order.ogg",75

[TimingPoints]
1233,413.793103448276,4,2,1,40,1,0
1233,-200,4,2,1,40,0,0
2681,-200,4,2,1,5,0,0
2888,-200,4,2,1,40,0,0
6260,363.636363636364,4,2,1,50,1,0
6260,-200,4,2,1,50,0,0
6441,400,4,2,1,50,1,0
6441,-200,4,2,1,50,0,0
6741,-200,4,2,1,5,0,0
6841,419.58041958042,4,2,1,50,1,0
6841,-200,4,2,1,50,0,0
7050,-200,4,2,1,5,0,0
7155,408.163265306122,4,2,1,50,1,0
7155,-200,4,2,1,50,0,0
7359,-200,4,2,1,5,0,0
7461,454.545454545455,4,2,1,50,1,0
7461,-200,4,2,1,50,0,0
7574,-200,4,2,1,5,0,0
7688,-200,4,2,1,50,0,0
7856,413.793103448276,4,2,1,50,1,0
7856,-200,4,2,1,50,0,0
9511,424.028268551237,4,2,1,40,1,0
9511,-200,4,2,1,40,0,0
10571,413.793103448276,4,2,1,50,1,0
10571,-200,4,2,1,50,0,0
11181,444.444444444444,4,2,1,50,1,0
11181,-200,4,2,1,50,0,0
11514,472.44094488189,4,2,1,40,1,0
11985,413.793103448276,4,2,1,50,1,0
11985,-200,4,2,1,50,0,0
12812,413.793103448276,4,2,1,50,1,0
12812,-200,4,2,1,50,0,0
15191,-200,4,2,1,5,0,0
15294,-200,4,2,1,50,0,0
17777,-200,4,2,1,50,0,0
18605,-200,4,2,1,55,0,0
19432,-166.666666666667,4,2,1,60,0,0
20260,-166.666666666667,4,2,1,65,0,0
21087,-125,4,2,1,70,0,0
22329,-125,4,2,1,70,0,0
22536,-125,4,2,1,70,0,0
22743,-125,4,2,1,70,0,0
22949,-125,4,2,1,70,0,0
25639,-125,4,2,1,70,0,0
25846,-125,4,2,1,70,0,0
26053,-125,4,2,1,70,0,0
26260,-125,4,2,1,70,0,0
28949,-125,4,2,1,70,0,0
29156,-125,4,2,1,70,0,0
29570,-125,4,2,1,70,0,0
29777,-125,4,2,1,70,0,0
32260,-125,4,2,1,70,0,0
32467,-125,4,2,1,70,0,0
34329,-125,4,2,1,70,0,0
34743,-125,4,2,1,70,0,0
35570,-125,4,2,1,70,0,0
35777,-125,4,2,1,70,0,0
35984,-125,4,2,1,70,0,0
36191,-125,4,2,1,70,0,0
38880,-125,4,2,1,70,0,0
39087,-125,4,2,1,70,0,0
39294,-125,4,2,1,70,0,0
39501,-125,4,2,1,70,0,0
42191,-125,4,2,1,70,0,0
42398,-125,4,2,1,70,0,0
45501,-125,4,2,1,70,0,0
45708,-125,4,2,1,70,0,0
47595,413.793103448276,4,2,1,80,1,0
47595,-200,4,2,1,80,0,0
47801,-200,4,2,1,50,0,0
49284,413.793103448276,4,2,1,50,1,0
49284,-200,4,2,1,50,0,0
50467,422.535211267606,4,2,1,50,1,0
50467,-125,4,2,1,50,0,0
50889,413.793103448276,4,2,1,50,1,0
50889,-200,4,2,1,50,0,0
55822,413.793103448276,4,2,1,50,1,0
55822,-200,4,2,1,50,0,0
55874,413.793103448276,4,2,1,50,1,0
55874,-200,4,2,1,50,0,0
56212,413.793103448276,4,2,1,50,1,0
56212,-200,4,2,1,50,0,0
56605,434.782608695652,4,2,1,50,1,0
56605,-200,4,2,1,50,0,0
57442,444.444444444444,4,2,1,55,1,0
57442,-200,4,2,1,55,0,0
58330,413.793103448276,4,2,1,60,1,0
58330,-142.857142857143,4,2,1,60,0,0
59985,410.958904109589,4,2,1,65,1,0
59985,-100,4,2,1,65,0,0
60395,-100,4,2,1,70,0,0
60806,413.793103448276,4,2,1,75,1,0
60806,-55.5555555555556,4,2,1,75,0,1
67219,-55.5555555555556,4,2,1,75,0,0
67426,-55.5555555555556,4,2,1,80,0,1
70737,-55.5555555555556,4,2,1,80,0,1
71150,-50,4,2,1,80,0,1
71564,-45.4545454545455,4,2,1,80,0,1
71978,-41.6666666666667,4,2,1,80,0,1
72288,-41.6666666666667,4,2,1,90,0,0
72392,-200,4,2,1,90,0,0
73219,-200,4,2,1,60,0,0
73323,-200,4,2,1,5,0,0
73426,-200,4,2,1,60,0,0
73633,-200,4,2,1,5,0,0
73840,-200,4,2,1,60,0,0
73943,-200,4,2,1,5,0,0
74047,-83.3333333333333,4,2,2,85,0,0
74254,-125,4,2,2,85,0,0
75702,-83.3333333333333,4,2,2,85,0,0
75909,-125,4,2,2,85,0,0
77357,-83.3333333333333,4,2,2,85,0,0
77564,-125,4,2,2,85,0,0
79012,-83.3333333333333,4,2,2,85,0,0
79219,-100,4,2,2,85,0,0
79840,-71.4285714285714,4,2,2,85,0,0
80668,-200,4,2,2,85,0,0
81495,-62.5,4,2,2,85,0,0
81909,-71.4285714285714,4,2,2,85,0,0
82323,-62.5,4,2,2,85,0,0
82530,-71.4285714285714,4,2,2,85,0,0
83978,-62.5,4,2,2,85,0,0
84185,-71.4285714285714,4,2,2,85,0,0
85633,-62.5,4,2,2,85,0,0
87288,-71.4285714285714,4,2,2,85,0,0
87702,-71.4285714285714,4,2,2,5,0,0
88116,-125,4,2,2,80,0,0
88185,-125,4,2,1,40,0,0
90663,387.096774193548,4,2,1,30,1,0
90663,-200,4,2,1,30,0,0
91243,-200,4,2,1,5,0,0
91437,422.535211267606,4,2,1,30,1,0
91437,-200,4,2,1,30,0,0
92625,480,4,2,1,30,1,0
92625,-200,4,2,1,30,0,0
93937,410.958904109589,4,2,1,30,1,0
93937,-200,4,2,1,30,0,0
94553,-200,4,2,1,5,0,0
94758,-200,4,2,1,30,0,0
95580,408.163265306122,4,2,1,30,1,0
95580,-200,4,2,1,30,0,0
97235,428.571428571429,4,2,1,30,1,0
97235,-200,4,2,1,30,0,0
97877,-200,4,2,1,5,0,0
98092,-200,4,2,1,30,0,0
98520,387.096774193548,4,2,1,30,1,0
98520,-200,4,2,1,30,0,0
98907,422.535211267606,4,2,1,30,1,0
98907,-200,4,2,1,30,0,0
100676,413.793103448276,4,2,1,30,1,0
100676,-200,4,2,1,30,0,0
103986,-200,4,2,1,5,0,0

[Colours]
Combo1 : 254,214,118
Combo2 : 255,157,60
Combo3 : 179,138,98
Combo4 : 176,176,176

[HitObjects]
53,338,1233,5,2,0:0:0:0:
67,313,1337,1,2,0:0:0:0:
93,302,1440,1,2,0:0:0:0:
120,311,1543,6,0,P|204:318|158:250,1,206.25,2|0,0:0|0:0,0:0:0:0:
79,188,2888,6,0,B|118:175|118:175|128:153|128:153|167:140,1,107.142857142857,2|0,0:0|0:0,0:0:0:0:
205,77,3597,1,2,0:3:0:0:
264,119,3715,1,2,0:3:0:0:
227,181,3833,6,0,P|227:202|239:220,2,42.8571428571429,2|2|2,0:3|0:3|0:3,0:0:0:0:
317,65,4543,5,2,0:0:0:0:
343,75,4647,1,2,0:0:0:0:
369,85,4750,1,0,0:0:0:0:
395,95,4853,2,0,B|380:132|380:132|367:140|367:140|352:180,1,98.4375,0|2,0:0|0:0,0:0:0:0:
453,322,6260,5,2,0:0:0:0:
407,266,6441,5,2,0:0:0:0:
314,351,6841,5,2,0:0:0:0:
215,223,7155,5,2,0:0:0:0:
103,373,7461,6,0,P|85:366|69:359,1,37.5,2|2,0:0|0:0,0:0:0:0:
0,294,7856,5,2,0:0:0:0:
14,269,7960,1,2,0:0:0:0:
40,258,8063,1,2,0:0:0:0:
66,266,8166,6,0,B|117:297|167:243|132:221|179:168|232:195,1,206.25,2|2,0:0|0:3,0:0:0:0:
249,205,9407,1,2,0:3:0:0:
260,219,9511,6,0,P|332:242|313:166,1,187.5,2|2,0:3|0:0,0:0:0:0:
242,105,10726,6,0,L|239:113,1,9.375,2|2,0:0|0:0,0:0:0:0:
408,38,11181,5,2,0:0:0:0:
415,65,11292,1,2,0:0:0:0:
267,19,11514,2,0,B|183:50|183:50|154:37|158:-1,1,150,0|2,0:0|0:0,0:0:0:0:
313,166,12398,5,0,3:3:0:0:
256,237,12605,2,0,L|259:245,2,9.375,0|0|0,3:3|3:0|0:0,0:0:0:0:
248,219,12812,6,0,P|214:233|179:247,1,75,4|0,3:3|0:2,0:0:0:0:
67,327,13639,2,0,P|101:341|136:355,1,75,10|0,0:0|0:0,0:0:0:0:
0,215,14467,6,0,B|38:230|75:196|49:180|86:144|124:157,1,150,10|2,0:2|0:3,0:0:0:0:
0,69,15708,1,0,3:0:0:0:
115,12,15915,1,0,3:0:0:0:
122,29,15984,1,0,3:0:0:0:
176,84,16122,6,0,P|190:50|204:15,1,75,2|0,3:2|0:0,0:0:0:0:
124,157,16949,2,0,P|110:123|96:88,1,75,8|0,0:0|0:0,0:0:0:0:
199,207,17777,5,2,3:2:0:0:
208,191,17846,2,0,L|227:197,2,18.75,0|0|0,0:0|0:0|0:0,0:0:0:0:
92,294,18398,1,0,3:0:0:0:
102,319,18501,1,0,3:0:0:0:
111,344,18605,6,0,P|138:320|173:327,1,75,0|0,3:0|0:0,0:0:0:0:
239,371,19225,1,0,3:0:0:0:
304,225,19432,5,0,3:0:0:0:
304,225,19846,5,8,3:0:0:0:
248,172,20053,1,8,3:3:0:0:
360,278,20260,5,4,3:3:0:0:
452,189,20467,1,4,3:3:0:0:
304,331,20674,5,8,3:2:0:0:
165,196,20880,1,8,3:2:0:0:
365,381,21087,6,0,L|391:368,1,30,4|0,1:2|0:0,0:0:0:0:
304,331,21294,2,0,L|316:304,1,30,2|0,0:0|0:0,0:0:0:0:
227,331,21501,2,0,L|219:302,1,30,0|0,0:0|0:0,0:0:0:0:
167,381,21708,2,0,L|143:364,1,30,0|0,0:0|0:0,0:0:0:0:
27,271,21915,6,0,P|15:280|11:294,1,30,0|0,0:0|0:0,0:0:0:0:
27,196,22122,2,0,P|12:193|-1:200,1,30,2|0,0:0|0:0,0:0:0:0:
80,142,22329,2,0,P|71:130|57:125,1,30,2|0,1:2|0:0,0:0:0:0:
155,141,22536,1,2,0:0:0:0:
74,341,22743,5,10,0:2:0:0:
84,313,22846,1,0,0:0:0:0:
106,293,22949,1,0,1:0:0:0:
135,289,23053,1,0,0:0:0:0:
164,298,23156,2,0,P|176:289|181:275,1,30,0|0,0:0|0:0,0:0:0:0:
231,342,23363,2,0,P|236:328|247:319,1,30,0|0,0:0|0:0,0:0:0:0:
389,234,23570,6,0,L|406:258,1,30,0|0,0:0|0:0,0:0:0:0:
341,165,23777,2,0,L|365:148,1,30,0|0,0:0|0:0,0:0:0:0:
272,213,23984,2,0,L|254:189,1,30,2|0,0:0|0:0,0:0:0:0:
320,282,24191,1,0,0:0:0:0:
320,282,24294,1,0,0:0:0:0:
320,282,24398,5,2,1:2:0:0:
310,310,24501,1,2,0:0:0:0:
288,330,24604,1,2,0:0:0:0:
259,334,24708,1,2,0:0:0:0:
230,325,24811,2,0,P|218:334|213:348,1,30,0|0,0:0|0:0,0:0:0:0:
137,348,25018,2,0,P|134:362|141:376,1,30,0|0,0:0|0:0,0:0:0:0:
27,262,25225,6,0,L|0:274,1,30,2|0,0:0|0:0,0:0:0:0:
83,201,25432,2,0,L|56:188,1,30,0|0,0:0|0:0,0:0:0:0:
134,268,25639,2,0,L|107:280,1,30,0|0,1:0|0:0,0:0:0:0:
166,190,25846,1,0,0:0:0:0:
259,334,26053,6,0,P|247:343|243:357,1,30,10|0,0:2|0:0,0:0:0:0:
259,259,26260,2,0,P|244:256|231:263,1,30,0|0,1:0|0:0,0:0:0:0:
312,205,26467,2,0,P|303:193|289:188,1,30,0|0,0:0|0:0,0:0:0:0:
387,204,26674,5,2,0:0:0:0:
388,192,26743,5,0,0:0:0:0:
383,180,26812,5,0,0:0:0:0:
377,169,26880,6,0,L|403:156,1,30,2|0,1:2|0:0,0:0:0:0:
316,119,27087,2,0,L|328:92,1,30,0|0,3:0|3:0,0:0:0:0:
239,119,27294,2,0,L|231:90,1,30,2|0,3:2|0:0,0:0:0:0:
179,169,27501,2,0,L|155:152,1,30,0|0,3:0|0:0,0:0:0:0:
205,271,27708,5,2,1:2:0:0:
215,243,27811,1,2,0:2:0:0:
237,223,27914,1,2,0:2:0:0:
266,219,28018,1,2,0:2:0:0:
295,228,28121,2,0,P|307:219|312:205,1,30,0|0,0:0|0:0,0:0:0:0:
347,289,28329,2,0,P|361:291|375:284,1,30,0|0,0:0|0:0,0:0:0:0:
244,349,28536,6,0,L|257:375,1,30,0|0,0:0|0:0,0:0:0:0:
205,271,28743,2,0,L|231:257,1,30,0|0,0:0|0:0,0:0:0:0:
130,308,28950,2,0,L|115:281,1,30,0|0,1:0|0:0,0:0:0:0:
166,384,29157,1,0,0:0:0:0:
15,289,29363,5,8,0:2:0:0:
15,289,29467,1,0,0:0:0:0:
15,289,29570,2,0,P|19:274|31:266,1,30,2|0,1:2|0:0,0:0:0:0:
0,188,29777,2,0,P|13:181|27:183,1,30,0|0,0:0|0:0,0:0:0:0:
67,112,29984,2,0,P|81:116|89:128,1,30,0|0,0:0|0:0,0:0:0:0:
143,269,30191,6,0,L|116:281,1,30,0|0,0:0|0:0,0:0:0:0:
199,208,30398,2,0,L|172:195,1,30,0|0,0:0|0:0,0:0:0:0:
250,275,30605,2,0,L|223:287,1,30,2|0,0:0|0:0,0:0:0:0:
306,214,30812,2,0,L|279:201,1,30,0|0,0:0|0:0,0:0:0:0:
335,298,31018,5,2,1:2:0:0:
335,298,31122,1,2,0:2:0:0:
335,298,31225,2,0,P|342:310|341:325,1,30,2|0,0:2|0:0,0:0:0:0:
385,236,31432,5,0,0:0:0:0:
394,243,31501,5,0,0:0:0:0:
401,252,31570,5,0,0:0:0:0:
407,262,31639,5,0,3:1:0:0:
411,273,31708,5,0,0:0:0:0:
413,284,31777,5,0,0:0:0:0:
416,295,31846,6,0,L|443:283,1,30,2|2,0:0|0:0,0:0:0:0:
512,215,32053,1,2,0:0:0:0:
512,215,32156,1,2,0:0:0:0:
512,215,32260,2,0,L|485:203,1,30,0|0,1:0|0:0,0:0:0:0:
427,132,32467,1,0,3:0:0:0:
292,236,32674,6,0,P|291:216|279:200,1,40,8|2,0:2|0:0,0:0:0:0:
217,247,32949,5,2,0:0:0:0:
217,247,33087,6,0,P|202:233|183:231,1,40,2|2,0:0|0:0,0:0:0:0:
170,306,33363,5,2,0:0:0:0:
170,306,33501,6,0,P|154:306|144:315,1,30,0|0,1:2|0:0,0:0:0:0:
57,250,33708,2,0,P|66:263|80:269,1,30,0|0,3:0|3:0,0:0:0:0:
67,375,33915,2,0,P|74:362|72:348,1,30,0|0,3:0|0:0,0:0:0:0:
170,306,34122,5,0,3:0:0:0:
182,305,34191,5,0,0:0:0:0:
194,310,34260,5,0,0:0:0:0:
205,316,34328,6,0,L|218:290,1,30,2|0,1:2|0:0,0:0:0:0:
282,348,34536,1,2,0:0:0:0:
282,348,34639,1,2,0:0:0:0:
282,348,34743,2,0,L|295:322,1,30,0|0,0:0|0:0,0:0:0:0:
359,380,34949,2,0,L|372:354,1,30,0|0,0:0|0:0,0:0:0:0:
301,205,35156,6,0,P|288:197|273:199,1,30,0|0,0:0|0:0,0:0:0:0:
368,176,35363,2,0,P|364:161|353:151,1,30,0|0,0:0|0:0,0:0:0:0:
438,203,35570,2,0,P|445:190|444:175,1,30,0|0,1:0|0:0,0:0:0:0:
469,272,35777,1,0,0:0:0:0:
416,95,35984,5,8,0:2:0:0:
416,95,36087,1,0,0:0:0:0:
416,95,36191,2,0,L|442:82,1,30,0|0,1:0|0:0,0:0:0:0:
351,42,36398,2,0,L|360:14,1,30,0|0,0:0|0:0,0:0:0:0:
267,50,36605,2,0,L|254:24,1,30,0|0,0:0|0:0,0:0:0:0:
317,154,36812,6,0,P|318:168|310:181,1,30,0|0,0:0|0:0,0:0:0:0:
213,214,37018,2,0,P|228:213|241:221,1,30,0|0,0:0|0:0,0:0:0:0:
272,317,37225,2,0,P|271:302|279:290,1,30,2|0,0:0|0:0,0:0:0:0:
356,258,37432,1,0,0:0:0:0:
356,258,37536,1,0,0:0:0:0:
356,258,37639,5,2,1:2:0:0:
384,265,37742,1,2,0:2:0:0:
412,256,37845,1,2,0:2:0:0:
433,235,37949,1,2,0:2:0:0:
446,209,38053,2,0,L|473:217,1,30,0|0,0:0|0:0,0:0:0:0:
381,161,38260,2,0,L|353:169,1,30,0|0,0:0|0:0,0:0:0:0:
479,103,38467,6,0,P|494:103|505:113,1,30,2|0,0:0|0:0,0:0:0:0:
438,42,38674,2,0,P|449:31|464:29,1,30,0|0,0:0|0:0,0:0:0:0:
364,26,38881,2,0,P|365:11|374:0,1,30,0|0,1:0|0:0,0:0:0:0:
300,67,39088,1,0,0:0:0:0:
356,258,39294,6,0,L|343:283,1,30,8|0,0:2|0:0,0:0:0:0:
284,220,39501,2,0,L|257:228,1,30,0|0,1:0|0:0,0:0:0:0:
263,141,39708,2,0,L|237:128,1,30,0|0,0:0|0:0,0:0:0:0:
300,67,39915,5,2,0:2:0:0:
297,55,39984,5,0,0:0:0:0:
294,43,40053,5,0,0:0:0:0:
292,31,40122,6,0,P|302:20|317:19,1,30,2|0,1:2|0:0,0:0:0:0:
427,77,40329,2,0,P|416:66|401:65,1,30,0|0,3:0|3:0,0:0:0:0:
336,162,40536,1,2,3:2:0:0:
336,162,40639,1,0,0:0:0:0:
336,162,40743,2,0,P|346:151|361:150,1,30,0|0,3:0|0:0,0:0:0:0:
286,276,40949,5,2,1:2:0:0:
293,248,41052,1,2,0:2:0:0:
284,220,41155,1,2,0:2:0:0:
263,199,41259,1,2,0:2:0:0:
237,186,41363,2,0,L|245:159,1,30,0|0,0:0|0:0,0:0:0:0:
165,221,41570,2,0,L|151:196,1,30,0|0,0:0|0:0,0:0:0:0:
155,331,41777,6,0,P|142:339|127:337,1,30,2|0,0:0|0:0,0:0:0:0:
222,360,41984,2,0,P|218:375|207:385,1,30,0|0,0:0|0:0,0:0:0:0:
292,333,42191,2,0,P|299:346|298:361,1,30,0|0,1:0|0:0,0:0:0:0:
323,264,42398,1,0,0:0:0:0:
183,108,42605,5,10,0:2:0:0:
183,108,42708,1,2,0:2:0:0:
183,108,42812,2,0,L|155:113,1,30,2|2,1:2|0:0,0:0:0:0:
255,78,43018,2,0,L|264:49,1,30,0|0,0:0|0:0,0:0:0:0:
246,157,43225,2,0,L|265:179,1,30,0|0,0:0|0:0,0:0:0:0:
184,306,43432,6,0,P|170:299|155:302,1,30,0|0,0:0|0:0,0:0:0:0:
248,271,43639,2,0,P|242:256|230:247,1,30,0|0,0:0|0:0,0:0:0:0:
320,292,43846,2,0,P|325:278|323:263,1,30,2|0,0:0|0:0,0:0:0:0:
357,358,44053,2,0,P|370:352|379:340,1,30,0|0,0:0|0:0,0:0:0:0:
267,379,44260,5,2,1:2:0:0:
267,379,44363,1,2,0:2:0:0:
267,379,44467,2,0,L|238:369,1,30,2|0,0:2|0:0,0:0:0:0:
184,306,44674,5,2,0:0:0:0:
172,310,44743,5,0,0:0:0:0:
161,314,44812,5,0,0:0:0:0:
150,318,44880,5,0,3:0:0:0:
138,322,44949,5,0,0:0:0:0:
127,326,45018,5,0,0:0:0:0:
116,330,45087,6,0,P|103:321|97:307,1,30,2|2,0:2|0:2,0:0:0:0:
131,200,45294,1,2,0:2:0:0:
131,200,45398,1,2,0:2:0:0:
131,200,45501,2,0,P|130:215|122:228,1,30,0|0,1:0|0:0,0:0:0:0:
41,246,45708,1,0,0:0:0:0:
187,109,45915,5,10,0:2:0:0:
168,90,46019,1,2,0:0:0:0:
144,82,46122,1,2,1:2:0:0:
119,89,46225,1,2,0:0:0:0:
57,147,46329,5,2,0:0:0:0:
80,170,46433,1,2,0:0:0:0:
110,180,46536,1,2,0:0:0:0:
141,172,46639,1,2,0:0:0:0:
187,109,46743,5,2,1:2:0:0:
214,81,46847,1,2,0:0:0:0:
250,69,46950,1,2,0:0:0:0:
287,79,47053,1,2,0:0:0:0:
323,171,47156,5,2,3:2:0:0:
295,208,47260,1,2,0:0:0:0:
251,220,47363,1,2,0:0:0:0:
207,207,47466,1,2,0:0:0:0:
252,146,47595,5,6,0:0:0:0:
169,330,49043,5,2,0:0:0:0:
169,330,49284,5,2,0:0:0:0:
95,267,49490,1,2,0:0:0:0:
78,364,49697,1,2,0:0:0:0:
225,175,50467,5,0,3:0:0:0:
267,188,50572,1,0,3:0:0:0:
267,233,50678,1,0,3:0:0:0:
225,247,50783,1,0,3:0:0:0:
198,211,50889,1,0,1:0:0:0:
321,87,51716,5,0,1:0:0:0:
335,93,51785,5,0,1:0:0:0:
348,99,51854,5,0,1:0:0:0:
199,35,53302,6,0,L|188:39,1,12.5,2|2,0:0|0:0,0:0:0:0:
72,78,53647,1,0,3:0:0:0:
166,163,53923,1,0,3:0:0:0:
90,227,54130,5,0,3:0:0:0:
84,213,54199,5,0,3:0:0:0:
78,200,54268,5,0,3:0:0:0:
72,186,54337,5,0,3:0:0:0:
66,173,54406,5,0,1:0:0:0:
257,275,55026,6,0,L|268:271,1,12.5,2|2,0:0|0:0,0:0:0:0:
343,327,55302,5,2,0:0:0:0:
193,213,55822,5,2,0:0:0:0:
193,213,55874,2,0,L|198:195,1,18.75,2|2,0:0|0:0,0:0:0:0:
128,272,56212,2,0,L|92:280,1,37.5,2|2,0:0|0:0,0:0:0:0:
209,300,56605,6,0,L|225:317,2,25,2|2|2,0:0|0:0|0:0,0:0:0:0:
281,271,57039,2,0,L|264:253,2,25,2|2|2,0:0|0:0|0:0,0:0:0:0:
319,205,57442,5,2,0:0:0:0:
319,205,57497,2,0,L|337:224,1,28.125,2|2,0:0|0:0,0:0:0:0:
433,137,57886,1,2,0:0:0:0:
433,137,57942,1,2,0:0:0:0:
283,23,58275,5,2,0:0:0:0:
283,23,58330,1,2,0:0:0:0:
179,178,58692,1,0,0:0:0:0:
169,172,58743,2,0,L|157:166,2,13.1249995994568,2|2|0,0:0|0:0|0:0,0:0:0:0:
309,248,59157,5,2,0:0:0:0:
309,248,59209,1,2,0:0:0:0:
154,328,59571,1,2,0:0:0:0:
144,323,59622,2,0,L|132:317,2,13.1249995994568,2|0|0,0:0|0:0|0:0,0:0:0:0:
305,373,59985,5,2,0:0:0:0:
309,365,60036,2,0,L|316:348,1,18.75,2|0,0:0|0:0,0:0:0:0:
374,300,60190,2,0,L|389:333,1,37.5,2|0,0:0|0:0,0:0:0:0:
309,248,60395,5,2,0:0:0:0:
313,240,60446,2,0,L|320:223,1,18.75,2|0,0:0|0:0,0:0:0:0:
378,175,60601,2,0,L|393:208,1,37.5,2|0,0:0|0:0,0:0:0:0:
290,120,60806,6,0,P|245:167|185:147,1,134.999995880127,4|0,1:2|0:0,0:0:0:0:
41,64,61116,1,8,3:0:0:0:
60,91,61219,2,0,P|73:117|63:151,1,67.4999979400635,4|0,3:0|0:0,0:0:0:0:
196,59,61426,2,0,P|192:27|211:0,1,67.4999979400635,8|0,0:2|0:0,0:0:0:0:
418,78,61633,6,0,P|352:100|289:119,1,134.999995880127,4|6,0:3|3:0,0:0:0:0:
245,185,61909,5,2,0:0:0:0:
264,191,61978,5,2,0:0:0:0:
283,197,62047,6,0,P|308:256|266:303,1,134.999995880127,6|8,3:0|3:0,0:0:0:0:
173,384,62357,1,0,0:0:0:0:
142,369,62461,6,0,B|122:357|122:357|104:270|104:270|85:258,1,134.999995880127,0|0,1:0|0:0,0:0:0:0:
235,115,62771,1,8,3:0:0:0:
215,142,62874,2,0,P|182:131|151:121,1,67.4999979400635,4|0,3:0|0:0,0:0:0:0:
18,24,63081,2,0,P|49:13|81:2,1,67.4999979400635,8|0,0:2|0:0,0:0:0:0:
0,186,63288,5,4,3:0:0:0:
151,121,63495,1,0,3:0:0:0:
18,24,63702,1,4,3:0:0:0:
0,186,63909,5,0,1:0:0:0:
11,169,63978,5,0,1:0:0:0:
29,163,64047,5,0,1:0:0:0:
49,166,64116,6,0,P|90:215|64:273,1,134.999995880127,8|0,1:2|0:0,0:0:0:0:
189,371,64426,1,8,3:0:0:0:
175,340,64530,2,0,P|174:306|195:282,1,67.4999979400635,4|0,3:0|0:0,0:0:0:0:
328,197,64737,2,0,P|349:221|348:254,1,67.4999979400635,8|0,0:0|0:0,0:0:0:0:
172,111,64943,6,0,P|239:89|300:69,1,134.999995880127,4|6,3:0|3:0,0:0:0:0:
354,16,65219,5,2,0:0:0:0:
373,22,65288,5,2,0:0:0:0:
392,28,65357,6,0,P|417:88|374:133,1,134.999995880127,6|8,3:0|3:0,0:0:0:0:
239,12,65668,1,0,0:0:0:0:
223,41,65771,6,0,P|157:19|94:0,1,134.999995880127,0|0,1:0|0:0,0:0:0:0:
190,184,66081,1,8,3:3:0:0:
179,152,66184,2,0,P|211:141|243:131,1,67.4999979400635,4|0,3:0|0:0,0:0:0:0:
70,250,66392,2,0,P|37:239|6:229,1,67.4999979400635,8|0,0:0|0:0,0:0:0:0:
164,342,66599,5,4,3:0:0:0:
6,229,66806,1,0,3:0:0:0:
179,152,67013,1,4,3:0:0:0:
164,342,67219,5,0,1:0:0:0:
181,334,67288,5,0,1:0:0:0:
198,326,67357,5,0,1:0:0:0:
215,318,67426,6,0,P|241:264|185:247,1,134.999995880127,8|0,0:0|0:0,0:0:0:0:
10,348,67737,1,8,3:0:0:0:
33,322,67841,2,0,P|66:321|90:342,1,67.4999979400635,4|0,3:0|0:0,0:0:0:0:
67,184,68047,2,0,P|90:206|93:239,1,67.4999979400635,8|0,0:2|0:0,0:0:0:0:
258,89,68254,6,0,P|192:68|130:47,1,134.999995880127,4|6,3:0|3:0,0:0:0:0:
56,23,68530,5,2,0:0:0:0:
37,29,68599,5,2,0:0:0:0:
18,35,68668,6,0,P|-8:89|48:106,1,134.999995880127,6|8,3:0|3:0,0:0:0:0:
177,224,68978,1,0,0:0:0:0:
201,200,69082,6,0,B|220:188|220:188|238:101|238:101|257:89,1,134.999995880127,0|0,1:0|0:0,0:0:0:0:
93,240,69392,1,8,3:0:0:0:
104,208,69495,2,0,P|70:197|40:187,1,67.4999979400635,4|0,3:0|0:0,0:0:0:0:
213,306,69703,2,0,P|245:295|276:284,1,67.4999979400635,8|0,0:2|0:0,0:0:0:0:
87,113,69909,5,4,3:0:0:0:
303,188,70116,1,0,3:0:0:0:
128,335,70323,1,4,3:0:0:0:
182,98,70530,5,0,1:0:0:0:
199,106,70599,5,0,1:0:0:0:
216,114,70668,5,0,1:0:0:0:
233,122,70737,6,0,P|247:94|239:61,1,67.4999979400635,0|0,1:0|0:0,0:0:0:0:
75,128,70943,2,0,P|61:156|69:189,1,67.4999979400635,0|0,1:0|0:0,0:0:0:0:
173,24,71150,6,0,P|136:11|102:0,1,75,0|0,1:0|0:0,0:0:0:0:
135,226,71357,2,0,P|171:238|205:249,1,75,0|0,1:0|0:0,0:0:0:0:
43,59,71564,6,0,P|25:64|14:82,2,41.2500012588501,0|0|0,1:0|3:0|3:0,0:0:0:0:
265,191,71771,2,0,P|283:186|294:168,2,41.2500012588501,0|0|0,1:0|3:0|3:0,0:0:0:0:
102,0,71978,6,0,P|109:21|116:42,2,44.999998626709,0|0|0,1:0|3:0|3:0,0:0:0:0:
206,250,72185,2,0,P|198:228|191:207,2,44.999998626709,0|0|0,1:0|3:0|3:0,0:0:0:0:
152,126,72392,5,6,1:2:0:0:
152,126,73219,6,0,L|170:132,1,18.75,2|0,0:0|0:0,0:0:0:0:
184,121,73426,2,0,P|168:115|150:108,1,37.5,2|0,0:0|0:0,0:0:0:0:
278,206,73840,2,0,L|295:197,1,18.75,2|0,0:0|0:0,0:0:0:0:
272,292,74047,6,0,P|229:297|200:265,1,89.9999972534181,4|2,3:2|0:0,0:0:0:0:
344,261,74357,1,0,0:0:0:0:
344,261,74461,2,0,P|351:274|350:289,1,30,2|0,0:0|0:0,0:0:0:0:
376,189,74668,1,0,0:0:0:0:
376,189,74771,1,0,0:0:0:0:
376,189,74874,6,0,L|402:202,1,30,0|0,0:0|0:0,0:0:0:0:
295,198,75081,2,0,L|269:211,1,30,0|0,0:0|0:0,0:0:0:0:
286,117,75288,2,0,L|260:104,1,30,2|0,3:0|0:0,0:0:0:0:
367,108,75495,2,0,L|393:95,1,30,0|0,0:0|0:0,0:0:0:0:
262,8,75702,6,0,P|221:28|182:47,1,89.9999972534181,8|2,0:2|0:0,0:0:0:0:
171,55,75978,5,2,0:0:0:0:
161,61,76047,5,2,0:0:0:0:
151,67,76116,6,0,P|162:77|164:92,1,30,2|0,0:0|0:0,0:0:0:0:
102,205,76323,1,2,0:0:0:0:
102,205,76426,1,0,0:0:0:0:
102,205,76530,6,0,L|66:187,1,40,2|2,3:2|0:2,0:0:0:0:
5,123,76806,5,2,0:2:0:0:
5,123,76943,6,0,L|41:105,1,40,2|2,0:2|0:2,0:0:0:0:
52,101,77150,6,0,P|51:91|43:84,2,20,2|0|0,0:0|0:0|0:0,0:0:0:0:
116,50,77357,6,0,P|157:70|196:89,1,89.9999972534181,2|0,3:2|0:0,0:0:0:0:
207,97,77633,5,2,0:0:0:0:
217,103,77702,5,2,0:0:0:0:
227,109,77771,6,0,P|216:119|214:134,1,30,2|0,0:0|0:0,0:0:0:0:
311,146,77978,2,0,P|296:146|285:155,1,30,2|0,0:0|0:0,0:0:0:0:
344,232,78185,2,0,P|334:221|319:218,1,30,2|0,0:0|0:0,0:0:0:0:
306,315,78392,2,0,P|306:300|297:288,1,30,2|0,0:0|0:0,0:0:0:0:
166,371,78599,6,0,L|192:384,1,30,0|0,3:0|0:0,0:0:0:0:
198,307,78806,2,0,L|224:320,1,30,2|0,0:0|0:0,0:0:0:0:
112,215,79012,6,0,P|81:248|41:242,1,89.9999972534181,10|0,0:2|0:0,0:0:0:0:
166,82,79426,5,0,0:0:0:0:
174,90,79495,5,0,0:0:0:0:
184,97,79564,5,0,0:0:0:0:
194,102,79633,5,0,0:0:0:0:
206,106,79702,5,0,0:0:0:0:
216,107,79771,5,0,0:0:0:0:
227,109,79840,6,0,L|204:175,1,69.9999978637696,10|8,1:2|1:2,0:0:0:0:
313,89,80116,5,8,1:2:0:0:
313,89,80254,6,0,L|290:23,1,69.9999978637696,10|0,1:2|0:0,0:0:0:0:
286,12,80461,5,0,3:0:0:0:
298,8,80530,5,0,0:0:0:0:
308,4,80599,5,0,0:0:0:0:
320,0,80667,5,2,0:0:0:0:
227,109,80943,5,2,0:0:0:0:
134,218,81219,5,2,0:0:0:0:
331,338,81495,6,0,P|386:311|438:285,1,120,4|0,3:2|0:0,0:0:0:0:
338,200,81806,1,0,0:0:0:0:
338,200,81909,2,0,P|324:220|326:247,1,52.4999983978272,2|0,3:2|0:0,0:0:0:0:
434,161,82116,2,0,P|436:135|422:113,1,52.4999983978272,0|0,0:0|0:0,0:0:0:0:
247,32,82323,6,0,P|285:-10|341:0,1,120,8|0,0:2|0:0,0:0:0:0:
350,7,82599,5,2,0:0:0:0:
357,14,82668,5,2,0:0:0:0:
364,21,82737,6,0,P|390:23|412:9,1,52.4999983978272,2|0,0:0|0:0,0:0:0:0:
329,115,82943,2,0,P|303:117|281:103,1,52.4999983978272,2|0,0:0|0:0,0:0:0:0:
434,161,83150,6,0,L|449:111,1,52.4999983978272,2|0,3:2|0:0,0:0:0:0:
369,214,83357,2,0,L|318:225,1,52.4999983978272,2|0,0:0|0:0,0:0:0:0:
447,243,83564,2,0,L|481:281,1,52.4999983978272,0|0,0:0|0:0,0:0:0:0:
386,296,83771,6,0,L|381:312,4,17.4999994659424,2|0|0|0|0,0:0|0:0|0:0|0:0|0:0,0:0:0:0:
312,354,83978,6,0,L|306:335,4,20,2|0|0|0|0,3:2|0:0|0:0|0:0|0:0,0:0:0:0:
226,281,84254,5,2,0:0:0:0:
226,281,84392,6,0,P|192:295|162:308,1,69.9999978637696,2|2,0:0|0:0,0:0:0:0:
80,263,84668,5,2,0:0:0:0:
80,263,84806,5,2,0:0:0:0:
234,182,85012,1,2,0:0:0:0:
42,85,85219,2,0,P|29:36|65:2,1,104.999996795654,0|2,3:0|0:0,0:0:0:0:
19,177,85633,6,0,L|37:182,3,20,10|2|0|0,0:2|0:0|0:0|0:0,0:0:0:0:
175,222,85909,6,0,L|156:216,5,20,2|2|0|0|0|0,3:2|0:0|0:0|0:0|0:0|0:0,0:0:0:0:
123,102,86254,6,0,L|118:122,3,20,2|2|0|0,3:2|0:0|0:0|0:0,0:0:0:0:
114,136,86461,5,0,3:0:0:0:
70,299,86668,5,2,1:2:0:0:
73,285,86737,5,2,1:2:0:0:
77,275,86806,5,2,1:2:0:0:
80,263,86874,5,2,1:2:0:0:
175,222,87081,1,2,0:2:0:0:
42,85,87288,6,0,B|-3:53|-3:53|26:9|26:9|71:40|71:40|46:80,1,209.999993591309,2|0,0:2|0:0,0:0:0:0:
256,192,88116,6,0,L|262:173,24,20,0|0|0|0|0|0|0|0|0|0|0|0|0|0|0|0|0|0|0|0|0|0|0|0|0,1:0|0:0|0:0|0:0|0:0|0:0|0:0|0:0|0:0|0:0|0:0|0:0|0:0|0:0|0:0|0:0|0:0|0:0|0:0|0:0|0:0|0:0|0:0|0:0|0:0,0:0:0:0:
107,324,90663,6,0,P|133:276|75:260,1,131.25,2|0,0:0|0:0,0:0:0:0:
61,270,91437,2,0,P|39:240|47:204,1,75,2|2,0:0|0:0,0:0:0:0:
130,109,92282,5,2,0:0:0:0:
57,47,92625,5,2,0:0:0:0:
48,51,92685,2,0,L|22:61,1,28.125,2|2,0:0|0:0,0:0:0:0:
148,15,93105,1,2,0:0:0:0:
47,205,93937,6,0,B|84:194|115:217|96:231|128:257|161:246,1,131.25,2|0,0:0|0:0,0:0:0:0:
178,240,94758,2,0,P|186:204|165:175,1,75,0|2,0:0|0:0,0:0:0:0:
53,283,95580,5,2,0:0:0:0:
122,357,95852,6,0,L|133:353,1,12.5,2|2,0:0|0:0,0:0:0:0:
144,349,95988,6,0,L|109:336,1,37.5,2|2,0:0|0:0,0:0:0:0:
18,296,96396,2,0,L|52:283,1,37.5,2|2,0:0|0:0,0:0:0:0:
216,133,97235,6,0,B|166:113|166:113|156:88|156:88|108:70,1,131.25,0|0,0:0|0:0,0:0:0:0:
94,65,98092,2,0,P|86:29|107:0,1,75,0|2,0:0|0:0,0:0:0:0:
0,127,98907,5,2,0:0:0:0:
75,195,99188,6,0,L|71:205,1,12.5,2|2,0:0|0:0,0:0:0:0:
66,218,99329,6,0,L|53:183,1,37.5,2|2,0:0|0:0,0:0:0:0:
0,127,99752,1,2,0:0:0:0:
256,192,100676,5,2,0:0:0:0:
256,192,100779,12,0,103986,0:0:0:0:
