osu file format v14

[General]
AudioFilename: audio.mp3
AudioLeadIn: 0
PreviewTime: 7795
Countdown: 0
SampleSet: Soft
StackLeniency: 0.7
Mode: 2
LetterboxInBreaks: 0
WidescreenStoryboard: 1

[Editor]
DistanceSpacing: 1
BeatDivisor: 4
GridSize: 8
TimelineZoom: 2

[Metadata]
Title:Reconnaissance Captain
TitleUnicode:游击骑士
Artist:Yu-Peng Chen @HOYO-MiX
ArtistUnicode:陈致逸 @HOYO-MiX
Creator:bighzonda
Version:Glacier
Source:Genshin Impact
Tags:遊撃騎士 原神 原げん神しん 原神-珍珠之歌 yuugeki kishi eula lawrence the shimmering voyage disc 4 video game instrumental flamenco folk flickering candlelight
BeatmapID:3147664
BeatmapSetID:1539665

[Difficulty]
HPDrainRate:5
CircleSize:4.4
OverallDifficulty:9
ApproachRate:9
SliderMultiplier:2.6
SliderTickRate:2

[Events]
//Background and Video events
0,0,"eula my beloved.jpg",0,0
//Break Periods
//Storyboard Layer 0 (Background)
//Storyboard Layer 1 (Fail)
//Storyboard Layer 2 (Pass)
//Storyboard Layer 3 (Foreground)
//Storyboard Layer 4 (Overlay)
//Storyboard Sound Samples

[TimingPoints]
1969,495.867768595041,4,2,1,50,1,0
2092,-100,4,2,1,20,0,0
4076,-100,4,2,1,40,0,0
4944,-100,4,2,1,45,0,0
5935,-100,4,2,1,50,0,0
29489,-166.666666666667,4,2,1,50,0,0
29613,-166.666666666667,4,2,1,5,0,0
32092,-166.666666666667,4,2,1,25,0,0
32216,-166.666666666667,4,2,1,50,0,0
35440,-166.666666666667,4,2,1,20,0,0
36183,-166.666666666667,4,2,1,15,0,0
36927,-166.666666666667,4,2,1,10,0,0
37671,-166.666666666667,4,2,1,5,0,0

[Colours]
Combo1 : 210,235,255
Combo2 : 126,202,248
Combo3 : 65,150,235

[HitObjects]
256,192,2092,12,0,5935,0:0:0:0:
336,240,7919,5,6,0:0:0:0:
120,120,8167,1,6,0:0:0:0:
328,80,8663,2,0,L|344:144,1,65
200,264,8911,6,0,L|48:264,1,130
136,216,9283,2,0,L|266:216,1,130
336,216,9654,1,0,0:0:0:0:
128,272,9902,5,6,0:0:0:0:
272,224,10150,1,6,0:0:0:0:
136,192,10274,2,0,P|56:152|128:104,1,195
328,88,10894,6,0,L|128:88,1,195
200,152,11390,2,0,L|408:152,1,195
200,216,11886,5,6,0:0:0:0:
24,280,12134,1,6,0:0:0:0:
112,240,12630,2,0,L|192:240,1,65
312,352,12878,6,0,L|320:216,1,130
256,160,13249,2,0,L|432:64,1,195
192,256,13869,5,6,0:0:0:0:
368,208,14241,1,0,0:0:0:0:
192,176,14613,1,0,0:0:0:0:
328,128,14861,6,0,L|400:128,1,65
192,72,15109,2,0,L|128:72,1,65
328,48,15357,1,8,0:0:0:0:
408,88,15481,1,0,0:0:0:0:
208,104,15605,1,0,0:0:0:0:
128,144,15729,1,0,0:0:0:0:
328,240,15853,6,0,P|368:184|320:128,1,130,4|0,0:0|0:0,0:0:0:0:
280,112,16225,1,0,0:0:0:0:
208,160,16349,2,0,L|56:160,1,130,8|0,0:0|0:0,0:0:0:0:
144,112,16721,1,0,0:0:0:0:
280,80,16845,6,0,L|432:80,1,130
344,128,17216,1,0,0:0:0:0:
184,240,17340,2,0,L|152:112,1,130,8|0,0:0|0:0,0:0:0:0:
288,96,17836,6,0,L|152:96,1,130
224,152,18208,1,0,0:0:0:0:
352,176,18332,2,0,L|352:312,1,130,8|0,0:0|0:0,0:0:0:0:
224,280,18828,6,0,L|160:280,2,65
360,240,19324,2,0,L|504:240,1,130,8|0,0:0|0:0,0:0:0:0:
424,184,19696,1,0,0:0:0:0:
216,88,19820,6,0,L|16:88,2,195,4|0|0,0:0|0:0|0:0,0:0:0:0:
280,128,20688,1,0,0:0:0:0:
488,304,20811,6,0,L|280:304,2,195,4|0|0,0:0|0:0|0:0,0:0:0:0:
296,128,21803,6,0,L|160:128,1,130,2|0,0:0|0:0,0:0:0:0:
296,64,22299,2,0,L|296:144,1,65,2|0,0:0|0:0,0:0:0:0:
200,144,22547,2,0,L|200:216,1,65,2|0,0:0|0:0,0:0:0:0:
344,176,22795,6,0,L|344:248,1,65,2|0,0:0|0:0,0:0:0:0:
200,320,23043,2,0,L|200:255,1,65,2|0,0:0|0:0,0:0:0:0:
416,240,23291,2,0,L|416:168,1,65,2|0,0:0|0:0,0:0:0:0:
200,176,23539,2,0,L|200:96,1,65,2|0,0:0|0:0,0:0:0:0:
424,88,23787,6,0,L|224:88,1,195,4|0,0:0|0:0,0:0:0:0:
424,128,24530,2,0,L|424:328,1,195
224,280,25274,2,0,L|368:280,1,130
48,304,25770,6,0,L|48:88,1,195
256,88,26514,2,0,L|56:88,1,195
392,120,27258,2,0,L|392:208,1,65
192,248,27506,2,0,L|192:176,1,65,2|2,0:0|0:0,0:0:0:0:
408,104,27754,6,0,L|408:304,1,195,4|0,0:0|0:0,0:0:0:0:
112,328,28497,2,0,L|112:128,1,195,4|0,0:0|0:0,0:0:0:0:
312,96,29241,5,0,0:0:0:0:
112,24,29489,2,0,P|40:168|440:160,1,818.999975006104
256,144,32216,5,6,0:0:0:0:
256,192,32464,12,0,37671,0:0:0:0:
