osu file format v14

[General]
AudioFilename: audio.mp3
AudioLeadIn: 0
PreviewTime: 7795
Countdown: 0
SampleSet: Normal
StackLeniency: 0.7
Mode: 1
LetterboxInBreaks: 0
WidescreenStoryboard: 1

[Editor]
DistanceSpacing: 1
BeatDivisor: 4
GridSize: 32
TimelineZoom: 1

[Metadata]
Title:Reconnaissance Captain
TitleUnicode:游击骑士
Artist:Yu-Peng Chen @HOYO-MiX
ArtistUnicode:陈致逸 @HOYO-MiX
Creator:Emre1504
Version:Futsuu
Source:Genshin Impact
Tags:原神 원신 mihoyo gacha video game 珍珠之歌 遊撃騎士 the shimmering voyage cryo eula lawrence エウルア 유라 优菈 flickering candlelight theme original soundtrack ost tango jazz instrumental disc 4
BeatmapID:3147460
BeatmapSetID:1539547

[Difficulty]
HPDrainRate:8
CircleSize:5
OverallDifficulty:3
ApproachRate:5
SliderMultiplier:1.4
SliderTickRate:1

[Events]
//Background and Video events
0,0,"eula.jpg",0,100
//Break Periods
//Storyboard Layer 0 (Background)
//Storyboard Layer 1 (Fail)
//Storyboard Layer 2 (Pass)
//Storyboard Layer 3 (Foreground)
//Storyboard Layer 4 (Overlay)
//Storyboard Sound Samples

[TimingPoints]
-18,495.86776859504,4,1,0,30,1,0
1965,-100,4,1,0,30,0,0
3948,-100,4,1,0,50,0,0
7791,-100,4,1,0,70,0,0
15849,-100,4,1,0,80,0,1
23783,-100,4,1,0,70,0,0

[HitObjects]
256,192,1965,12,0,5932,0:0:0:0:
256,192,7915,5,4,0:0:0:0:
256,192,8163,1,4,0:0:0:0:
256,192,8659,1,0,0:0:0:0:
256,192,8907,1,8,0:0:0:0:
256,192,9279,1,8,0:0:0:0:
256,192,9899,1,4,0:0:0:0:
256,192,10271,1,8,0:0:0:0:
256,192,10643,1,8,0:0:0:0:
256,192,10891,1,8,0:0:0:0:
256,192,11386,1,0,0:0:0:0:
256,192,11882,1,4,0:0:0:0:
256,192,12130,1,4,0:0:0:0:
256,192,12626,1,0,0:0:0:0:
256,192,12874,1,8,0:0:0:0:
256,192,13246,1,8,0:0:0:0:
256,192,13866,1,4,0:0:0:0:
256,192,14238,1,4,0:0:0:0:
256,192,14610,1,8,0:0:0:0:
256,192,14858,1,8,0:0:0:0:
256,192,15353,1,0,0:0:0:0:
256,192,15601,1,0,0:0:0:0:
256,192,15849,1,12,0:0:0:0:
256,192,16593,1,0,0:0:0:0:
256,192,16841,1,8,0:0:0:0:
256,192,17213,1,8,0:0:0:0:
256,192,17585,1,8,0:0:0:0:
256,192,17833,1,0,0:0:0:0:
256,192,18205,1,0,0:0:0:0:
256,192,18577,1,8,0:0:0:0:
256,192,18824,1,8,0:0:0:0:
256,192,19320,1,0,0:0:0:0:
256,192,19816,1,4,0:0:0:0:
256,192,20188,1,0,0:0:0:0:
256,192,20808,1,12,0:0:0:0:
256,192,21180,1,0,0:0:0:0:
256,192,21800,1,8,0:0:0:0:
256,192,22296,1,0,0:0:0:0:
256,192,22791,1,8,0:0:0:0:
256,192,23039,1,8,0:0:0:0:
256,192,23287,1,0,0:0:0:0:
256,192,23535,1,8,0:0:0:0:
256,192,23783,1,12,0:0:0:0:
256,192,24527,1,8,0:0:0:0:
256,192,25271,1,0,0:0:0:0:
256,192,25519,1,0,0:0:0:0:
256,192,25767,1,8,0:0:0:0:
256,192,26510,1,8,0:0:0:0:
256,192,27254,1,8,0:0:0:0:
256,192,27502,1,8,0:0:0:0:
256,192,27750,1,4,0:0:0:0:
256,192,28494,1,12,0:0:0:0:
256,192,29238,1,0,0:0:0:0:
256,192,29486,1,8,0:0:0:0:
256,192,32213,1,4,0:0:0:0:
