osu file format v14

[General]
AudioFilename: audio.mp3
AudioLeadIn: 0
PreviewTime: 7791
Countdown: 0
SampleSet: Soft
StackLeniency: 0.7
Mode: 3
LetterboxInBreaks: 0
SpecialStyle: 0
WidescreenStoryboard: 1

[Editor]
DistanceSpacing: 1
BeatDivisor: 12
GridSize: 32
TimelineZoom: 2.999999

[Metadata]
Title:Reconnaissance Captain
TitleUnicode:游击骑士
Artist:Yu-Peng Chen @HOYO-MiX
ArtistUnicode:陈致逸 @HOYO-MiX
Creator:Angki
Version:Hard
Source:Genshin Impact
Tags:原神 원신 mihoyo gacha video game 珍珠之歌 遊撃騎士 the shimmering voyage cryo eula lawrence エウルア 유라 优菈 flickering candlelight theme original soundtrack ost tango jazz instrumental disc 4 folk
BeatmapID:3152953
BeatmapSetID:1542486

[Difficulty]
HPDrainRate:7.7
CircleSize:4
OverallDifficulty:7.7
ApproachRate:5
SliderMultiplier:1.4
SliderTickRate:1

[Events]
//Background and Video events
0,0,"Background.jpg",0,0
//Break Periods
//Storyboard Layer 0 (Background)
//Storyboard Layer 1 (Fail)
//Storyboard Layer 2 (Pass)
//Storyboard Layer 3 (Foreground)
//Storyboard Layer 4 (Overlay)
//Storyboard Sound Samples

[TimingPoints]
-18,495.86776859504,4,2,1,65,1,0
15849,-100.0,4,2,1,65,0,1
23783,-100.0,4,2,1,65,0,0

[HitObjects]
64,192,2089,128,0,5932:0:0:0:0:
448,192,2089,128,0,5932:0:0:0:0:
320,192,3948,128,0,5932:0:0:0:0:
64,192,7915,1,4,0:0:0:0:
192,192,7915,1,2,0:0:0:0:
448,192,7915,1,0,0:0:0:0:
320,192,8163,1,4,0:0:0:0:
448,192,8163,1,2,0:0:0:0:
192,192,8659,128,0,8783:0:0:0:0:
320,192,8783,128,0,8907:0:0:0:0:
64,192,8907,1,0,0:0:0:0:
448,192,8907,128,0,9279:0:0:0:0:
320,192,9279,128,0,9651:0:0:0:0:
192,192,9651,128,0,9899:0:0:0:0:
64,192,9899,1,4,0:0:0:0:
320,192,9899,1,2,0:0:0:0:
448,192,9899,1,0,0:0:0:0:
64,192,10147,1,4,0:0:0:0:
192,192,10147,1,2,0:0:0:0:
320,192,10271,128,0,10643:0:0:0:0:
448,192,10643,128,0,10891:0:0:0:0:
192,192,10891,128,0,11386:0:0:0:0:
64,192,11386,128,0,11882:0:0:0:0:
192,192,11882,1,4,0:0:0:0:
320,192,11882,1,2,0:0:0:0:
448,192,11882,1,0,0:0:0:0:
64,192,12130,1,2,0:0:0:0:
320,192,12130,1,4,0:0:0:0:
192,192,12626,128,0,12750:0:0:0:0:
320,192,12750,128,0,12874:0:0:0:0:
64,192,12874,1,0,0:0:0:0:
448,192,12874,128,0,13246:0:0:0:0:
192,192,13246,128,0,13618:0:0:0:0:
320,192,13618,128,0,13866:0:0:0:0:
64,192,13866,1,4,0:0:0:0:
192,192,13866,128,2,14238:0:0:0:0:
448,192,13866,1,0,0:0:0:0:
64,192,14238,128,2,14610:0:0:0:0:
320,192,14238,1,0,0:0:0:0:
320,192,14610,128,2,14858:0:0:0:0:
448,192,14610,1,0,0:0:0:0:
64,192,14858,1,8,0:0:0:0:
192,192,14858,1,0,0:0:0:0:
320,192,14981,1,0,0:0:0:0:
448,192,15105,1,8,0:0:0:0:
64,192,15167,1,8,0:0:0:0:
192,192,15229,1,8,0:0:0:0:
320,192,15353,1,8,0:0:0:0:
448,192,15353,1,0,0:0:0:0:
64,192,15477,1,2,0:0:0:0:
192,192,15601,1,2,0:0:0:0:
320,192,15725,1,2,0:0:0:0:
64,192,15849,1,4,0:0:0:0:
192,192,15849,1,2,0:0:0:0:
448,192,15849,1,0,0:0:0:0:
64,192,16097,1,0,0:0:0:0:
192,192,16345,1,8,0:0:0:0:
320,192,16345,1,0,0:0:0:0:
448,192,16345,1,0,0:0:0:0:
64,192,16593,128,0,16717:0:0:0:0:
192,192,16717,128,0,16841:0:0:0:0:
320,192,16841,128,0,17089:0:0:0:0:
448,192,17089,1,2,0:0:0:0:
192,192,17213,1,0,0:0:0:0:
64,192,17337,1,8,0:0:0:0:
320,192,17337,1,0,0:0:0:0:
448,192,17337,1,0,0:0:0:0:
192,192,17585,128,0,17833:0:0:0:0:
64,192,17833,128,2,18081:0:0:0:0:
320,192,17833,1,0,0:0:0:0:
448,192,18081,1,0,0:0:0:0:
320,192,18205,1,0,0:0:0:0:
64,192,18329,1,8,0:0:0:0:
192,192,18329,1,0,0:0:0:0:
448,192,18329,1,0,0:0:0:0:
320,192,18577,128,0,18824:0:0:0:0:
192,192,18824,128,0,19320:0:0:0:0:
320,192,19072,1,2,0:0:0:0:
448,192,19072,1,0,0:0:0:0:
64,192,19320,128,8,19568:0:0:0:0:
448,192,19320,1,0,0:0:0:0:
320,192,19568,1,0,0:0:0:0:
192,192,19675,1,0,0:0:0:0:
64,192,19816,1,4,0:0:0:0:
320,192,19816,128,2,20188:0:0:0:0:
448,192,19816,1,0,0:0:0:0:
192,192,20188,128,0,20560:0:0:0:0:
448,192,20560,1,2,0:0:0:0:
320,192,20684,1,2,0:0:0:0:
64,192,20808,1,4,0:0:0:0:
192,192,20808,1,8,0:0:0:0:
448,192,20808,128,2,21180:0:0:0:0:
320,192,21180,128,0,21552:0:0:0:0:
192,192,21552,128,0,21800:0:0:0:0:
64,192,21800,1,8,0:0:0:0:
448,192,21800,1,0,0:0:0:0:
192,192,22048,1,8,0:0:0:0:
448,192,22048,1,0,0:0:0:0:
192,192,22296,1,8,0:0:0:0:
320,192,22296,1,0,0:0:0:0:
64,192,22543,1,8,0:0:0:0:
320,192,22543,1,0,0:0:0:0:
64,192,22791,1,8,0:0:0:0:
192,192,22791,1,0,0:0:0:0:
192,192,23039,1,8,0:0:0:0:
320,192,23163,1,0,0:0:0:0:
64,192,23287,1,8,0:0:0:0:
448,192,23287,1,0,0:0:0:0:
192,192,23411,1,0,0:0:0:0:
320,192,23535,1,8,0:0:0:0:
64,192,23659,1,0,0:0:0:0:
192,192,23783,1,2,0:0:0:0:
320,192,23783,1,4,0:0:0:0:
448,192,23783,128,0,24155:0:0:0:0:
64,192,24155,128,0,24527:0:0:0:0:
320,192,24527,128,0,24899:0:0:0:0:
192,192,24899,128,0,25271:0:0:0:0:
448,192,25271,128,0,25519:0:0:0:0:
320,192,25519,128,0,25767:0:0:0:0:
64,192,25767,128,0,26139:0:0:0:0:
192,192,25767,1,0,0:0:0:0:
320,192,26139,128,0,26510:0:0:0:0:
64,192,26510,1,0,0:0:0:0:
448,192,26510,128,0,26882:0:0:0:0:
192,192,26882,128,0,27254:0:0:0:0:
64,192,27254,1,8,0:0:0:0:
448,192,27254,1,2,0:0:0:0:
320,192,27502,1,8,0:0:0:0:
448,192,27502,1,2,0:0:0:0:
64,192,27750,128,2,28122:0:0:0:0:
192,192,27750,1,4,0:0:0:0:
320,192,27750,1,0,0:0:0:0:
192,192,28122,128,0,28494:0:0:0:0:
64,192,28494,1,8,0:0:0:0:
320,192,28494,1,4,0:0:0:0:
448,192,28494,128,0,28866:0:0:0:0:
320,192,28866,128,0,29238:0:0:0:0:
64,192,29238,128,0,29486:0:0:0:0:
448,192,29486,128,0,29734:0:0:0:0:
64,192,32213,1,2,0:0:0:0:
192,192,32213,1,4,0:0:0:0:
320,192,32213,1,0,0:0:0:0:
