osu file format v14

[General]
AudioFilename: audio.mp3
AudioLeadIn: 0
PreviewTime: 7795
Countdown: 0
SampleSet: None
StackLeniency: 0.4
Mode: 0
LetterboxInBreaks: 0
WidescreenStoryboard: 1

[Editor]
Bookmarks: 2092,7919,35688
DistanceSpacing: 1
BeatDivisor: 8
GridSize: 32
TimelineZoom: 1.9

[Metadata]
Title:Reconnaissance Captain
TitleUnicode:游击骑士
Artist:Yu-Peng Chen @HOYO-MiX
ArtistUnicode:陈致逸 @HOYO-MiX
Creator:-Magic-
Version:Sunazuka Akira's Insane
Source:Genshin Impact
Tags:遊撃騎士 原神 原げん神しん 原神-珍珠之歌 yuugeki kishi eula lawrence the shimmering voyage disc 4 video game instrumental tango flickering candlelight mihoyo Eula- Crissa Sunazuka Akira
BeatmapID:3143548
BeatmapSetID:1536256

[Difficulty]
HPDrainRate:5
CircleSize:4.2
OverallDifficulty:7.6
ApproachRate:9
SliderMultiplier:1.42
SliderTickRate:1

[Events]
//Background and Video events
0,0,"Eula.jpg",0,0
//Break Periods
//Storyboard Layer 0 (Background)
//Storyboard Layer 1 (Fail)
//Storyboard Layer 2 (Pass)
//Storyboard Layer 3 (Foreground)
//Storyboard Layer 4 (Overlay)
//Storyboard Sound Samples

[TimingPoints]
1969,495.86776859504,4,2,12,22,1,0
2092,-125,4,2,12,22,0,0
3828,-125,4,2,12,5,0,0
3952,-125,4,2,12,32,0,0
5935,-125,4,2,12,42,0,0
7919,-35.7142857142857,4,2,12,72,0,0
8043,-35.7142857142857,4,2,12,5,0,0
8167,-55.5555555555556,4,2,12,52,0,0
8291,-55.5555555555556,4,2,12,5,0,0
8663,-55.5555555555556,4,2,13,35,0,0
8787,-55.5555555555556,4,2,13,38,0,0
8911,-50,4,2,13,42,0,0
9159,-50,4,2,13,5,0,0
9283,-50,4,2,13,38,0,0
9530,-50,4,2,13,5,0,0
9654,-50,4,2,13,35,0,0
9778,-50,4,2,13,5,0,0
9902,-33.3333333333333,4,2,12,72,0,0
10026,-33.3333333333333,4,2,12,5,0,0
10150,-55.5555555555556,4,2,12,52,0,0
10274,-55.5555555555556,4,2,13,56,0,0
10398,-55.5555555555556,4,2,13,42,0,0
10584,-55.5555555555556,4,2,13,42,0,0
10646,-55.5555555555556,4,2,13,42,0,0
10770,-55.5555555555556,4,2,13,5,0,0
10894,-66.6666666666667,4,2,13,38,0,0
11266,-66.6666666666667,4,2,13,5,0,0
11390,-66.6666666666667,4,2,13,32,0,0
11762,-66.6666666666667,4,2,13,5,0,0
11886,-35.7142857142857,4,2,12,72,0,0
12010,-35.7142857142857,4,2,12,5,0,0
12134,-55.5555555555556,4,2,12,52,0,0
12258,-55.5555555555556,4,2,12,5,0,0
12630,-55.5555555555556,4,2,13,35,0,0
12754,-55.5555555555556,4,2,13,38,0,0
12878,-55.5555555555556,4,2,13,42,0,0
13126,-55.5555555555556,4,2,13,5,0,0
13249,-55.5555555555556,4,2,13,38,0,0
13497,-55.5555555555556,4,2,13,5,0,0
13621,-55.5555555555556,4,2,12,35,0,0
13745,-55.5555555555556,4,2,12,5,0,0
13869,-31.7460317460317,4,2,12,72,0,0
14117,-31.7460317460317,4,2,12,5,0,0
14241,-31.7460317460317,4,2,12,52,0,0
14489,-31.7460317460317,4,2,12,5,0,0
14613,-31.7460317460317,4,2,12,62,0,0
14737,-31.7460317460317,4,2,12,5,0,0
14861,-31.7460317460317,4,2,12,72,0,0
15109,-31.7460317460317,4,2,12,50,0,0
15357,-31.7460317460317,4,2,12,52,0,0
15481,-31.7460317460317,4,2,12,54,0,0
15605,-31.7460317460317,4,2,12,56,0,0
15729,-31.7460317460317,4,2,13,58,0,0
15853,-31.7460317460317,4,2,10,72,0,0
16101,-31.7460317460317,4,2,14,62,0,0
16349,-40,4,2,14,58,0,0
16473,-40,4,2,14,5,0,0
16597,-40,4,2,14,60,0,0
16845,-31.7460317460317,4,2,14,62,0,0
17092,-31.7460317460317,4,2,14,54,0,0
17216,-31.7460317460317,4,2,14,58,0,0
17340,-31.7460317460317,4,2,14,60,0,0
17526,-31.7460317460317,4,2,14,60,0,0
17588,-31.7460317460317,4,2,14,62,0,0
17712,-31.7460317460317,4,2,14,62,0,0
17836,-28.5714285714286,4,2,14,60,0,0
18208,-28.5714285714286,4,2,14,58,0,0
18332,-28.5714285714286,4,2,14,62,0,0
18456,-28.5714285714286,4,2,14,5,0,0
18580,-40,4,2,14,60,0,0
18704,-40,4,2,14,5,0,0
18828,-28.5714285714286,4,2,14,56,0,0
19076,-28.5714285714286,4,2,14,58,0,0
19324,-55.5555555555556,4,2,14,62,0,0
19448,-55.5555555555556,4,2,14,5,0,0
19572,-55.5555555555556,4,2,14,52,0,0
19820,-35.7142857142857,4,2,12,62,0,0
20068,-35.7142857142857,4,2,12,62,0,0
20192,-35.7142857142857,4,2,13,52,0,0
20440,-35.7142857142857,4,2,13,52,0,0
20564,-35.7142857142857,4,2,13,58,0,0
20688,-35.7142857142857,4,2,13,60,0,0
20811,-28.5714285714286,4,2,12,64,0,0
21059,-28.5714285714286,4,2,12,5,0,0
21183,-66.6666666666667,4,2,13,58,0,0
21431,-66.6666666666667,4,2,13,58,0,0
21555,-66.6666666666667,4,2,13,60,0,0
21803,-40,4,2,11,54,0,0
22051,-40,4,2,11,58,0,0
22299,-31.7460317460317,4,2,15,54,0,0
22547,-31.7460317460317,4,2,15,56,0,0
22671,-31.7460317460317,4,2,12,56,0,0
22795,-31.7460317460317,4,2,15,60,0,0
23043,-31.7460317460317,4,2,15,64,0,0
23167,-31.7460317460317,4,2,12,64,0,0
23291,-31.7460317460317,4,2,15,68,0,0
23415,-31.7460317460317,4,2,12,68,0,0
23539,-31.7460317460317,4,2,12,72,0,0
23787,-66.6666666666667,4,2,13,62,0,0
24035,-66.6666666666667,4,2,13,5,0,0
24159,-40,4,2,15,58,0,0
24407,-40,4,2,15,58,0,0
24530,-40,4,2,15,56,0,0
24778,-40,4,2,15,56,0,0
24902,-66.6666666666667,4,2,15,54,0,0
25150,-66.6666666666667,4,2,15,54,0,0
25274,-66.6666666666667,4,2,15,56,0,0
25398,-66.6666666666667,4,2,15,56,0,0
25522,-66.6666666666667,4,2,15,58,0,0
25646,-66.6666666666667,4,2,15,58,0,0
25770,-66.6666666666667,4,2,15,60,0,0
26018,-66.6666666666667,4,2,15,60,0,0
26142,-66.6666666666667,4,2,15,58,0,0
26390,-66.6666666666667,4,2,15,5,0,0
26514,-40,4,2,15,62,0,0
26762,-40,4,2,15,62,0,0
26886,-40,4,2,15,58,0,0
27134,-40,4,2,15,58,0,0
27258,-40,4,2,11,66,0,0
27444,-40,4,2,11,66,0,0
27506,-40,4,2,12,64,0,0
27692,-40,4,2,12,64,0,0
27754,-50,4,2,12,62,0,0
28002,-50,4,2,12,5,0,0
28126,-40,4,2,13,58,0,0
28373,-40,4,2,13,5,0,0
28497,-33.3333333333333,4,2,12,62,0,0
28745,-33.3333333333333,4,2,12,62,0,0
28869,-33.3333333333333,4,2,13,58,0,0
29117,-33.3333333333333,4,2,13,58,0,0
29241,-66.6666666666667,4,2,13,60,0,0
29365,-66.6666666666667,4,2,13,5,0,0
29489,-66.6666666666667,4,2,13,62,0,0
29613,-66.6666666666667,4,2,13,5,0,0
32216,-100,4,2,10,72,0,0
33208,-100,4,2,12,62,0,0
34200,-100,4,2,12,42,0,0
35192,-100,4,2,12,22,0,0
35688,-100,4,2,12,5,0,0

[Colours]
Combo1 : 253,198,179
Combo2 : 128,200,227
Combo3 : 128,143,221
Combo4 : 150,226,252
Combo5 : 128,128,249

[HitObjects]
7,198,2092,6,0,P|50:329|276:305,1,397.6,2|0,0:0|0:0,0:0:0:0:
294,233,3952,6,0,B|288:199|288:199|285:183|301:144|351:156|358:188|358:188|385:347|385:347|390:380|428:390|462:371|455:332|455:332|445:270,1,454.4,8|4,0:3|0:1,0:0:0:0:
24,35,7919,6,0,L|48:140,1,99.3999969665528,4|0,3:1|0:0,0:0:0:0:
115,103,8167,6,0,L|100:40,1,63.8999980499268,6|0,3:2|0:0,0:0:0:0:
23,249,8663,5,2,0:0:0:0:
45,245,8787,1,2,0:0:0:0:
17,323,8911,6,0,B|15:354|15:354|97:335|97:335|77:297,1,142,2|0,0:0|0:0,0:0:0:0:
29,232,9283,6,0,L|60:369,1,142,2|0,0:0|0:0,0:0:0:0:
170,321,9654,6,0,L|152:242,1,71,2|0,0:0|0:0,0:0:0:0:
24,35,9902,6,1,P|46:79|107:89,1,106.500004062653,4|0,3:1|0:0,0:0:0:0:
198,10,10150,6,0,P|173:35|181:79,1,63.8999980499268,4|2,3:2|3:2,0:0:0:0:
494,253,10646,6,0,L|483:321,1,63.8999980499268,2|0,0:0|0:0,0:0:0:0:
310,222,10894,6,0,B|305:183|305:183|307:174|317:161|335:158|335:158|356:156|369:163|373:172|373:172|379:210,1,159.750006093979,2|0,0:0|0:0,0:0:0:0:
385,225,11390,2,0,B|422:228|452:193|441:169|441:180|429:158|460:124|501:138,1,159.750006093979,2|0,0:0|0:0,0:0:0:0:
349,0,11886,6,0,L|244:24,1,99.3999969665528,4|0,3:1|0:0,0:0:0:0:
285,89,12134,6,1,L|348:74,1,63.8999980499268,6|0,3:2|0:0,0:0:0:0:
391,235,12630,5,2,0:0:0:0:
372,239,12754,1,2,0:0:0:0:
294,264,12878,6,0,P|321:319|391:320,1,127.799996099854,2|0,0:0|0:0,0:0:0:0:
506,302,13249,6,0,B|554:311|520:254|464:289|473:365,1,127.799996099854,2|0,0:0|0:0,0:0:0:0:
404,381,13621,6,0,B|400:349|400:349|402:347|402:347|398:310,1,63.8999980499268,2|0,0:0|0:0,0:0:0:0:
436,95,13869,6,0,B|443:31|373:-16|295:23|322:101|367:96,1,223.650006611967,4|0,3:1|0:0,0:0:0:0:
502,130,14241,2,1,B|414:101|398:174|407:163|396:219|305:214,1,223.650006611967,2|0,3:2|0:0,0:0:0:0:
400,247,14613,2,0,B|368:254|352:227|357:225|340:195|304:208,1,111.825003305984,2|0,3:2|0:0,0:0:0:0:
468,199,14861,5,8,0:0:0:0:
240,48,15109,6,0,P|212:50|184:57,2,55.9125016529918,8|8|8,0:0|0:0|0:0,0:0:0:0:
304,11,15357,5,8,0:0:0:0:
343,54,15481,1,8,0:3:0:0:
322,106,15605,1,0,3:2:0:0:
252,122,15729,1,8,0:3:0:0:
143,2,15853,6,0,P|180:121|193:235,1,223.650006611967,4|4,3:2|0:3,0:0:0:0:
139,294,16225,1,0,0:0:0:0:
128,307,16349,2,0,P|173:310|207:334,1,88.75,8|0,0:0|0:0,0:0:0:0:
373,379,16597,5,6,0:3:0:0:
376,365,16721,1,2,0:0:0:0:
339,261,16845,2,0,B|321:374|321:374|399:351|399:351|406:350|406:350|409:348|409:348|448:338,1,223.650006611967,2|12,3:2|3:0,0:0:0:0:
496,324,17216,1,10,0:3:0:0:
510,314,17340,6,0,L|271:285,1,223.650006611967,8|6,0:0|0:3,0:0:0:0:
109,254,17836,6,0,B|206:205|147:302|291:274|292:169|150:120|196:244,1,248.500002369881,2|4,3:2|0:3,0:0:0:0:
188,215,18208,1,10,0:3:0:0:
188,215,18332,2,0,L|164:76,1,124.25000118494,8|0,0:0|0:0,0:0:0:0:
88,85,18580,6,0,L|103:172,1,88.75,6|0,0:3|0:0,0:0:0:0:
182,215,18828,6,0,B|279:166|220:263|364:235|365:130|223:81|269:205,1,248.500002369881,2|10,3:2|0:3,0:0:0:0:
113,235,19324,6,1,L|102:172,1,63.8999980499268,10|0,0:0|0:0,0:0:0:0:
177,292,19572,6,0,L|188:355,1,63.8999980499268,2|2,0:0|0:0,0:0:0:0:
281,374,19820,6,0,P|168:317|-38:298,2,298.199990899658,4|2|2,3:1|0:0|3:2,0:0:0:0:
399,237,20688,1,2,3:2:0:0:
389,228,20811,6,0,B|357:234|357:234|334:237|312:274|337:309|367:312|367:312|396:312|410:335|409:361|390:365|390:365|378:366|376:383,1,248.500002369881,14|0,3:2|0:0,0:0:0:0:
355,378,21183,6,0,L|514:352,1,159.750006093979,2|2,0:0|0:0,0:0:0:0:
169,30,21803,6,0,L|191:122,1,88.75,8|0,0:0|0:0,0:0:0:0:
85,8,22051,2,0,L|107:100,1,88.75,8|0,0:0|0:0,0:0:0:0:
299,84,22299,6,1,L|270:203,1,111.825003305984,10|0,3:0|0:0,0:0:0:0:
387,50,22547,2,1,L|358:169,1,111.825003305984,10|8,3:0|0:0,0:0:0:0:
253,376,22795,6,1,P|201:364|185:314,1,111.825003305984,10|0,3:0|0:0,0:0:0:0:
350,382,23043,2,1,L|463:363,1,111.825003305984,10|8,3:0|3:3,0:0:0:0:
402,250,23291,6,1,L|512:231,1,111.825003305984,10|8,3:0|0:3,0:0:0:0:
322,260,23539,1,10,3:2:0:0:
42,46,23787,6,0,L|63:168,1,106.500004062653,6|0,3:2|0:0,0:0:0:0:
42,162,24159,6,0,B|97:208|160:179|157:122|146:149|157:81|213:64|264:108,1,266.25,2|2,0:0|0:0,0:0:0:0:
306,99,24902,2,0,B|248:108|235:68|245:67|225:15|161:36,1,159.750006093979,2|2,0:0|0:0,0:0:0:0:
174,33,25522,1,2,0:0:0:0:
427,11,25770,5,2,0:0:0:0:
427,11,26142,2,0,L|406:133,1,106.500004062653,2|0,0:0|0:0,0:0:0:0:
406,133,26514,6,0,B|376:110|315:152|324:220|428:255|484:191|478:126,1,266.25,2|2,0:0|0:0,0:0:0:0:
427,11,27258,2,0,L|411:99,1,88.75,8|0,0:0|0:0,0:0:0:0:
389,222,27506,1,8,0:0:0:0:
386,236,27630,1,0,0:0:0:0:
382,255,27754,6,0,P|311:283|335:309,1,142,4|0,3:1|0:0,0:0:0:0:
340,321,28126,6,0,P|377:377|448:323,1,177.5,2|0,0:0|0:0,0:0:0:0:
512,231,28497,6,0,L|167:261,1,319.500012187958,12|2,0:2|0:0,0:0:0:0:
72,241,29241,6,0,P|66:275|91:305,1,53.2500020313264,2|0,0:0|0:0,0:0:0:0:
194,259,29489,2,0,L|141:264,1,53.2500020313264,2|0,0:0|0:0,0:0:0:0:
261,27,32216,6,1,B|1:68|1:68|153:372|153:372|451:321|451:321|479:226,1,994,4|0,3:2|0:0,0:0:0:0:
