osu file format v14

[General]
AudioFilename: audio.mp3
AudioLeadIn: 0
PreviewTime: 31205
Countdown: 0
SampleSet: Soft
StackLeniency: 0.7
Mode: 3
LetterboxInBreaks: 0
SpecialStyle: 0
WidescreenStoryboard: 1

[Editor]
DistanceSpacing: 1
BeatDivisor: 8
GridSize: 4
TimelineZoom: 2.899999

[Metadata]
Title:Qilin's Prance
TitleUnicode:麟躍幽岩
Artist:Yu-Peng Chen @HOYO-MiX
ArtistUnicode:Yu-Peng Chen @HOYO-MiX
Creator:SuzumeAyase
Version:Normal
Source:Genshin Impact
Tags:Gānyǔ Ganyu Theme 麟躍幽岩 甘雨 原神 The Stellar Moments Mihoyo Cryo OST Liyue Qixing video game instrumental gacha cocogoat adeptus soundtrack kanon matsubara
BeatmapID:3019192
BeatmapSetID:1470543

[Difficulty]
HPDrainRate:7.5
CircleSize:4
OverallDifficulty:7.5
ApproachRate:5
SliderMultiplier:1.4
SliderTickRate:1

[Events]
//Background and Video events
0,0,"ganyu wangy wangy.jpg",0,0
//Break Periods
//Storyboard Layer 0 (Background)
//Storyboard Layer 1 (Fail)
//Storyboard Layer 2 (Pass)
//Storyboard Layer 3 (Foreground)
//Storyboard Layer 4 (Overlay)
//Storyboard Sound Samples
Sample,2403,0,"D6_ss.wav",45
Sample,2442,0,"E6_ss.wav",45
Sample,5373,0,"D5_s.wav",50
Sample,14675,0,"G5_s.wav",50
Sample,14839,0,"F6_s.wav",50
Sample,17908,0,"G5.wav",50
Sample,21095,0,"D6_s.wav",100
Sample,26335,0,"E5_s.wav",85
Sample,26725,0,"E5_s.wav",85
Sample,27504,0,"G5_s.wav",90
Sample,27893,0,"G5_s.wav",90
Sample,28283,0,"E5_s.wav",85
Sample,28673,0,"C5_s.wav",85
Sample,28867,0,"D5_s.wav",85
Sample,28965,0,"Snare2.wav",20
Sample,29160,0,"Snare2.wav",20
Sample,29257,0,"D5_s.wav",85
Sample,29354,0,"Snare2.wav",25
Sample,29452,0,"E5_s.wav",100
Sample,29549,0,"Snare2.wav",25
Sample,29744,0,"Snare2.wav",30
Sample,29841,0,"E5_s.wav",100
Sample,29939,0,"Snare2.wav",30
Sample,30036,0,"F5_s.wav",100
Sample,30134,0,"Snare2.wav",35
Sample,30328,0,"Snare2.wav",35
Sample,30426,0,"F5_s.wav",100
Sample,30523,0,"Snare2.wav",45
Sample,33932,0,"A6_s.wav",100
Sample,34712,0,"E6.wav",100
Sample,35101,0,"A5.wav",100
Sample,38218,0,"G6.wav",100
Sample,40166,0,"A6_s.wav",100
Sample,40945,0,"E6.wav",100
Sample,41335,0,"E6.wav",100
Sample,43673,0,"D7.wav",100
Sample,44062,0,"C7.wav",100
Sample,44452,0,"A6.wav",100
Sample,48348,0,"E6.wav",100
Sample,49906,0,"D6.wav",100
Sample,52293,0,"A5_s.wav",60
Sample,52341,0,"A#5_ss.wav",60
Sample,58379,0,"Wood.wav",45
Sample,58498,0,"Wood.wav",45
Sample,58626,0,"Wood.wav",45
Sample,58754,0,"Wood.wav",45
Sample,58920,0,"Wood.wav",45
Sample,59139,0,"Wood.wav",40
Sample,59432,0,"Wood.wav",30
Sample,60008,0,"Wood.wav",10
Sample,65685,0,"E5_s.wav",80
Sample,66075,0,"C5_s.wav",80
Sample,68802,0,"E5_s.wav",80
Sample,69191,0,"C5_s.wav",80
Sample,69484,0,"Snare2.wav",30
Sample,69678,0,"Snare2.wav",30
Sample,69776,0,"D6_s.wav",100
Sample,69873,0,"Snare2.wav",35
Sample,70068,0,"Snare2.wav",35
Sample,70263,0,"Snare2.wav",40
Sample,70360,0,"E6_s.wav",100
Sample,70458,0,"Snare2.wav",40
Sample,70653,0,"Snare2.wav",45
Sample,70847,0,"Snare2.wav",45
Sample,71042,0,"Snare2.wav",50
Sample,71334,0,"Ganyu voice.ogg",60
Sample,91838,0,"F5_ss.wav",50
Sample,91886,0,"E5_ss.wav",50

[TimingPoints]
820,794.701986754967,4,2,1,20,1,8
820,-49.0196078431373,4,2,1,20,0,8
1614,674.157303370787,4,2,1,20,1,8
1614,-57.8034682080925,4,2,1,20,0,8
2288,616.966580976864,4,2,1,20,1,8
2288,-63.2911392405063,4,2,1,20,0,8
2493,714.285714285714,4,2,1,20,1,0
2493,-54.6448087431694,4,2,1,20,0,0
3564,869.565217391304,4,2,1,20,1,8
3564,-44.8430493273543,4,2,1,20,0,8
3998,710.059171597633,4,2,1,20,1,8
3998,-54.9450549450549,4,2,1,20,0,8
5418,888.888888888889,4,2,1,20,1,0
5418,-43.859649122807,4,2,1,20,0,0
6306,774.193548387097,4,2,1,20,1,8
6306,-50.251256281407,4,2,1,20,0,8
7854,808.080808080808,4,2,1,20,1,8
7854,-48.3091787439614,4,2,1,20,0,8
8662,740.740740740741,4,2,1,20,1,0
8662,-52.6315789473684,4,2,1,20,0,0
9773,882.352941176471,4,2,1,20,1,8
9773,-44.2477876106195,4,2,1,20,0,8
10214,761.904761904762,4,2,1,20,1,8
10214,-51.0204081632653,4,2,1,20,0,8
11737,779.220779220779,4,2,1,20,1,0
11737,-50,4,2,1,20,0,0
12905,750,4,2,1,20,1,8
12905,-51.8134715025907,4,2,1,20,0,8
13280,764.331210191083,4,2,1,20,1,8
13280,-51.0204081632653,4,2,1,20,0,8
14044,631.578947368421,4,2,1,20,1,8
14044,-61.7283950617284,4,2,1,20,0,8
14675,659.340659340659,4,2,1,20,1,8
14675,-59.1715976331361,4,2,1,20,0,8
14894,779.220779220779,4,2,1,20,1,0
14894,-50,4,2,1,20,0,0
15997,784.313725490196,4,2,1,20,1,0
15997,-49.7512437810945,4,2,1,20,0,0
21095,833.333333333333,4,2,1,20,1,0
21095,-46.7289719626168,4,2,1,20,0,0
24428,882.352941176471,4,2,1,35,1,0
24428,-44.2477876106195,4,2,1,35,0,0
25751,389.61038961039,4,2,1,65,1,0
25751,-100,4,2,1,65,0,0
28867,-100,4,2,1,70,0,0
31984,-100,4,2,1,80,0,1
44452,-100,4,2,1,60,0,0
47569,-100,4,2,1,70,0,0
50686,-100,4,2,1,40,0,0
53802,779.220779220779,4,2,1,35,1,0
53802,-50,4,2,1,35,0,0
58379,714.285714285714,4,2,1,30,1,0
58379,-54.6448087431694,4,2,1,30,0,0
58498,769.230769230769,4,2,1,30,1,0
58498,-50.761421319797,4,2,1,30,0,0
58754,1000,4,2,1,30,1,0
58754,-38.9105058365759,4,2,1,30,0,0
58920,769.230769230769,4,2,1,30,1,0
58920,-50.761421319797,4,2,1,30,0,0
59432,869.565217391304,4,2,1,30,1,0
59432,-44.8430493273543,4,2,1,30,0,0
59721,861.450107681263,4,2,1,30,1,0
59721,-45.2488687782805,4,2,1,30,0,0
63153,389.61038961039,4,2,1,40,1,0
63153,-100,4,2,1,40,0,0
69386,-100,4,2,1,50,0,0
72503,-100,4,2,1,80,0,1
84971,-100,4,2,1,60,0,0
88088,-100,4,2,1,40,0,0

[HitObjects]
64,192,820,5,0,0:0:0:70:D6.wav
192,192,1614,1,0,0:0:0:70:F6.wav
320,192,2288,1,0,0:0:0:40:D5_s.wav
448,192,2493,1,0,0:0:0:70:G6.wav
320,192,3564,1,0,0:0:0:90:A6.wav
192,192,3998,1,0,0:0:0:90:G6.wav
64,192,5418,1,0,0:0:0:60:E5.wav
192,192,6306,1,0,0:0:0:100:A6.wav
320,192,6693,1,0,0:0:0:100:G6.wav
448,192,7080,1,0,0:0:0:100:F6.wav
320,192,7854,1,0,0:0:0:100:E6.wav
192,192,8662,1,0,0:0:0:70:A5.wav
64,192,9773,1,0,0:0:0:100:E6.wav
64,192,10214,1,0,0:0:0:100:E6.wav
448,192,11737,1,0,0:0:0:60:D4.wav
320,192,12126,1,0,0:0:0:60:A4.wav
192,192,12516,1,0,0:0:0:60:E5.wav
64,192,12905,1,0,0:0:0:60:F5.wav
320,192,13280,128,0,14044:0:0:0:100:D6.wav
448,192,14044,128,0,14894:0:0:0:100:F6.wav
64,192,14894,128,0,15997:0:0:0:100:G6.wav
320,192,15997,128,0,16389:0:0:0:100:A6.wav
64,192,16389,128,0,17827:0:0:0:100:G6.wav
192,192,17827,1,0,0:0:0:45:G4_s.wav
448,192,18742,128,0,19134:0:0:0:100:A6.wav
320,192,19134,128,0,19526:0:0:0:100:G6.wav
192,192,19526,128,0,20310:0:0:0:100:E6.wav
64,192,20702,128,0,21095:0:0:0:100:C6.wav
192,192,21095,1,0,0:0:0:50:D4_s.wav
320,192,21303,1,0,0:0:0:100:C6_s.wav
448,192,21511,128,0,24428:0:0:0:100:D6.wav
192,192,24428,1,0,0:0:0:0:
320,192,24648,1,0,0:0:0:0:
192,192,24869,128,0,25751:0:0:0:0:
320,192,25751,1,2,0:0:0:0:
448,192,25751,1,0,0:0:0:85:D5_s.wav
64,192,26140,1,2,0:0:0:0:
192,192,26140,1,0,0:0:0:85:D5_s.wav
320,192,26530,1,2,0:0:0:0:
448,192,26530,1,0,0:0:0:0:
64,192,26919,1,2,0:0:0:0:
192,192,26919,1,0,0:0:0:85:F5_s.wav
64,192,27309,1,2,0:0:0:0:
448,192,27309,1,0,0:0:0:85:F5_s.wav
192,192,27699,1,2,0:0:0:0:
320,192,27699,1,0,0:0:0:0:
64,192,28088,1,2,0:0:0:0:
448,192,28088,1,0,0:0:0:85:F5_s.wav
192,192,28478,1,2,0:0:0:0:
320,192,28478,1,0,0:0:0:85:D5_s.wav
64,192,28867,1,2,0:0:0:0:
192,192,28867,1,0,0:0:0:20:Snare2.wav
448,192,29062,1,0,0:0:0:20:Snare2.wav
192,192,29257,1,2,0:0:0:0:
320,192,29257,1,0,0:0:0:25:Snare2.wav
64,192,29452,1,0,0:0:0:25:Snare2.wav
320,192,29647,1,2,0:0:0:0:
448,192,29647,1,0,0:0:0:30:Snare2.wav
64,192,29841,1,0,0:0:0:30:Snare2.wav
192,192,30036,1,2,0:0:0:0:
320,192,30036,1,0,0:0:0:35:Snare2.wav
448,192,30231,1,0,0:0:0:35:Snare2.wav
64,192,30426,1,2,0:0:0:0:
192,192,30426,1,0,0:0:0:40:Snare2.wav
320,192,30621,1,0,0:0:0:50:Snare2.wav
448,192,30621,1,0,0:0:0:100:G5_s.wav
192,192,31205,1,0,0:0:0:100:D6.wav
320,192,31595,1,0,0:0:0:100:F6.wav
64,192,31984,1,6,0:0:0:0:
192,192,31984,1,0,0:0:0:100:G6.wav
448,192,32374,1,2,0:0:0:0:
192,192,32569,1,0,0:0:0:100:A6.wav
320,192,32763,1,2,0:0:0:0:
448,192,32763,1,0,0:0:0:100:G6.wav
64,192,33153,1,2,0:0:0:0:
320,192,33348,1,0,0:0:0:0:
64,192,33543,1,2,0:0:0:0:
192,192,33543,1,0,0:0:0:50:G5.wav
320,192,33932,1,2,0:0:0:0:
192,192,34127,1,0,0:0:0:100:G6_s.wav
64,192,34322,1,2,0:0:0:0:
448,192,34322,1,0,0:0:0:100:F6.wav
192,192,34712,1,2,0:0:0:0:
320,192,34906,1,0,0:0:0:0:
64,192,35101,1,2,0:0:0:0:
448,192,35101,1,0,0:0:0:50:SnareClap.wav
192,192,35491,1,2,0:0:0:0:
320,192,35686,1,0,0:0:0:100:E6_s.wav
64,192,35880,1,2,0:0:0:0:
192,192,35880,1,0,0:0:0:100:E6.wav
320,192,36270,1,2,0:0:0:0:
192,192,36465,1,0,0:0:0:0:
320,192,36660,1,2,0:0:0:0:
448,192,36660,1,0,0:0:0:50:SnareClap.wav
64,192,37049,1,2,0:0:0:0:
320,192,37244,1,0,0:0:0:0:
64,192,37439,1,2,0:0:0:0:
192,192,37439,1,0,0:0:0:100:D6.wav
448,192,37634,1,0,0:0:0:0:
192,192,37828,1,2,0:0:0:0:
320,192,37828,1,0,0:0:0:100:F6.wav
64,192,38023,1,0,0:0:0:0:
192,192,38218,1,2,0:0:0:0:
448,192,38218,1,0,0:0:0:50:SnareClap.wav
320,192,38608,1,2,0:0:0:0:
192,192,38802,1,0,0:0:0:100:A6_s.wav
64,192,38997,1,2,0:0:0:0:
320,192,38997,1,0,0:0:0:100:G6.wav
192,192,39387,1,2,0:0:0:0:
320,192,39582,1,0,0:0:0:0:
192,192,39776,1,2,0:0:0:0:
448,192,39776,1,0,0:0:0:50:SnareClap.wav
320,192,40166,1,2,0:0:0:0:
192,192,40361,1,0,0:0:0:100:G6_s.wav
64,192,40556,1,2,0:0:0:0:
448,192,40556,1,0,0:0:0:100:F6.wav
192,192,40945,1,2,0:0:0:0:
320,192,41140,1,0,0:0:0:0:
64,192,41335,1,2,0:0:0:0:
448,192,41335,1,0,0:0:0:50:SnareClap.wav
192,192,41725,1,2,0:0:0:0:
320,192,41919,1,0,0:0:0:100:C7_s.wav
64,192,42114,1,2,0:0:0:0:
192,192,42114,1,0,0:0:0:100:C7.wav
320,192,42504,1,2,0:0:0:0:
192,192,42699,1,0,0:0:0:0:
320,192,42893,1,2,0:0:0:0:
448,192,42893,128,0,43283:0:0:0:50:SnareClap.wav
192,192,43283,128,2,43673:0:0:0:0:
320,192,43673,128,2,44062:0:0:0:0:
64,192,44062,128,2,44452:0:0:0:0:
192,192,44452,1,4,0:0:0:0:
448,192,44452,128,0,45036:0:0:0:50:SnareClap.wav
320,192,45036,128,0,45426:0:0:0:100:D6_s.wav
64,192,45426,128,0,46400:0:0:0:100:A6.wav
448,192,46010,1,0,0:0:0:100:E6.wav
192,192,46400,128,0,46595:0:0:0:100:G6_s.wav
320,192,46595,128,0,46789:0:0:0:100:F6_s.wav
448,192,46789,128,0,47179:0:0:0:100:E6.wav
64,192,47179,128,0,47569:0:0:0:100:C6.wav
192,192,47569,1,2,0:0:0:0:
320,192,47569,1,0,0:0:0:85:A5.wav
448,192,47958,1,2,0:0:0:0:
320,192,48153,1,0,0:0:0:100:E6_s.wav
64,192,48348,1,2,0:0:0:0:
192,192,48348,1,0,0:0:0:50:SnareClap.wav
64,192,48738,1,2,0:0:0:0:
192,192,48932,1,0,0:0:0:0:
320,192,49127,1,6,0:0:0:0:
448,192,49127,128,0,49906:0:0:0:80:A6.wav
64,192,49906,1,2,0:0:0:0:
192,192,49906,128,0,50296:0:0:0:50:SnareClap.wav
320,192,50296,128,0,50686:0:0:0:100:F6.wav
64,192,50686,128,0,51465:0:0:0:100:G6.wav
192,192,51465,128,0,51757:0:0:0:100:A6.wav
320,192,51757,128,0,52244:0:0:0:100:G6.wav
64,192,52244,1,0,0:0:0:60:G5_ss.wav
448,192,52390,128,0,53802:0:0:0:60:D6_ss.wav
64,192,53802,1,0,0:0:0:45:C5_s.wav
192,192,53802,1,0,0:0:0:50:E5.wav
320,192,54581,1,0,0:0:0:100:A6.wav
192,192,54970,1,0,0:0:0:100:G6.wav
64,192,55360,1,0,0:0:0:100:E6.wav
192,192,56529,1,0,0:0:0:100:C6.wav
320,192,56918,128,0,58379:0:0:0:100:D6.wav
64,192,59721,1,0,0:0:0:50:Wood2.wav
192,192,59721,1,0,0:0:0:20:Wood.wav
448,192,63153,1,0,0:0:0:60:D5_s.wav
192,192,63542,1,0,0:0:0:60:D5_s.wav
320,192,63737,1,0,0:0:0:60:E5_s.wav
64,192,64127,1,0,0:0:0:60:E5_s.wav
448,192,64321,1,0,0:0:0:60:F5_s.wav
320,192,64711,1,0,0:0:0:60:F5_s.wav
192,192,64906,1,0,0:0:0:60:G5_s.wav
448,192,65295,1,0,0:0:0:60:G5_s.wav
64,192,65490,128,0,65880:0:0:0:80:F5_s.wav
320,192,65880,128,0,66269:0:0:0:80:D5_s.wav
64,192,66269,1,0,0:0:0:60:D5_s.wav
192,192,66269,1,0,0:0:0:0:
448,192,66659,1,0,0:0:0:60:D5_s.wav
320,192,66854,1,0,0:0:0:60:E5_s.wav
192,192,67243,1,0,0:0:0:60:E5_s.wav
448,192,67438,1,0,0:0:0:60:F5_s.wav
64,192,67828,1,0,0:0:0:60:F5_s.wav
320,192,68023,1,0,0:0:0:80:G5_s.wav
192,192,68412,1,0,0:0:0:80:G5_s.wav
448,192,68607,128,0,68997:0:0:0:80:F5_s.wav
64,192,68997,128,0,69386:0:0:0:80:D5_s.wav
320,192,69386,1,0,0:0:0:30:Snare2.wav
448,192,69386,1,0,0:0:0:100:D6_s.wav
192,192,69581,1,0,0:0:0:30:Snare2.wav
320,192,69776,1,0,0:0:0:35:Snare2.wav
64,192,69971,1,0,0:0:0:35:Snare2.wav
192,192,69971,1,0,0:0:0:100:E6_s.wav
448,192,70165,1,0,0:0:0:40:Snare2.wav
320,192,70360,1,0,0:0:0:40:Snare2.wav
64,192,70555,1,0,0:0:0:45:Snare2.wav
448,192,70555,1,0,0:0:0:100:F6_s.wav
192,192,70750,1,0,0:0:0:45:Snare2.wav
320,192,70945,1,0,0:0:0:50:Snare2.wav
448,192,70945,1,0,0:0:0:100:F6_s.wav
64,192,71140,1,0,0:0:0:50:Snare2.wav
192,192,71140,1,0,0:0:0:100:G6_s.wav
320,192,71724,128,0,72114:0:0:0:100:D6.wav
192,192,72114,128,0,72503:0:0:0:100:F6.wav
320,192,72503,1,6,0:0:0:0:
448,192,72503,1,0,0:0:0:100:G6.wav
64,192,72893,1,8,0:0:0:0:
192,192,72893,1,0,0:0:0:0:
320,192,73088,1,0,0:0:0:100:A6_s.wav
64,192,73282,1,2,0:0:0:0:
192,192,73282,1,0,0:0:0:100:G6.wav
320,192,73672,1,8,0:0:0:0:
448,192,73672,1,0,0:0:0:0:
192,192,73867,1,0,0:0:0:0:
320,192,74062,1,2,0:0:0:0:
448,192,74062,1,0,0:0:0:50:G5.wav
64,192,74451,1,8,0:0:0:0:
192,192,74451,1,0,0:0:0:100:A6_s.wav
320,192,74646,1,0,0:0:0:100:G6_s.wav
64,192,74841,1,2,0:0:0:0:
448,192,74841,1,0,0:0:0:100:F6.wav
64,192,75230,1,8,0:0:0:0:
448,192,75230,1,0,0:0:0:100:E6.wav
192,192,75425,1,0,0:0:0:0:
320,192,75620,1,2,0:0:0:0:
448,192,75620,1,0,0:0:0:60:A5.wav
64,192,76010,1,8,0:0:0:0:
320,192,76010,1,0,0:0:0:0:
192,192,76204,1,0,0:0:0:100:E6_s.wav
64,192,76399,128,2,76789:0:0:0:0:
320,192,76399,1,0,0:0:0:100:E6.wav
192,192,76789,1,8,0:0:0:0:
448,192,76789,128,0,77178:0:0:0:0:
64,192,77178,1,2,0:0:0:0:
320,192,77178,128,0,77568:0:0:0:0:
192,192,77568,1,8,0:0:0:0:
448,192,77568,1,0,0:0:0:0:
320,192,77763,1,0,0:0:0:0:
64,192,77958,1,2,0:0:0:0:
448,192,77958,1,0,0:0:0:100:D6.wav
64,192,78347,1,8,0:0:0:0:
320,192,78347,1,0,0:0:0:100:F6.wav
192,192,78737,1,2,0:0:0:0:
448,192,78737,1,0,0:0:0:100:G6.wav
320,192,79127,1,8,0:0:0:0:
448,192,79127,1,0,0:0:0:0:
192,192,79321,1,0,0:0:0:100:A6_s.wav
64,192,79516,1,2,0:0:0:0:
320,192,79516,1,0,0:0:0:100:G6.wav
64,192,79906,1,8,0:0:0:0:
192,192,79906,1,0,0:0:0:0:
320,192,80101,1,0,0:0:0:0:
192,192,80295,1,2,0:0:0:0:
448,192,80295,1,0,0:0:0:60:A5.wav
320,192,80685,1,8,0:0:0:0:
448,192,80685,1,0,0:0:0:100:A6.wav
64,192,80880,1,0,0:0:0:100:G6.wav
192,192,81075,1,2,0:0:0:0:
320,192,81075,1,0,0:0:0:100:F6.wav
64,192,81464,1,8,0:0:0:0:
192,192,81464,1,0,0:0:0:100:E6.wav
448,192,81659,1,0,0:0:0:0:
192,192,81854,1,2,0:0:0:0:
320,192,81854,1,0,0:0:0:100:E6.wav
320,192,82243,1,8,0:0:0:0:
448,192,82243,1,0,0:0:0:0:
192,192,82438,1,0,0:0:0:100:C7_s.wav
64,192,82633,1,2,0:0:0:0:
448,192,82633,128,0,83023:0:0:0:100:C7.wav
192,192,83023,1,8,0:0:0:0:
320,192,83023,128,0,83412:0:0:0:0:
64,192,83412,128,2,83802:0:0:0:0:
448,192,83412,1,0,0:0:0:60:C6.wav
192,192,83802,1,8,0:0:0:0:
320,192,83802,1,0,0:0:0:0:
448,192,83997,1,0,0:0:0:0:
64,192,84191,128,2,84581:0:0:0:0:
192,192,84191,1,0,0:0:0:100:D7.wav
320,192,84581,1,8,0:0:0:0:
448,192,84581,128,0,84971:0:0:0:100:C7.wav
64,192,84971,128,4,85555:0:0:0:0:
192,192,84971,1,0,0:0:0:100:A6.wav
448,192,85555,1,0,0:0:0:100:D6_s.wav
320,192,85750,128,0,86529:0:0:0:100:A6.wav
64,192,86529,128,0,86919:0:0:0:60:D6.wav
192,192,86529,1,0,0:0:0:0:
448,192,86919,1,0,0:0:0:100:G6_s.wav
320,192,87114,1,0,0:0:0:100:F6_s.wav
192,192,87308,128,0,87698:0:0:0:100:E6.wav
448,192,87698,128,0,88088:0:0:0:100:C6.wav
64,192,88088,1,0,0:0:0:85:Wood3.wav
192,192,88088,1,0,0:0:0:100:D6.wav
320,192,88282,1,0,0:0:0:100:A6_s.wav
192,192,88477,1,0,0:0:0:100:G6_s.wav
448,192,88672,1,0,0:0:0:100:C7_s.wav
64,192,88867,1,0,0:0:0:100:A6_s.wav
192,192,89062,1,0,0:0:0:100:F6_s.wav
320,192,89256,1,0,0:0:0:100:E6_s.wav
448,192,89451,1,0,0:0:0:100:G6_s.wav
192,192,89841,1,0,0:0:0:70:C6_s.wav
320,192,90036,1,0,0:0:0:70:A5_s.wav
64,192,90230,1,0,0:0:0:80:D6_s.wav
448,192,90425,1,0,0:0:0:50:B5_s.wav
320,192,90620,1,0,0:0:0:50:G5_s.wav
192,192,90815,128,0,91643:0:0:0:45:E5_s.wav
448,192,91643,1,0,0:0:0:50:G5_s.wav
320,192,91789,1,0,0:0:0:50:F#5_ss.wav
64,192,91935,128,0,97438:0:0:0:60:E7.wav
