osu file format v14

[General]
AudioFilename: audio.mp3
AudioLeadIn: 0
PreviewTime: 31010
Countdown: 0
SampleSet: Soft
StackLeniency: 0.4
Mode: 0
LetterboxInBreaks: 0
WidescreenStoryboard: 1

[Editor]
DistanceSpacing: 1
BeatDivisor: 6
GridSize: 4
TimelineZoom: 1.7

[Metadata]
Title:Qilin's Prance
TitleUnicode:麟跃幽岩
Artist:Yu-Peng Chen @HOYO-MiX
ArtistUnicode:陈致逸 @HOYO-MiX
Creator:Shurelia
Version:Scub's Celestial Shower
Source:Genshin Impact
Tags:麟躍幽岩 甘雨 原神 Gānyǔ Ganyu Theme The Stellar Moments Mihoyo Cryo OST Liyue Qixing -Keitaro Nines ScubDomino [Keqing] video game instrumental gacha
BeatmapID:2825417
BeatmapSetID:1365911

[Difficulty]
HPDrainRate:6.2
CircleSize:4.4
OverallDifficulty:8
ApproachRate:9
SliderMultiplier:2
SliderTickRate:1

[Events]
//Background and Video events
0,0,"ganyubg.jpg",0,0
//Break Periods
2,11737,12680
2,52244,57779
//Storyboard Layer 0 (Background)
//Storyboard Layer 1 (Fail)
//Storyboard Layer 2 (Pass)
//Storyboard Layer 3 (Foreground)
//Storyboard Layer 4 (Overlay)
//Storyboard Sound Samples
Sample,50686,0,"audio/voc0.mp3",75
Sample,70945,0,"audio/voc1.mp3",75

[TimingPoints]
820,794.701986754967,4,2,1,22,1,8
1614,674.157303370787,4,2,1,22,1,8
2288,616.966580976864,4,2,1,22,1,8
2493,714.285714285714,4,2,1,22,1,0
3564,869.565217391304,4,2,1,22,1,8
3998,710.059171597633,4,2,1,22,1,8
5418,888.888888888889,4,2,1,22,1,0
6306,774.193548387097,4,2,1,22,1,8
7854,808.080808080808,4,2,1,22,1,8
8662,740.740740740741,4,2,1,22,1,0
9773,882.352941176471,4,2,1,22,1,8
10214,761.904761904762,4,2,1,22,1,8
11737,779.220779220779,4,2,1,22,1,0
12905,750,4,2,1,22,1,8
13280,764.331210191083,4,2,1,22,1,8
13280,-100,4,2,1,37,0,0
14044,631.578947368421,4,2,1,27,1,8
14675,659.340659340659,4,2,1,27,1,8
14894,779.220779220779,4,2,1,27,1,0
14894,-71.4285714285714,4,2,1,37,0,0
15997,784.313725490196,4,2,1,27,1,0
16389,-100,4,2,1,37,0,0
21095,833.333333333333,4,2,1,27,1,0
21511,-166.666666666667,4,2,1,37,0,0
25678,-166.666666666667,4,2,1,5,0,0
25751,389.61038961039,4,2,1,43,1,0
28088,-200,4,2,1,43,0,0
30426,-66.6666666666667,4,2,1,43,0,0
31205,-153.846153846153,4,2,1,43,0,0
31984,-100,4,2,1,53,0,0
35880,-75.000001875,4,2,1,53,0,0
36270,-83.3333333333333,4,2,1,53,0,0
37439,-90.9090909090909,4,2,1,53,0,0
38218,-100,4,2,1,53,0,0
42114,-76.9230769230769,4,2,1,53,0,0
44062,-76.9230769230769,4,2,1,50,0,0
44452,-100,4,2,1,43,0,0
47569,-100,4,2,1,53,0,0
49906,-133.333333333333,4,2,1,53,0,0
52244,-133.333333333333,4,2,1,33,0,0
53802,779.220779220779,4,2,1,22,1,0
58379,714.285714285714,4,2,1,20,1,0
58379,-66.6666666666667,4,2,1,37,0,0
58498,769.230769230769,4,2,1,25,1,0
58626,-66.6666666666667,4,2,1,25,0,0
58754,1000,4,2,1,30,1,0
58920,769.230769230769,4,2,1,40,1,0
58920,-66.6666666666667,4,2,1,40,0,0
59432,869.565217391304,4,2,1,20,1,0
59432,-66.6666666666667,4,2,1,20,0,0
59721,861.450107681263,4,2,1,40,1,0
63153,389.61038961039,4,2,1,27,1,0
63153,-222.222222222221,4,2,1,27,0,0
66269,-222.222222222221,4,2,1,37,0,0
69386,-222.222222222221,4,2,1,43,0,0
70847,-66.6666666666667,4,2,1,43,0,0
71627,-100,4,2,1,43,0,0
72503,-66.6666666666667,4,2,1,57,0,0
73672,-100,4,2,1,57,0,0
75230,-66.6666666666667,4,2,1,57,0,0
75620,-55.5555555555556,4,2,1,57,0,0
76010,-66.6666666666667,4,2,1,57,0,0
77178,-100,4,2,1,57,0,0
78737,-66.6666666666667,4,2,1,57,0,0
79906,-100,4,2,1,57,0,0
80880,-66.6666666666667,4,2,1,57,0,0
81854,-66.6666666666667,4,2,1,57,0,0
83412,-100,4,2,1,57,0,0
84191,-66.6666666666667,4,2,1,57,0,0
84581,-100,4,2,1,57,0,0
84971,-166.666666666667,4,2,1,37,0,0
86529,-100,4,2,1,37,0,0
88672,-250,4,2,1,37,0,0
89256,-333.333333333333,4,2,1,37,0,0
89841,-500,4,2,1,37,0,0
91659,-250,4,2,1,37,0,0
91919,-256.410256410256,4,2,1,37,0,0
91984,-256.410256410256,4,2,1,27,0,0
95880,-256.410256410256,4,2,1,5,0,0

[Colours]
Combo1 : 234,203,57
Combo2 : 120,200,230
Combo3 : 204,235,56
Combo4 : 224,231,230

[HitObjects]
423,76,820,5,2,0:0:0:0:
363,32,1614,1,2,0:0:0:0:
271,60,2288,2,0,P|269:50|258:21,1,37.5
253,14,2493,5,0,0:0:0:0:
132,47,3564,1,2,0:0:0:0:
253,14,3998,1,2,0:0:0:0:
256,193,5358,2,0,L|254:213,1,16.6666666666667,2|0,0:0|0:0,0:0:0:0:
132,47,6306,5,2,0:0:0:0:
253,14,6693,1,2,0:0:0:0:
363,32,7080,1,2,0:0:0:0:
423,76,7854,1,2,0:0:0:0:
486,111,8662,5,2,0:0:0:0:
508,282,9773,1,2,0:0:0:0:
512,286,10214,1,2,0:0:0:0:
55,365,13280,6,0,B|98:386|146:315|100:243,1,150,2|0,0:0|0:0,0:0:0:0:
31,275,14044,2,0,B|-4:287|2:241|39:237|39:237|174:214,1,200,2|0,0:0|0:0,0:0:0:0:
184,214,14757,1,0,0:0:0:0:
182,214,14894,6,0,B|215:305|373:299|386:146|325:100|254:86|224:115|215:147|219:185|271:192,1,396.666654561361,2|2,0:0|0:0,0:0:0:0:
314,265,16389,2,0,B|487:224|487:224|509:221|531:255|513:283|490:300|449:275|464:244|478:267,1,300,2|0,0:0|0:0,0:0:0:0:
499,180,17957,6,0,L|491:225,1,25,2|0,0:0|0:0,0:0:0:0:
201,320,18742,6,0,P|233:275|233:238,1,75,2|0,0:0|0:0,0:0:0:0:
281,195,19134,2,0,P|265:165|246:154,1,50,2|0,0:0|0:0,0:0:0:0:
242,79,19526,2,0,B|215:56|156:57|137:84|165:133|116:161|51:149|0:76|48:30|108:27|116:72|88:91,1,300,2|2,0:0|0:0,0:0:0:0:
1,139,21095,6,0,P|11:186|15:223,1,50,2|2,0:0|0:0,0:0:0:0:
38,275,21511,2,0,B|16:302|10:320|29:400|78:349|84:308|57:235|18:187|-13:111|98:55|145:141|72:229,1,419.999987182618,2|0,0:0|0:0,0:0:0:0:
256,192,24636,12,0,25678,0:0:0:0:
27,335,25751,5,2,3:2:0:0:
135,256,25945,1,0,0:0:0:0:
211,259,26140,5,0,0:0:0:0:
133,244,26334,1,2,3:2:0:0:
57,256,26530,5,0,0:0:0:0:
135,232,26724,1,0,0:0:0:0:
256,322,26919,5,2,3:2:0:0:
138,220,27113,1,0,0:0:0:0:
240,140,27309,5,0,0:0:0:0:
234,212,27504,1,2,3:2:0:0:
124,132,27699,5,0,0:0:0:0:
246,68,27894,1,0,0:0:0:0:
358,155,28088,6,0,L|293:173,1,50,2|2,3:2|0:0,0:0:0:0:
134,34,28478,2,0,L|182:81,1,50,2|0,3:2|0:0,0:0:0:0:
300,267,28867,5,10,3:2:0:0:
300,267,28965,1,8,0:0:0:0:
300,267,29062,1,8,0:0:0:0:
300,267,29160,1,8,0:0:0:0:
300,267,29257,1,10,3:2:0:0:
300,267,29355,1,8,0:0:0:0:
296,276,29452,1,10,0:0:0:0:
294,284,29550,1,8,0:0:0:0:
295,292,29647,5,10,3:2:0:0:
300,305,29744,5,8,0:0:0:0:
312,318,29842,5,10,0:0:0:0:
335,324,29939,5,8,0:0:0:0:
367,312,30037,5,10,3:2:0:0:
387,268,30134,5,8,0:0:0:0:
383,213,30231,5,8,0:0:0:0:
358,155,30329,5,8,0:0:0:0:
300,112,30426,6,0,P|354:114|422:92,1,75.0000028610231,10|0,3:2|0:0,0:0:0:0:
512,0,30621,5,6,0:0:0:0:
174,179,31205,2,0,P|237:155|257:118,1,97.4999955368044
254,125,31595,2,0,P|285:161|332:172,1,97.4999955368044
426,114,31984,6,0,P|409:176|407:243,1,100,6|0,3:2|0:0,0:0:0:0:
407,223,32276,1,0,0:0:0:0:
439,288,32374,5,2,3:2:0:0:
240,245,32569,2,0,P|244:295|255:328,1,50
291,366,32763,6,0,B|334:400|348:354|322:280|199:284|147:380,1,250,6|0,3:2|0:0,0:0:0:0:
86,382,33348,6,0,P|67:338|65:307,1,50,8|8,0:3|0:3,0:0:0:0:
132,34,33543,1,4,3:2:0:0:
9,116,33932,5,2,3:2:0:0:
12,126,34030,1,0,0:0:0:0:
15,139,34127,2,0,L|86:149,1,50
72,245,34322,6,0,B|147:226|102:162|220:133,1,150,2|0,3:2|0:0,0:0:0:0:
241,105,34712,2,0,B|258:83|244:52|244:52|222:66|228:95,1,100,2|0,3:2|0:0,0:0:0:0:
323,23,35004,1,0,0:0:0:0:
457,59,35101,6,0,P|488:119|477:178,1,100,2|8,3:2|0:3,0:0:0:0:
486,157,35393,1,8,0:3:0:0:
512,226,35491,5,2,3:2:0:0:
414,289,35686,2,0,P|378:297|349:298,1,50
272,326,35880,2,0,B|289:310|289:310|202:322|107:373,1,200,2|0,3:2|0:0,0:0:0:0:
0,383,36270,6,0,P|48:341|87:281,1,119.999996337891,2|8,3:2|0:3,0:0:0:0:
105,225,36562,1,8,0:3:0:0:
179,237,36660,6,0,P|123:220|78:186,1,59.9999981689454,2|8,3:2|0:3,0:0:0:0:
0,116,36854,6,0,P|56:99|101:65,1,59.9999981689454,8|8,0:3|0:3,0:0:0:0:
141,20,37049,6,0,P|197:37|242:71,1,59.9999981689454,2|0,3:2|0:0,0:0:0:0:
261,72,37243,6,0,P|289:61|319:55,1,59.9999981689454,0|8,0:0|0:3,0:0:0:0:
419,106,37439,6,0,B|347:101|310:14|354:-47|382:-32|416:4|390:34|369:5,1,220.000006713867,2|2,3:2|3:2,0:0:0:0:
464,45,37926,1,0,0:0:0:0:
464,45,38023,1,0,0:0:0:0:
463,250,38218,6,0,B|452:223|471:199|471:199|509:217|519:259|512:311|469:338,1,200,6|2,3:2|3:2,0:0:0:0:
480,336,38705,1,0,0:0:0:0:
423,384,38802,1,0,0:0:0:0:
389,185,38997,6,0,B|346:243|251:231|198:154|273:131|304:201,1,200,2|2,3:2|3:2,0:0:0:0:
278,169,39582,1,0,0:0:0:0:
0,122,39776,2,0,L|80:138,2,50,2|8|8,3:2|0:3|0:3,0:0:0:0:
108,0,40166,6,0,P|117:44|121:118,1,100,2|0,3:2|0:0,0:0:0:0:
289,135,40556,2,0,P|309:76|360:-6,1,150,2|0,3:2|0:0,0:0:0:0:
502,129,40945,2,0,P|457:155|407:200,1,100,2|0,3:2|0:0,0:0:0:0:
426,313,41238,1,0,0:0:0:0:
458,384,41335,6,0,P|501:326|481:257,1,150,2|0,3:2|0:0,0:0:0:0:
473,251,41725,1,2,3:2:0:0:
305,312,41919,2,0,L|221:324,1,50
114,384,42114,6,0,B|152:359|162:310|144:264|144:264|185:274|190:356,1,194.999991073609,2|0,3:2|0:0,0:0:0:0:
126,184,42504,2,0,P|190:206|236:250,1,129.999994049073,2|8,3:2|0:3,0:0:0:0:
256,317,42796,1,8,0:3:0:0:
342,384,42893,6,0,P|354:320|360:262,1,64.9999970245363,2|8,3:2|0:3,0:0:0:0:
470,252,43088,6,0,P|458:188|452:130,1,64.9999970245363,8|8,0:3|0:3,0:0:0:0:
371,154,43283,6,0,P|383:90|389:32,1,64.9999970245363,2|8,3:2|0:3,0:0:0:0:
422,74,43478,6,0,P|410:10|404:-48,1,64.9999970245363,8|8,0:3|0:3,0:0:0:0:
294,0,43673,2,0,P|251:67|264:201,1,194.999991073609,6|0,3:2|0:0,0:0:0:0:
258,179,44062,2,0,P|265:83|218:0,1,194.999991073609,6|0,3:2|0:0,0:0:0:0:
132,121,44452,6,0,B|72:171|-1:98|17:53|76:53|105:121|97:213|-12:220,1,300,4|0,0:0|0:0,0:0:0:0:
99,22,45231,2,0,P|148:117|59:286,1,300,2|0,0:0|0:0,0:0:0:0:
4,134,46010,5,2,0:0:0:0:
135,327,46400,2,0,B|166:352|150:377|150:377|114:375|108:335,1,100
70,279,46789,6,0,P|162:294|303:333,1,200,2|0,0:0|0:0,0:0:0:0:
314,374,47569,5,2,3:2:0:0:
405,248,47763,2,0,L|469:237,1,50
512,294,47958,5,2,3:2:0:0:
421,168,48153,2,0,L|357:157,1,50
314,214,48348,5,2,3:2:0:0:
405,88,48542,2,0,L|469:77,1,50
512,134,48737,5,2,3:2:0:0:
421,8,48932,2,0,L|357:-3,1,50
221,61,49127,6,0,B|403:76|314:-4|512:14,1,300,6|0,3:2|0:0,0:0:0:0:
274,150,49906,6,0,B|215:58|96:62|44:153|122:235|175:161,1,300,2|4,0:0|0:0,0:0:0:0:
15,72,58379,6,0,L|17:121,1,50.0000019073487,8|8,0:3|0:3,0:0:0:0:
14,178,58626,6,0,L|19:112,1,50.0000019073487,8|8,0:3|0:3,0:3:0:0:
30,11,58920,6,0,L|17:117,1,100.000003814697,8|8,0:3|0:3,0:3:0:0:
1,221,59432,6,0,L|16:122,1,100.000003814697,8|4,0:3|0:1,0:1:0:0:
330,294,63153,6,0,L|287:283,1,44.999998626709,2|0,0:1|0:0,0:0:0:0:
398,266,63543,1,2,0:0:0:0:
425,333,63738,2,0,L|414:377,1,44.999998626709,2|0,0:1|0:0,0:0:0:0:
398,266,64128,1,2,0:0:0:0:
465,236,64322,2,0,L|509:249,1,44.999998626709,2|0,0:1|0:0,0:0:0:0:
398,266,64712,1,2,0:0:0:0:
368,198,64907,2,0,L|381:155,1,44.999998626709,2|0,0:1|0:0,0:0:0:0:
398,266,65295,1,2,0:0:0:0:
330,294,65491,6,0,L|287:283,1,44.999998626709,2|0,0:0|0:0,0:0:0:0:
181,89,65880,2,0,L|225:101,1,44.999998626709,2|0,0:0|0:0,0:0:0:0:
131,228,66270,6,0,L|143:185,1,44.999998626709,2|0,0:1|0:0,0:0:0:0:
114,117,66660,1,2,0:0:0:0:
3,134,66855,2,0,L|46:147,1,44.999998626709,2|0,0:1|0:0,0:0:0:0:
114,117,67243,1,2,0:0:0:0:
97,6,67439,2,0,L|84:50,1,44.999998626709,2|0,0:1|0:0,0:0:0:0:
114,117,67829,1,2,0:0:0:0:
225,101,68024,2,0,L|181:90,1,44.999998626709,2|0,0:1|0:0,0:0:0:0:
114,117,68412,1,2,0:0:0:0:
290,162,68608,6,0,L|246:173,1,44.999998626709,2|0,0:0|0:0,0:0:0:0:
406,146,68997,2,0,L|362:134,1,44.999998626709,2|0,0:0|0:0,0:0:0:0:
212,267,69387,5,6,0:0:0:0:
212,267,69485,1,0,0:0:0:0:
212,267,69582,1,8,0:0:0:0:
212,267,69678,1,8,0:0:0:0:
212,267,69777,1,10,0:0:0:0:
212,267,69873,1,8,0:0:0:0:
216,276,69972,1,10,0:0:0:0:
218,284,70068,1,8,0:0:0:0:
217,292,70165,5,10,0:0:0:0:
212,305,70264,5,8,0:0:0:0:
200,318,70360,5,10,0:0:0:0:
177,324,70459,5,8,0:0:0:0:
145,312,70555,5,10,0:0:0:0:
125,268,70654,5,8,0:0:0:0:
129,213,70751,5,10,0:0:0:0:
154,155,70847,5,8,0:0:0:0:
212,112,70945,2,0,P|158:114|90:92,1,75.0000028610231,10|8,0:0|0:0,0:0:0:0:
0,0,71141,5,14,0:0:0:0:
314,262,71725,6,0,B|301:299|301:299|180:341,1,150.000005722046
192,329,72114,6,0,B|296:293|296:293|329:314,1,150.000005722046
409,384,72504,6,0,B|389:324|429:298|493:296|498:346|460:369|387:343|392:287|439:229,1,225.000008583069,2|0,3:2|0:0,0:0:0:0:
489,247,72893,1,8,3:2:0:0:
499,211,72990,1,0,0:0:0:0:
495,174,73087,1,2,0:0:0:0:
479,140,73185,1,0,0:0:0:0:
452,115,73283,6,0,L|368:103,3,75.0000028610231,2|0|0|0,3:2|0:0|0:0|0:0,0:0:0:0:
262,170,73673,2,0,P|254:205|258:235,3,50,8|0|0|0,3:2|0:0|0:0|0:0,0:0:0:0:
142,59,74062,5,2,3:2:0:0:
126,110,74159,1,0,0:0:0:0:
78,136,74256,1,0,0:0:0:0:
29,135,74354,1,0,0:0:0:0:
22,128,74452,6,0,L|111:116,1,50,10|0,3:2|0:0,0:0:0:0:
205,212,74647,2,0,L|254:218,1,50,2|0,0:0|0:0,0:0:0:0:
387,308,74841,2,0,L|437:302,3,50,2|0|0|0,3:2|0:0|0:0|0:0,0:0:0:0:
466,160,75231,5,8,3:2:0:0:
437,183,75328,1,0,0:0:0:0:
402,194,75426,1,0,0:0:0:0:
364,191,75523,1,0,0:0:0:0:
332,168,75621,6,0,B|290:107|313:44|411:27|442:97|425:130|361:118|336:123|336:26|259:43,1,269.999991760254,2|0,3:2|0:0,0:0:0:0:
238,78,76010,2,0,P|196:61|151:59,1,75.0000028610231,8|0,3:2|0:0,0:0:0:0:
57,128,76205,2,0,L|33:229,1,75.0000028610231,2|0,0:0|0:0,0:0:0:0:
22,287,76400,5,2,3:2:0:0:
58,278,76497,1,0,0:0:0:0:
95,270,76594,1,0,0:0:0:0:
131,262,76692,1,0,0:0:0:0:
106,308,76789,5,8,3:2:0:0:
142,299,76886,1,0,0:0:0:0:
179,291,76983,1,0,0:0:0:0:
215,283,77081,1,0,0:0:0:0:
297,306,77179,6,0,P|303:342|291:381,3,50,2|0|0|0,3:2|0:0|0:0|0:0,0:0:0:0:
474,261,77569,2,0,P|468:225|480:186,3,50,8|0|0|0,3:2|0:0|0:0|0:0,0:0:0:0:
327,86,77958,6,0,P|368:153|389:255,1,150,2|0,3:2|0:0,0:0:0:0:
161,255,78348,2,0,P|158:176|191:77,1,150,8|0,3:2|0:0,0:0:0:0:
201,27,78738,6,0,B|220:-5|259:-32|273:1|226:33|127:56|66:16,1,225.000008583069,2|0,3:2|0:0,0:0:0:0:
10,0,79127,5,8,3:2:0:0:
0,36,79224,1,0,0:0:0:0:
4,73,79321,1,2,0:0:0:0:
20,107,79419,1,0,0:0:0:0:
84,156,79517,6,0,L|62:250,3,75.0000028610231,2|0|0|0,3:2|0:0|0:0|0:0,0:0:0:0:
152,60,79906,2,0,L|246:82,3,50,8|0|0|0,3:2|0:0|0:0|0:0,0:0:0:0:
318,0,80296,5,2,3:2:0:0:
335,2,80393,1,0,0:0:0:0:
353,6,80490,1,0,0:0:0:0:
371,10,80588,1,0,0:0:0:0:
441,7,80686,6,0,P|455:43|453:87,1,50,8|0,3:2|0:0,0:0:0:0:
373,174,80880,2,0,L|287:192,1,75,2|0,0:0|0:0,0:0:0:0:
206,310,81075,2,0,P|204:350|215:383,3,75.0000028610231,2|0|0|0,3:2|0:0|0:0|0:0,0:0:0:0:
179,239,81465,5,10,3:2:0:0:
212,234,81562,1,0,0:0:0:0:
244,241,81659,1,0,0:0:0:0:
272,262,81757,1,0,0:0:0:0:
339,310,81854,6,0,B|333:237|445:214|447:295|426:317|375:258|350:226|386:169,1,225.000008583069,2|0,3:2|0:0,0:0:0:0:
426,137,82244,2,0,L|408:29,1,75.0000028610231,8|0,3:2|0:0,0:0:0:0:
250,0,82439,2,0,L|237:73,1,75.0000028610231,2|0,0:0|0:0,0:0:0:0:
63,43,82634,5,2,3:2:0:0:
95,23,82731,1,0,0:0:0:0:
131,15,82828,1,0,0:0:0:0:
168,18,82926,1,0,0:0:0:0:
237,73,83023,5,8,3:2:0:0:
269,53,83120,1,0,0:0:0:0:
305,45,83217,1,0,0:0:0:0:
342,48,83315,1,0,0:0:0:0:
426,137,83413,6,0,L|377:148,3,50,2|0|0|0,3:2|0:0|0:0|0:0,0:0:0:0:
386,335,83802,2,0,L|434:346,3,50,8|0|0|0,3:2|0:0|0:0|0:0,0:0:0:0:
504,260,84192,6,0,P|419:205|334:99,1,225.000008583069,2|0,3:2|0:0,0:0:0:0:
207,185,84582,2,0,P|250:118|288:67,1,100,10|0,3:2|0:0,0:0:0:0:
164,35,84971,6,0,B|236:29|320:8|320:8|296:38,1,179.999994506836,4|0,0:0|0:0,0:0:0:0:
84,147,85751,2,0,P|92:253|79:346,1,179.999994506836,2|0,0:0|0:0,0:0:0:0:
107,138,86530,6,0,B|262:102|400:97|400:97|416:232|411:333|411:333|402:293|374:247,1,599.999981689454,2|2,0:0|0:0,0:0:0:0:
242,33,88088,6,0,P|256:173|254:266,1,200,2|2,0:0|0:0,0:0:0:0:
151,172,88673,6,0,P|169:191|177:202,1,40,2|0,0:0|0:0,0:0:0:0:
182,209,89062,1,2,0:0:0:0:
154,289,89257,6,0,P|167:303|178:316,1,29.9999990844727,2|0,0:0|0:0,0:0:0:0:
178,318,89646,1,2,0:0:0:0:
349,193,89841,6,0,P|362:207|366:211,1,20,2|0,0:0|0:0,0:0:0:0:
369,214,90230,1,2,0:0:0:0:
344,302,90426,6,0,P|357:316|360:319,1,20,2|0,0:0|0:0,0:0:0:0:
365,323,90814,1,2,0:0:0:0:
68,176,91660,6,0,P|82:177|95:181,1,26.6666666666667,2|2,0:0|0:0,0:0:0:0:
175,182,91919,6,0,B|171:152|149:118|149:119|149:119|149:119|149:119|149:119|188:123|215:111|215:111|215:111|215:111|238:94|255:57|255:57|255:57|255:57|255:57|255:57|272:94|296:111|296:111|296:111|296:111|322:123|362:119|362:119|362:119|362:119|362:119|362:119|340:152|336:181|336:181|336:181|336:181|339:210|361:243|362:242|362:242|362:242|362:242|362:242|322:239|296:251|296:251|296:251|296:251|273:268|254:304|255:305|255:305|255:305|255:305|255:305|238:268|215:251|215:251|214:251|214:251|188:239|149:242|148:243|148:243|148:243|148:243|148:243|171:210|174:195,1,793.000026620484,2|0,0:0|0:0,0:0:0:0:
