osu file format v14

[General]
AudioFilename: audio.mp3
AudioLeadIn: 0
PreviewTime: 31010
Countdown: 0
SampleSet: Soft
StackLeniency: 0.4
Mode: 0
LetterboxInBreaks: 0
WidescreenStoryboard: 1

[Editor]
DistanceSpacing: 1
BeatDivisor: 6
GridSize: 32
TimelineZoom: 1.7

[Metadata]
Title:Qilin's Prance
TitleUnicode:麟跃幽岩
Artist:Yu-Peng Chen @HOYO-MiX
ArtistUnicode:陈致逸 @HOYO-MiX
Creator:Shurelia
Version:Nines' Normal
Source:Genshin Impact
Tags:麟躍幽岩 甘雨 原神 Gānyǔ Ganyu Theme The Stellar Moments Mihoyo Cryo OST Liyue Qixing -Keitaro Nines ScubDomino [Keqing] video game instrumental gacha
BeatmapID:2825254
BeatmapSetID:1365911

[Difficulty]
HPDrainRate:4.2
CircleSize:3.8
OverallDifficulty:5
ApproachRate:5.2
SliderMultiplier:2
SliderTickRate:1

[Events]
//Background and Video events
0,0,"ganyubg.jpg",0,0
//Break Periods
//Storyboard Layer 0 (Background)
//Storyboard Layer 1 (Fail)
//Storyboard Layer 2 (Pass)
//Storyboard Layer 3 (Foreground)
//Storyboard Layer 4 (Overlay)
//Storyboard Sound Samples
Sample,50686,0,"audio/voc0.mp3",75
Sample,70945,0,"audio/voc1.mp3",75

[TimingPoints]
820,794.701986754967,4,2,1,22,1,8
1614,674.157303370787,4,2,1,22,1,8
2288,616.966580976864,4,2,1,22,1,8
2493,714.285714285714,4,2,1,22,1,0
2493,-200,4,2,1,22,0,0
3564,869.565217391304,4,2,1,22,1,8
3998,710.059171597633,4,2,1,22,1,8
5418,888.888888888889,4,2,1,22,1,0
5418,-200,4,2,1,22,0,0
6306,774.193548387097,4,2,1,22,1,8
7080,-200,4,2,1,22,0,0
7854,808.080808080808,4,2,1,22,1,8
8662,740.740740740741,4,2,1,22,1,0
8662,-200,4,2,1,22,0,0
9773,882.352941176471,4,2,1,22,1,8
10214,761.904761904762,4,2,1,22,1,8
11737,779.220779220779,4,2,1,22,1,0
12905,750,4,2,1,22,1,8
13280,764.331210191083,4,2,1,22,1,8
13280,-200,4,2,1,37,0,0
14044,631.578947368421,4,2,1,27,1,8
14675,659.340659340659,4,2,1,27,1,8
14894,779.220779220779,4,2,1,27,1,0
14894,-171.673819742489,4,2,1,37,0,0
15997,784.313725490196,4,2,1,27,1,0
16389,-166.666666666667,4,2,1,37,0,0
19526,-166.666666666667,4,2,1,27,0,0
21095,833.333333333333,4,2,1,27,1,0
21095,-153.846153846154,4,2,1,27,0,0
21511,-166.666666666667,4,2,1,37,0,0
25751,389.61038961039,4,2,1,43,1,0
25751,-250.000000000001,4,2,1,43,0,0
28867,-222.222222222222,4,2,1,43,0,0
31984,-200,4,2,1,53,0,0
44062,-200,4,2,1,50,0,0
44452,-250,4,2,1,43,0,0
47569,-200,4,2,1,53,0,0
50686,-250,4,2,1,33,0,0
53802,779.220779220779,4,2,1,22,1,0
55361,-166.666666666667,4,2,1,33,0,0
58379,714.285714285714,4,2,1,20,1,0
58498,769.230769230769,4,2,1,25,1,0
58754,1000,4,2,1,30,1,0
58920,769.230769230769,4,2,1,40,1,0
59432,869.565217391304,4,2,1,20,1,0
59721,861.450107681263,4,2,1,40,1,0
63153,389.61038961039,4,2,1,27,1,0
63153,-200,4,2,1,27,0,0
66269,-200,4,2,1,37,0,0
69386,-166.666666666667,4,2,1,43,0,0
71724,-166.666666666667,4,2,1,43,0,0
72503,-153.846153846154,4,2,1,57,0,0
84971,-222.222222222222,4,2,1,37,0,0
88088,-285.714285714286,4,2,1,37,0,0
91984,-222.222222222222,4,2,1,27,0,0

[Colours]
Combo1 : 250,180,240
Combo2 : 120,200,230
Combo3 : 255,230,130
Combo4 : 160,230,150

[HitObjects]
256,352,820,5,2,0:0:0:0:
256,208,1614,1,2,0:0:0:0:
352,96,2493,6,0,P|384:128|512:128,1,150.000005722046,0|2,0:0|0:0,0:0:0:0:
496,64,3998,1,2,0:0:0:0:
197,32,5418,2,0,P|229:80|245:128,1,100,0|2,0:0|0:0,0:0:0:0:
216,189,6693,1,2,0:0:0:0:
144,166,7080,2,0,B|117:169|99:188|99:188|82:208|54:210,1,100,2|2,0:0|0:0,0:0:0:0:
207,213,8662,2,0,B|270:190|314:262|249:344,1,150,2|2,0:0|0:0,0:0:0:0:
213,351,10214,1,2,0:0:0:0:
498,257,11737,5,0,0:0:0:0:
478,329,12126,1,0,0:0:0:0:
406,305,12516,1,0,0:0:0:0:
361,244,12905,1,0,0:0:0:0:
368,166,13280,2,0,B|395:169|412:188|412:188|430:208|457:210,1,100,2|2,0:0|0:0,0:0:0:0:
319,90,14894,6,0,P|275:160|256:240,1,164.9999949646,2|2,0:0|0:0,0:0:0:0:
251,327,16389,2,0,B|179:294|131:332|131:332|87:368|24:343,1,239.999992675781
69,191,18742,1,2,0:0:0:0:
147,174,19134,1,2,0:0:0:0:
122,252,19526,2,0,L|-4:238,1,119.999996337891,2|0,0:0|0:0,0:0:0:0:
13,317,20702,1,2,0:0:0:0:
95,327,21095,6,0,B|116:321|124:306|124:306|141:313|141:313|145:288|145:288|178:244|226:244|226:244|276:258|365:148|229:40|131:192|266:287|266:287|311:284|311:284|331:298|331:298|350:291|350:291|358:299|358:299|370:296|370:296|378:302|378:302|388:299|388:299|394:303|394:303|402:301|402:301|408:306|408:306|415:303|415:303|422:308|422:308|430:306|430:306|438:311|438:311|448:311,1,726.4,2|2,0:0|3:2,0:0:0:0:
481,221,26140,5,0,0:0:0:0:
433,212,26335,2,0,P|397:186|382:142,1,80,2|0,3:2|0:0,0:0:0:0:
386,106,26919,1,2,3:2:0:0:
291,89,27309,1,0,0:0:0:0:
243,98,27504,2,0,P|207:123|192:167,1,80,2|0,3:2|0:0,0:0:0:0:
196,204,28088,2,0,L|202:258,1,40,2|2,3:2|0:0,0:0:0:0:
207,291,28478,1,2,3:2:0:0:
127,349,28867,6,0,L|160:378,2,44.999998626709,10|8|10,3:2|0:0|3:2,0:0:0:0:
81,328,29452,2,0,L|22:343,2,44.999998626709,10|10|10,0:0|3:2|0:0,0:0:0:0:
77,278,30036,2,0,L|32:269,2,44.999998626709,10|8|10,3:2|0:0|3:2,0:0:0:0:
101,234,30621,1,6,0:0:0:0:
141,91,31205,2,0,P|184:82|225:97,1,89.9999972534181
296,141,31984,6,0,B|312:154|312:154|341:145|341:145|381:176|434:164,1,150,6|0,3:2|0:0,0:0:0:0:
465,131,32763,2,0,P|413:50|318:69,1,200,6|4,3:2|3:2,0:0:0:0:
303,153,33932,1,2,3:2:0:0:
346,165,34127,1,0,0:0:0:0:
389,176,34322,1,2,3:2:0:0:
425,258,34712,2,0,P|376:270|330:289,1,100,2|2,3:2|3:2,0:0:0:0:
199,318,35686,1,0,0:0:0:0:
207,274,35880,2,0,B|150:294|114:263|114:263|79:232|17:253,2,200,2|2|2,3:2|3:2|3:2,0:0:0:0:
225,186,37828,1,2,3:2:0:0:
205,100,38218,6,0,B|221:87|221:87|250:96|250:96|290:65|343:77,1,150,6|0,3:2|0:0,0:0:0:0:
368,120,38997,2,0,P|316:201|221:182,1,200,2|2,3:2|3:2,0:0:0:0:
167,104,40166,1,2,3:2:0:0:
146,143,40361,1,0,0:0:0:0:
125,183,40556,1,2,3:2:0:0:
37,155,40945,1,2,3:2:0:0:
48,243,41335,1,2,3:2:0:0:
135,345,41919,1,0,0:0:0:0:
175,365,42114,2,0,B|234:359|254:316|254:316|272:273|337:266,1,200,2|2,3:2|3:2,0:0:0:0:
489,169,43673,1,6,3:2:0:0:
475,81,44062,1,6,3:2:0:0:
392,100,44452,6,0,B|357:109|346:135|346:135|334:164|297:172,1,120,4|0,0:0|0:0,0:0:0:0:
263,157,45231,2,0,P|197:116|117:135,1,160,2|2,0:0|0:0,0:0:0:0:
104,211,46400,1,0,0:0:0:0:
96,250,46595,1,0,0:0:0:0:
88,289,46789,1,2,0:0:0:0:
32,355,47179,1,0,0:0:0:0:
117,375,47569,6,0,B|144:369|144:369|168:370|168:370|187:360|187:360|219:353,1,100,2|2,3:2|3:2,0:0:0:0:
258,358,48153,1,0,0:0:0:0:
297,336,48348,2,0,L|365:319,1,50,2|0,3:2|0:0,0:0:0:0:
390,322,48738,1,2,3:2:0:0:
461,259,49127,2,0,P|448:181|343:186,1,200,6|2,3:2|0:0,0:0:0:0:
210,260,50686,6,0,P|198:329|129:333,1,150,2|0,0:0|0:0,0:0:0:0:
70,266,51757,2,0,B|99:251|199:193|329:160|384:328|230:343|209:259,1,380
220,135,54582,5,0,0:0:0:0:
296,134,54971,1,0,0:0:0:0:
299,212,55361,2,0,B|351:208|367:165|367:165|383:122|439:119,1,179.999994506836
512,98,56919,2,0,L|329:66,1,179.999994506836
256,192,58379,12,0,59721,0:0:0:0:
255,53,63153,5,2,0:1:0:0:
209,129,63543,1,2,0:0:0:0:
188,169,63738,2,0,B|167:188|167:188|95:180,1,100,2|2,0:1|0:0,0:0:0:0:
51,174,64322,1,2,0:1:0:0:
44,263,64712,1,2,0:0:0:0:
88,266,64906,2,0,B|159:274|159:274|176:297,1,100,2|2,0:1|0:0,0:0:0:0:
186,340,65491,2,0,L|239:348,1,50,2|0,0:0|0:0,0:0:0:0:
280,353,65880,1,2,0:0:0:0:
371,358,66270,6,0,L|424:366,1,50,2|0,0:1|0:0,0:0:0:0:
464,357,66660,1,2,0:0:0:0:
505,338,66854,1,2,0:1:0:0:
471,254,67244,1,2,0:0:0:0:
429,270,67439,2,0,L|375:262,1,50,2|0,0:1|0:0,0:0:0:0:
342,236,67828,1,2,0:0:0:0:
305,210,68023,1,2,0:1:0:0:
320,121,68413,1,2,0:0:0:0:
280,100,68608,2,0,P|254:100|230:106,1,50,2|0,0:0|0:0,0:0:0:0:
188,120,68997,1,2,0:0:0:0:
110,163,69387,6,0,P|75:210|83:268,1,119.999996337891,6|10,0:0|0:0,0:0:0:0:
109,300,69971,1,10,0:0:0:0:
172,355,70361,1,10,0:0:0:0:
213,349,70556,2,0,P|263:319|320:334,1,119.999996337891,10|10,0:0|0:0,0:0:0:0:
355,355,71140,1,14,0:0:0:0:
456,280,71725,1,2,0:0:0:0:
423,202,72114,1,2,0:0:0:0:
347,246,72504,6,0,P|276:214|257:167,1,129.999994049073,6|8,3:2|3:2,0:0:0:0:
254,124,73088,1,2,0:0:0:0:
261,79,73283,2,0,B|187:87|161:144|161:144|132:201|50:208,1,259.999988098145,2|2,3:2|3:2,0:0:0:0:
17,124,74452,1,10,3:2:0:0:
59,93,74647,1,2,0:0:0:0:
100,63,74841,1,2,3:2:0:0:
186,120,75231,1,8,3:2:0:0:
238,32,75621,6,0,P|268:89|287:152,1,129.999994049073,2|8,3:2|3:2,0:0:0:0:
281,202,76205,1,2,0:0:0:0:
273,253,76400,2,0,P|333:308|449:209,1,259.999988098145,2|2,3:2|3:2,0:0:0:0:
316,54,77958,2,0,P|305:89|299:120,1,64.9999970245363,2|0,3:2|0:0,0:0:0:0:
330,159,78348,2,0,P|325:194|313:225,1,64.9999970245363,8|0,3:2|0:0,0:0:0:0:
273,251,78738,6,0,B|219:239|219:239|201:243|201:243|144:229,1,129.999994049073,2|8,3:2|3:2,0:0:0:0:
98,244,79322,1,2,0:0:0:0:
60,209,79517,2,0,P|31:141|164:170,1,259.999988098145,2|2,3:2|3:2,0:0:0:0:
175,235,80686,2,0,P|166:266|152:295,1,64.9999970245363,8|2,3:2|0:0,0:0:0:0:
119,336,81075,1,2,3:2:0:0:
214,378,81465,1,10,3:2:0:0:
317,371,81854,6,0,P|341:298|371:250,1,129.999994049073,2|8,3:2|3:2,0:0:0:0:
411,222,82439,1,2,0:0:0:0:
454,193,82634,2,0,B|379:106|422:8|422:8|480:28,2,259.999988098145,2|2|2,3:2|3:2|3:2,0:0:0:0:
503,284,84582,1,10,3:2:0:0:
442,360,84971,6,0,B|392:369|392:369|376:358|376:358|313:369,1,134.999995880127,4|0,0:0|0:0,0:0:0:0:
285,332,85751,2,0,B|277:275|277:275|258:246|258:246|265:208|265:208|258:156,1,179.999994506836,2|2,0:0|0:0,0:0:0:0:
199,91,86919,1,0,0:0:0:0:
156,104,87114,1,0,0:0:0:0:
111,116,87309,1,0,0:0:0:0:
119,205,87699,1,2,0:0:0:0:
211,197,88088,6,0,B|194:160|194:160|194:160|194:160|194:160|228:172|255:168|255:168|279:156|302:127|302:127|302:127|302:127|302:127|302:127|310:163|327:184|327:184|327:184|327:184|348:199|384:204|384:204|384:204|384:204|384:204|384:204|358:230|348:255|348:255|345:281|360:314|360:314|360:314|360:314|360:314|324:304|298:309|298:309|274:319|250:348|251:349|251:349|251:349|251:349|251:349|243:312|225:292|225:292|204:276|176:272|176:272|169:269|169:269|167:271|185:250,1,688.333312327068,2|0,0:0|0:0,0:0:0:0:
256,192,92374,12,0,97049,0:0:0:0:
