osu file format v14

[General]
AudioFilename: audio.mp3
AudioLeadIn: 0
PreviewTime: 31171
Countdown: 0
SampleSet: None
StackLeniency: 0.7
Mode: 0
LetterboxInBreaks: 0
WidescreenStoryboard: 1

[Editor]
Bookmarks: 13226,25706,31951,44411,47528,49086,59683,63114,72464,84932,88049,91945
DistanceSpacing: 1
BeatDivisor: 4
GridSize: 8
TimelineZoom: 1.8

[Metadata]
Title:Qilin's Prance
TitleUnicode:麟跃幽岩
Artist:Yu-Peng Chen @HOYO-MiX
ArtistUnicode:陈致逸 @HOYO-MiX
Creator:SatonoDiamond
Version:ent's Normal
Source:Genshin Impact
Tags:video game qilins the stellar moments dimeng yuan thunderbird2678 instrumental electronic keevy nanoya thunderbird nodoro matsuyuki ame rk657 entsetzen ent ganyu mihoyo ost
BeatmapID:3608594
BeatmapSetID:1693168

[Difficulty]
HPDrainRate:3
CircleSize:3
OverallDifficulty:5
ApproachRate:6
SliderMultiplier:0.999999999999999
SliderTickRate:1

[Events]
//Background and Video events
0,0,"ent.jpg",0,0
//Break Periods
2,52207,55846
2,59883,62064
//Storyboard Layer 0 (Background)
//Storyboard Layer 1 (Fail)
//Storyboard Layer 2 (Pass)
//Storyboard Layer 3 (Foreground)
//Storyboard Layer 4 (Overlay)
//Storyboard Sound Samples

[TimingPoints]
769,784.313725490196,4,2,1,20,1,0
1553,827.586206896552,4,2,1,20,1,0
2242,612.244897959184,4,2,1,20,1,0
2242,-133.333333333333,4,2,1,20,0,8
2446,710.059171597633,4,2,1,20,1,0
3511,882.352941176471,4,2,1,20,1,0
3952,714.285714285714,4,2,1,20,1,0
5380,882.352941176471,4,2,1,20,1,0
6262,772.200772200772,4,2,1,20,1,0
7806,810.810810810811,4,2,1,20,1,0
8616,736.196319018405,4,2,1,20,1,0
9720,879.120879120879,4,2,1,20,1,0
10159,765.794511805999,4,2,1,20,1,0
11690,768,4,2,1,20,1,0
13994,731.707317073171,4,2,1,15,1,0
14603,705.882352941176,4,2,1,15,1,0
14838,748.129675810474,4,2,1,25,1,0
16334,769.230769230769,4,2,1,25,1,0
17872,816.326530612245,4,2,1,25,1,0
18688,794.701986754967,4,2,1,25,1,0
20674,776.699029126214,4,2,1,25,1,0
21062,857.142857142857,4,2,1,20,1,0
22776,819.112627986348,4,2,1,25,1,0
24414,833.333333333333,4,2,1,25,1,0
24830,769.230769230769,4,2,1,25,1,0
25022,612.244897959184,4,2,1,25,1,0
25328,535.714285714286,4,2,1,25,1,0
25595,444.444444444444,4,2,1,25,1,0
25706,389.61038961039,4,2,1,30,1,0
28822,-100,4,2,2,25,0,1
29407,-100,4,2,2,35,0,1
29991,-100,4,2,2,45,0,1
30576,-100,4,2,2,50,0,0
30770,405.405405405405,4,2,2,5,1,8
30770,-100,4,2,2,5,0,0
31175,384.615384615385,4,2,2,30,1,8
31944,389.61038961039,4,2,1,65,1,8
31944,-90.9090909090909,4,2,1,65,0,0
44411,-90.9090909090909,4,2,1,40,0,0
47528,-90.9090909090909,4,2,1,45,0,0
48307,-90.9090909090909,4,2,1,50,0,0
49086,-90.9090909090909,4,2,1,60,0,1
50255,-90.9090909090909,4,2,1,45,0,1
50645,731.707317073171,4,2,1,30,1,1
50645,-90.9090909090909,4,2,1,30,0,1
51376,625,4,2,1,30,1,8
51688,830.449826989619,4,2,1,30,1,8
53764,776.699029126214,4,2,1,30,1,0
55317,767.754318618042,4,2,1,30,1,8
56468,857.142857142857,4,2,1,30,1,8
56896,718.562874251497,4,2,1,30,1,0
58333,750,4,2,1,25,1,8
58708,1016.94915254237,4,2,1,25,1,8
58877,731.707317073171,4,2,1,25,1,8
59120,845.070422535211,4,2,1,25,1,8
59683,857.755539671194,4,2,1,25,1,0
63114,389.61038961039,4,2,1,15,1,0
63114,-111.111111111111,4,2,1,15,0,0
66230,-100,4,2,1,20,0,1
66815,-100,4,2,1,15,0,1
67399,-100,4,2,1,25,0,1
67984,-100,4,2,1,35,0,1
68568,-100,4,2,1,30,0,1
68958,-100,4,2,1,25,0,1
69347,-100,4,2,2,25,0,1
69737,-100,4,2,2,35,0,1
70321,-100,4,2,2,45,0,1
70516,-100,4,2,2,55,0,1
71101,-100,4,2,2,65,0,0
71198,-100,4,2,2,5,0,0
71685,-100,4,2,1,35,0,0
72464,-83.3333333333333,4,2,1,70,0,0
81815,-83.3333333333333,4,2,1,70,0,1
82399,-83.3333333333333,4,2,1,70,0,0
84932,-100,4,2,1,55,0,0
88049,-111.111111111111,4,2,1,45,0,0
88828,-111.111111111111,4,2,1,35,0,0
90386,-111.111111111111,4,2,1,25,0,0
90776,-111.111111111111,4,2,1,15,0,0
91847,-111.111111111111,4,2,1,25,0,0
91945,-111.111111111111,4,2,1,15,0,0
97399,-111.111111111111,4,2,1,5,0,0

[Colours]
Combo1 : 196,73,226
Combo2 : 133,202,239
Combo3 : 81,123,174
Combo4 : 196,172,223

[HitObjects]
51,321,769,6,0,P|88:313|165:319,1,99.9999999999999,2|2,2:0|2:0,2:0:0:0:
249,360,2242,6,0,L|287:357,1,25,2|2,2:0|2:0,2:0:0:0:
396,346,3511,2,0,P|400:314|401:289,1,50,2|2,2:0|2:0,0:0:0:0:
398,135,5380,1,2,2:3:0:0:
342,33,6262,6,0,P|317:40|295:51,2,50,2|2|2,2:0|2:0|2:0,0:0:0:0:
216,104,7806,2,0,P|169:118|115:99,1,99.9999999999999,2|2,2:0|2:3,0:0:0:0:
6,155,9720,1,2,2:0:0:0:
6,155,10159,2,0,B|70:156|97:204|85:207|110:258|173:250,1,200,2|2,2:2|2:3,0:0:0:0:
265,223,12458,2,0,P|318:219|336:221,1,50,2|2,2:0|2:0,0:0:0:0:
363,215,13226,6,0,P|363:162|370:100,1,99.9999999999999,2|2,2:3|2:0,2:0:0:0:
461,48,14838,2,0,P|471:106|476:207,1,150,2|2,2:3|2:3,2:0:0:0:
473,240,16334,2,0,P|416:291|290:333,1,200,2|2,2:3|2:3,0:0:0:0:
211,291,18688,2,0,P|165:287|140:287,2,50,2|2|2,2:3|2:3|2:3,2:0:0:0:
81,364,20674,5,2,2:3:0:0:
81,364,21062,2,0,P|78:302|82:278,1,50,2|2,2:3|2:0,2:0:0:0:
256,192,21919,12,2,24414,2:0:0:0:
439,384,25706,5,2,3:2:0:0:
502,308,26095,1,2,3:2:0:0:
502,308,26290,2,0,P|514:251|490:196,1,99.9999999999999,0|2,2:3|2:3,2:0:0:0:
471,186,26874,2,0,P|459:129|483:74,1,99.9999999999999,0|2,2:3|2:3,2:0:0:0:
494,57,27459,1,2,2:3:0:0:
407,8,27848,5,2,2:3:0:0:
407,8,28043,2,0,L|355:20,1,50,2|2,3:2|2:3,0:0:0:0:
308,26,28433,2,0,L|248:18,1,50,2|2,3:2|2:3,0:0:0:0:
209,10,28822,1,2,3:2:0:0:
256,192,29017,12,6,30576,2:0:0:0:
76,196,31175,6,0,P|121:193|180:196,1,99.9999999999999,2|2,2:0|2:0,0:0:0:0:
212,300,31944,6,0,P|265:334|342:311,1,110.000003356934,6|0,3:2|1:0,2:0:0:0:
377,288,32528,1,2,2:0:0:0:
377,288,32723,2,0,B|438:266|478:308|478:308|457:251|494:203,1,220.000006713867,2|2,3:2|3:2,0:0:0:0:
512,94,33892,6,0,P|479:80|452:75,1,55.0000016784668,2|2,1:2|2:0,2:0:0:0:
380,66,34281,2,0,P|352:68|326:74,2,55.0000016784668,2|0|2,3:2|0:0|1:2,2:0:0:0:
233,115,35060,1,2,3:2:0:0:
85,47,35645,1,2,2:0:0:0:
85,47,35840,2,0,P|57:102|81:216,1,165.0000050354,2|2,3:2|2:0,2:0:0:0:
121,263,36619,1,2,3:2:0:0:
319,365,37398,2,0,P|371:350|405:302,1,110.000003356934,0|0,3:2|1:2,2:0:0:0:
414,196,38177,5,6,3:2:0:0:
265,267,38762,1,2,2:0:0:0:
265,267,38956,2,0,P|157:245|74:167,1,220.000006713867,2|2,3:2|3:2,2:0:0:0:
139,64,40125,6,0,P|165:113|188:133,1,55.0000016784668,2|2,1:2|2:0,0:0:0:0:
232,160,40515,2,0,P|259:165|307:156,2,55.0000016784668,2|0|2,3:2|0:0|1:2,2:0:0:0:
381,122,41294,1,2,3:2:0:0:
452,273,41879,1,2,2:0:0:0:
452,273,42073,2,0,P|422:331|270:355,1,220.000006713867,2|2,3:2|3:2,2:0:0:0:
198,287,43242,1,2,1:2:0:0:
90,308,43632,6,0,P|46:335|4:380,1,110.000003356934,2|2,3:2|1:2,2:0:0:0:
256,192,44411,12,2,45969,0:3:0:0:
256,192,46749,5,2,0:0:0:0:
103,33,47528,2,0,P|73:84|63:134,1,110.000003356934,2|0,3:2|3:2,2:0:0:0:
69,217,48112,1,2,1:2:0:0:
69,217,48307,2,0,P|76:257|136:320,1,110.000003356934,2|0,3:2|3:2,2:0:0:0:
215,362,49086,6,0,B|269:361|313:332|313:332|324:340|324:340|371:316|423:323,2,220.000006713867,4|4|2,3:2|3:2|0:0,2:0:0:0:
256,192,56896,12,10,59683,2:3:0:0:
512,301,63114,6,0,P|458:293|414:294,1,89.999997253418,2|2,2:0|2:0,0:0:0:0:
387,306,63698,1,2,2:0:0:0:
264,361,64282,2,0,P|206:356|159:333,1,89.999997253418,2|2,2:0|2:0,0:0:0:0:
150,316,64867,1,2,2:0:0:0:
117,237,65256,1,2,2:0:0:0:
117,237,65451,2,0,P|157:200|214:187,1,89.999997253418,2|2,2:0|2:0,0:0:0:0:
286,164,66230,6,0,L|383:172,2,50,2|2|2,2:3|2:0|2:0,2:0:0:0:
246,132,66815,1,2,0:0:0:0:
249,25,67204,1,2,2:0:0:0:
249,25,67399,2,0,L|298:29,2,50,2|2|2,2:0|2:0|0:0,0:0:0:0:
203,4,67984,1,2,0:0:0:0:
113,43,68373,1,2,2:0:0:0:
113,43,68568,2,0,P|79:69|60:99,1,50,2|2,2:0|2:0,2:0:0:0:
54,121,68958,2,0,P|53:158|69:195,1,50,2|2,2:0|2:0,2:0:0:0:
76,216,69347,1,2,3:0:0:0:
256,192,69542,12,2,71101,3:0:0:0:
436,196,71685,6,0,P|391:193|332:196,1,99.9999999999999,2|2,2:3|2:3,0:0:0:0:
274,298,72464,6,0,P|217:339|144:330,1,119.999996337891,6|10,3:2|2:0,2:0:0:0:
91,314,73049,1,2,2:0:0:0:
91,314,73243,2,0,B|74:252|115:201|115:201|91:145|126:80,1,239.999992675781,2|2,3:2|3:2,2:0:0:0:
234,130,74412,1,10,2:0:0:0:
263,99,74607,1,2,2:0:0:0:
296,73,74802,2,0,P|368:61|441:83,1,119.999996337891,2|10,3:0|2:0,2:0:0:0:
508,141,75581,5,2,3:0:0:0:
396,183,75971,1,8,2:0:0:0:
418,218,76165,1,0,0:0:0:0:
437,255,76360,2,0,P|444:302|409:364,1,119.999996337891,2|10,3:2|2:0,0:0:0:0:
290,375,77139,2,0,L|228:357,1,59.9999981689453,2|0,3:2|2:0,2:0:0:0:
151,355,77529,2,0,L|89:373,1,59.9999981689453,10|2,2:0|2:0,2:0:0:0:
13,384,77919,2,0,P|-4:316|10:265,1,119.999996337891,2|10,3:0|2:0,2:0:0:0:
121,227,78698,5,6,3:2:0:0:
29,160,79088,1,10,2:0:0:0:
11,122,79282,1,2,2:0:0:0:
27,83,79477,2,0,B|96:76|125:134|125:134|125:71|191:40,1,239.999992675781,2|2,3:2|3:2,0:0:0:0:
295,100,80646,2,0,P|336:97|359:91,1,59.9999981689453,10|2,2:0|2:0,2:0:0:0:
434,75,81036,2,0,P|462:150|466:206,1,119.999996337891,2|10,3:0|2:0,2:0:0:0:
437,305,81815,6,0,B|372:308|372:308|327:285|327:285|245:290,1,179.999994506836,2|2,3:0|2:0,2:0:0:0:
182,302,82594,2,0,P|140:253|136:153,1,119.999996337891,2|10,3:2|2:0,0:0:0:0:
16,155,83373,2,0,P|36:94|124:42,1,119.999996337891,2|10,3:2|2:0,2:0:0:0:
193,31,84152,1,2,3:0:0:0:
292,98,84542,1,10,2:0:0:0:
403,53,84932,5,6,1:2:0:0:
483,185,85516,1,2,2:0:0:0:
483,185,85711,2,0,P|498:247|496:385,1,200,2|2,2:0|2:3,2:0:0:0:
396,378,86880,2,0,L|336:381,1,50,2|2,2:0|2:0,0:0:0:0:
304,375,87269,2,0,P|279:332|262:268,1,99.9999999999999,2|2,2:3|2:0,0:0:0:0:
256,192,88049,5,2,2:3:0:0:
217,53,88828,1,2,2:0:0:0:
72,47,89607,1,2,2:0:0:0:
21,183,90386,1,2,2:3:0:0:
256,192,91945,5,2,0:3:0:0:
256,192,92139,12,0,97399,2:0:0:0:
