osu file format v14

[General]
AudioFilename: audio.mp3
AudioLeadIn: 0
PreviewTime:31171
Countdown: 0
SampleSet: Soft
StackLeniency: 0.7
Mode: 0
LetterboxInBreaks: 0
WidescreenStoryboard: 1

[Editor]
DistanceSpacing: 0.5
BeatDivisor: 8
GridSize: 32
TimelineZoom: 1.8

[Metadata]
Title:Qilin's Prance
TitleUnicode:麟跃幽岩
Artist:Yu-Peng Chen @HOYO-MiX
ArtistUnicode:陈致逸 @HOYO-MiX
Creator:SatonoDiamond
Version:Nodoro's Insane
Source:Genshin Impact
Tags:video game qilins the stellar moments dimeng yuan thunderbird2678 instrumental electronic keevy nanoya thunderbird nodoro matsuyuki ame rk657 entsetzen ent ganyu mihoyo ost
BeatmapID:3601625
BeatmapSetID:1693168

[Difficulty]
HPDrainRate:5
CircleSize:3.8
OverallDifficulty:7.9
ApproachRate:9
SliderMultiplier:1.9
SliderTickRate:1

[Events]
//Background and Video events
0,0,"ganyu.jpg",0,0
//Break Periods
2,59882,62514
//Storyboard Layer 0 (Background)
//Storyboard Layer 1 (Fail)
//Storyboard Layer 2 (Pass)
//Storyboard Layer 3 (Foreground)
//Storyboard Layer 4 (Overlay)
//Storyboard Sound Samples

[TimingPoints]
769,784.313725490196,4,2,1,20,1,0
769,-133.333333333333,4,2,1,20,0,0
1422,-133.333333333333,4,2,1,5,0,0
1553,827.586206896552,4,2,1,20,1,0
1553,-166.666666666667,4,2,1,20,0,0
2104,-166.666666666667,4,2,1,5,0,0
2242,612.244897959184,4,2,1,20,1,0
2242,-156.25,4,2,1,20,0,0
2344,-156.25,4,2,1,15,0,0
2446,710.059171597633,4,2,1,20,1,0
2446,-142.857142857143,4,2,1,20,0,0
3392,-142.857142857143,4,2,1,5,0,0
3511,882.352941176471,4,2,1,20,1,0
3511,-80.6451612903226,4,2,1,20,0,0
3805,-80.6451612903226,4,2,1,5,0,0
3952,714.285714285714,4,2,1,20,1,0
5261,-100,4,2,1,5,0,0
5380,882.352941176471,4,2,1,20,1,0
5380,-135.135135135135,4,2,1,20,0,0
6115,-135.135135135135,4,2,1,5,0,0
6262,772.200772200772,4,2,1,20,1,0
6262,-106.382978723404,4,2,1,20,0,0
7677,-106.382978723404,4,2,1,5,0,0
7806,810.810810810811,4,2,1,20,1,0
8481,-100,4,2,1,5,0,0
8616,736.196319018405,4,2,1,20,1,0
9597,-100,4,2,1,5,0,0
9720,879.120879120879,4,2,1,20,1,0
10013,-100,4,2,1,5,0,0
10159,765.794511805999,4,2,1,20,1,0
11562,-100,4,2,1,5,0,0
11690,768,4,2,1,20,1,0
11690,-87.719298245614,4,2,1,20,0,0
12330,-87.719298245614,4,2,1,5,0,0
12458,-87.719298245614,4,2,1,20,0,0
13226,-80.6451612903226,4,2,1,15,0,0
13866,-80.6451612903226,4,2,1,5,0,0
13994,731.707317073171,4,2,1,15,1,0
13994,-71.4285714285714,4,2,1,15,0,0
14603,705.882352941176,4,2,1,15,1,0
14603,-96.1538461538461,4,2,1,15,0,0
14838,748.129675810474,4,2,1,25,1,0
14838,-80,4,2,1,25,0,0
15960,-106.382978723404,4,2,1,25,0,0
16209,-106.382978723404,4,2,1,5,0,0
16334,769.230769230769,4,2,1,25,1,0
16334,-106.382978723404,4,2,1,25,0,0
17872,816.326530612245,4,2,1,25,1,0
17872,-119.047619047619,4,2,1,25,0,0
18688,794.701986754967,4,2,1,25,1,0
18688,-83.3333333333333,4,2,1,25,0,0
18952,-83.3333333333333,4,2,1,5,0,0
19085,-83.3333333333333,4,2,1,25,0,0
19350,-83.3333333333333,4,2,1,5,0,0
19482,-96.1538461538461,4,2,1,25,0,0
20542,-96.1538461538461,4,2,1,5,0,0
20674,776.699029126214,4,2,1,25,1,0
20674,-96.1538461538461,4,2,1,20,0,0
21062,857.142857142857,4,2,1,20,1,0
21062,-119.047619047619,4,2,1,20,0,0
22776,819.112627986348,4,2,1,25,1,0
24209,-119.047619047619,4,2,1,5,0,0
24413,-51.5463917525773,4,2,1,25,0,0
24414,833.333333333333,4,2,1,25,1,0
24414,-57.4712643678161,4,2,1,25,0,0
24830,769.230769230769,4,2,1,25,1,0
24830,-57.4712643678161,4,2,1,25,0,0
25022,612.244897959184,4,2,1,25,1,0
25022,-57.4712643678161,4,2,1,25,0,0
25328,535.714285714286,4,2,1,25,1,0
25328,-51.5463917525773,4,2,1,25,0,0
25595,444.444444444444,4,2,1,25,1,0
25706,389.61038961039,4,2,1,30,1,0
26290,-90.9090909090909,4,2,1,30,0,0
26874,-83.3333333333333,4,2,1,30,0,0
28822,-83.3333333333333,4,2,2,30,0,0
29212,-83.3333333333333,4,2,2,30,0,0
29407,-71.4285714285714,4,2,2,30,0,0
30770,405.405405405405,4,2,2,5,1,8
31175,384.615384615385,4,2,2,30,1,8
31175,-90.9090909090909,4,2,2,30,0,0
31944,389.61038961039,4,2,1,65,1,8
31944,-45.4545454545455,4,2,1,65,0,0
32625,-57.4712643678161,4,2,1,65,0,0
33502,-45.4545454545455,4,2,1,65,0,0
33892,-55.5555555555556,4,2,1,65,0,0
34281,-62.5,4,2,1,65,0,0
35060,-47.6190476190476,4,2,1,65,0,0
35450,-64.9350649350649,4,2,1,65,0,0
35840,-54.3478260869565,4,2,1,65,0,0
36229,-49.0196078431373,4,2,1,65,0,0
36424,-71.4285714285714,4,2,1,65,0,0
37398,-60.6060606060606,4,2,1,65,0,0
37788,-57.1428571428571,4,2,1,65,0,0
38177,-50,4,2,1,65,0,0
38567,-57.1428571428571,4,2,1,65,0,0
38859,-64.9350649350649,4,2,1,65,0,0
39736,-45.4545454545455,4,2,1,65,0,0
40125,-55.5555555555556,4,2,1,65,0,0
40515,-60.6060606060606,4,2,1,65,0,0
41294,-47.6190476190476,4,2,1,65,0,0
41684,-60.6060606060606,4,2,1,65,0,0
42073,-55.5555555555556,4,2,1,65,0,0
42463,-58.8235294117647,4,2,1,65,0,0
42658,-76.9230769230769,4,2,1,65,0,0
43632,-100,4,2,1,65,0,0
46359,-87.719298245614,4,2,1,65,0,0
47528,-50,4,2,1,65,0,0
47918,-66.6666666666667,4,2,1,65,0,0
48307,-50,4,2,1,65,0,0
48697,-62.5,4,2,1,65,0,0
49086,-100,4,2,1,65,0,0
49866,-125,4,2,1,65,0,0
50645,731.707317073171,4,2,1,30,1,0
50645,-83.3333333333333,4,2,1,30,0,0
51376,625,4,2,1,30,1,8
51688,830.449826989619,4,2,1,30,1,8
51688,-111.111111111111,4,2,1,30,0,0
53660,-111.111111111111,4,2,1,5,0,0
53764,776.699029126214,4,2,1,30,1,0
53860,-100,4,2,1,30,0,0
53956,-100,4,2,1,30,0,0
54540,-87.719298245614,4,2,1,30,0,0
55317,767.754318618042,4,2,1,30,1,8
56468,857.142857142857,4,2,1,30,1,8
56896,718.562874251497,4,2,1,30,1,0
56896,-90.4977375565611,4,2,1,30,0,0
58333,750,4,2,1,25,1,8
58708,1016.94915254237,4,2,1,25,1,8
58877,731.707317073171,4,2,1,25,1,8
59120,845.070422535211,4,2,1,25,1,8
59683,857.755539671194,4,2,1,25,1,0
63114,389.61038961039,4,2,1,15,1,0
63114,-125,4,2,1,15,0,0
63698,-117.647058823529,4,2,1,15,0,0
64282,-111.111111111111,4,2,1,20,0,0
64867,-100,4,2,1,20,0,0
66230,-83.3333333333333,4,2,1,25,0,0
68276,-83.3333333333333,4,2,1,5,0,0
68373,-83.3333333333333,4,2,1,25,0,0
69347,-83.3333333333333,4,2,2,35,0,0
70126,-76.9230769230769,4,2,2,35,0,0
70906,-62.5,4,2,2,40,0,0
71003,-62.5,4,2,2,5,0,0
71101,-50,4,2,2,40,0,0
71198,-50,4,2,2,5,0,0
71685,-100,4,2,1,40,0,0
72464,-83.3333333333333,4,2,1,60,0,1
74802,-66.6666666666667,4,2,1,60,0,1
75191,-60.6060606060606,4,2,1,60,0,1
75581,-76.9230769230769,4,2,1,60,0,1
78698,-52.6315789473684,4,2,1,60,0,1
79088,-62.5,4,2,1,60,0,1
79477,-71.4285714285714,4,2,1,60,0,1
81036,-62.5,4,2,1,60,0,1
81815,-76.9230769230769,4,2,1,60,0,1
82984,-66.6666666666667,4,2,1,60,0,1
84152,-71.4285714285714,4,2,1,60,0,1
84542,-80,4,2,1,50,0,1
84932,-111.111111111111,4,2,1,45,0,0
88633,-125,4,2,1,38,0,0
89217,-142.857142857143,4,2,1,30,0,0
89997,-166.666666666667,4,2,1,26,0,0
90386,-1000,4,2,1,20,0,0
91652,-166.666666666667,4,2,1,10,0,0
91750,-200,4,2,1,20,0,0
97399,-200,4,2,1,5,0,0

[Colours]
Combo1 : 237,241,160
Combo2 : 133,202,239
Combo3 : 175,117,146
Combo4 : 74,96,167
Combo5 : 201,237,246
Combo6 : 228,203,211
Combo7 : 51,65,116
Combo8 : 199,199,168

[HitObjects]
97,12,769,6,0,P|91:56|91:134,1,118.750004529953,2|0,2:0|0:0,2:0:0:0:
179,196,1553,2,0,P|184:234|178:280,1,75.9999976806641,2|0,2:0|0:0,0:0:0:0:
274,352,2242,1,2,2:0:0:0:
304,355,2344,1,2,2:0:0:0:
350,330,2446,2,0,B|380:315|415:269|396:211|330:229|370:302,1,177.33332792155,2|0,2:0|0:0,0:0:0:0:
422,267,3511,6,0,P|462:252|475:217,1,78.5333302176922,2|0,2:0|0:0,0:0:0:0:
407,174,3952,2,0,B|377:149|333:150|289:178|296:196|309:215|264:250|230:254|190:230|190:230|228:242|265:228|279:191,1,348.333333333333,2|0,2:0|0:0,0:0:0:0:
209,151,5380,2,0,P|193:91|200:31,1,117.166669527181,2|0,2:3|0:0,0:0:0:0:
151,102,6262,5,2,2:0:0:0:
145,125,6648,1,2,2:0:0:0:
140,148,7034,2,0,P|151:238|204:277,1,148.833331062317,2|0,2:0|0:0,2:0:0:0:
226,187,7806,2,0,B|156:216|156:216|152:222|152:222|82:251,1,158.333333333333,2|0,2:0|0:0,0:0:0:0:
205,283,8616,6,0,B|192:298|192:298|250:321|255:377|255:377|250:321|304:288|304:288|288:275,1,253.333333333333,2|0,2:3|0:0,2:0:0:0:
257,200,9720,2,0,P|262:159|289:152,1,63.3333333333333,2|0,2:0|0:0,0:0:0:0:
362,139,10159,6,0,B|390:165|383:202|383:202|417:177|420:138|408:104|328:109|316:70|316:70|340:76|336:114|403:108,1,348.333333333333,2|0,2:2|0:0,0:0:0:0:
306,194,11690,6,0,B|254:218|198:215|198:215|238:215|257:245,1,180.499997796631,2|0,2:3|0:0,2:0:0:0:
321,306,12458,1,2,2:0:0:0:
368,243,12842,1,2,2:0:0:0:
324,161,13226,6,0,B|290:135|274:78|324:50|324:50|300:89|322:121,1,196.33332554423,2|0,2:3|0:0,2:0:0:0:
230,181,13994,2,0,B|171:201|135:147|135:147|169:195|144:252,1,221.666659901937,2|2,2:0|2:0,0:0:0:0:
63,205,14720,1,0,0:0:0:0:
63,205,14838,2,0,B|29:168|32:110|70:75|70:75|65:17|14:10,1,237.5,2|0,2:3|2:0,2:0:0:0:
159,61,15960,6,0,L|152:125,1,59.5333324249268,2|0,2:3|0:0,0:0:0:0:
171,148,16334,1,2,2:3:0:0:
171,148,17872,5,2,2:3:0:0:
248,215,18688,6,0,B|240:239|255:259|255:259|262:235|248:215,1,75.9999976806641,2|0,2:3|0:0,2:0:0:0:
298,149,19085,2,0,B|305:124|290:104|290:104|283:128|298:149,1,75.9999976806641,2|0,2:3|0:0,0:0:0:0:
202,140,19482,2,0,B|162:155|156:205|156:205|114:166|104:71|191:47,1,263.466665058594,2|0,2:3|0:0,0:0:0:0:
119,56,20674,1,2,2:3:0:0:
231,210,21062,5,2,2:3:0:0:
267,196,21276,1,2,2:0:0:0:
328,239,21490,1,2,2:0:0:0:
256,192,21597,12,0,24209,2:0:0:0:
262,69,24414,6,0,L|277:160,1,82.6500006936264,2|2,2:0|2:0,2:0:0:0:
342,211,24726,2,0,L|336:263,1,41.3250003468132,2|2,2:0|2:0,2:0:0:0:
269,311,24926,5,2,2:0:0:0:
269,311,25022,2,0,P|248:303|227:285,3,41.3250003468132,2|2|2|2,2:0|2:0|2:0|2:0,0:0:0:0:
192,223,25328,6,0,P|213:231|233:245,4,46.0750010897255,2|2|2|2|2,2:0|2:0|2:0|2:0|2:0,2:0:0:0:
136,152,25706,6,0,P|113:103|112:62,2,95,2|2|2,3:2|2:0|3:2,2:0:0:0:
237,204,26290,6,0,P|264:145|261:100,2,104.500003189087,0|2|2,2:3|3:2|2:3,2:0:0:0:
139,297,26874,6,0,P|84:244|68:199,2,113.999996520996,2|2|2,3:2|2:0|3:2,2:0:0:0:
275,351,27459,6,0,B|307:360|337:337|334:302|336:307|326:264|372:248|396:257,1,170.999994781494,2|0,2:3|0:0,0:0:0:0:
405,271,27848,1,2,2:3:0:0:
307,186,28043,5,2,3:2:0:0:
215,219,28238,1,2,2:3:0:0:
287,91,28433,5,2,3:2:0:0:
390,127,28628,1,2,2:3:0:0:
493,163,28822,6,0,L|502:221,3,56.9999982604981,2|0|0|0,3:2|3:2|3:2|3:2,2:0:0:0:
430,270,29212,2,0,L|421:328,1,56.9999982604981,2|0,3:2|3:2,2:0:0:0:
345,259,29407,6,0,L|357:179,3,66.4999979705811,2|0|0|0,3:2|3:2|3:2|3:2,0:0:0:0:
299,127,29796,2,0,L|288:61,1,66.4999979705811,2|0,3:2|3:2,2:0:0:0:
261,45,29991,2,0,L|271:110,1,66.4999979705811,2|0,3:2|3:2,2:0:0:0:
191,133,30186,6,0,L|180:198,1,66.4999979705811,0|0,3:2|3:2,0:0:0:0:
153,215,30381,2,0,L|163:149,1,66.4999979705811,0|0,3:2|0:0,0:0:0:0:
122,71,30576,1,6,2:0:0:0:
30,139,31175,5,2,2:0:0:0:
29,152,31559,5,2,2:0:0:0:
210,208,31944,6,0,P|159:175|162:273,1,313.500009567261,6|0,3:2|2:0,2:0:0:0:
269,360,32333,2,0,P|343:287|286:212,1,209.000006378174,0|2,1:0|2:0,0:0:0:0:
263,128,32625,5,0,2:0:0:0:
246,109,32723,1,2,3:2:0:0:
238,86,32820,1,0,2:0:0:0:
240,61,32918,2,0,P|257:25|295:14,1,82.6500006936264,0|0,2:0|2:0,2:0:0:0:
394,52,33112,2,0,P|377:88|339:99,1,82.6500006936264,0|0,1:2|0:0,0:0:0:0:
287,225,33307,5,0,2:0:0:0:
287,225,33405,1,0,0:0:0:0:
287,225,33502,2,0,B|338:182|278:103|203:119|156:199|185:273|234:307,1,313.500009567261,2|0,3:2|0:0,2:0:0:0:
314,307,33892,2,0,P|296:361|266:379,1,85.4999973907472,2|0,1:2|0:0,2:0:0:0:
195,325,34086,2,0,P|138:320|112:296,1,85.4999973907472,2|0,2:0|2:0,0:0:0:0:
98,198,34281,6,0,B|115:181|119:158|119:158|130:220|83:230|85:227|32:240|37:310,1,228,2|2,3:2|2:0,2:0:0:0:
30,232,34671,1,2,1:2:0:0:
12,217,34768,1,0,0:0:0:0:
2,195,34866,1,2,2:0:0:0:
5,173,34963,1,2,2:0:0:0:
43,97,35060,6,0,B|26:62|-17:59|-17:59|107:68,1,199.499993911743,2|0,3:2|0:0,2:0:0:0:
220,33,35353,1,0,0:0:0:0:
220,33,35450,2,0,P|254:52|267:93,1,73.1499985489655,0|0,1:2|0:0,0:0:0:0:
219,170,35645,2,0,P|226:209|260:235,1,73.1499985489655,2|2,2:0|2:0,2:0:0:0:
380,228,35840,2,0,B|411:211|480:179|446:110|377:186|343:223|342:284|380:318,1,262.19999119812,2|0,3:2|2:0,2:0:0:0:
503,374,36229,2,0,P|488:326|486:277,1,96.9000005914307,0|0,1:2|2:0,2:0:0:0:
512,162,36424,5,2,2:0:0:0:
504,140,36521,1,0,2:0:0:0:
491,120,36619,2,0,P|473:96|425:83,2,66.4999979705811,2|0|0,3:2|0:0|2:0,2:0:0:0:
404,170,36911,1,0,2:0:0:0:
404,170,37008,2,0,P|367:154|346:120,2,66.4999979705811,0|0|0,1:2|0:0|2:0,2:0:0:0:
478,227,37301,1,0,0:0:0:0:
478,227,37398,6,0,P|515:301|415:268,1,235.125002242327,0|0,3:2|2:0,2:0:0:0:
388,167,37788,2,0,P|437:224|501:387,1,249.375002378225,0|0,1:2|2:0,2:0:0:0:
372,312,38177,6,0,B|321:334|282:311|256:265|303:199|303:199|332:238|294:284,1,285,6|0,3:2|2:0,2:0:0:0:
191,297,38567,2,0,B|160:307|149:363|149:363|155:307|121:276,1,166.250001585484,0|2,1:2|2:0,0:0:0:0:
139,176,38859,5,0,2:0:0:0:
121,191,38956,1,2,3:2:0:0:
98,195,39054,1,0,0:0:0:0:
76,190,39151,2,0,P|35:172|16:144,1,73.1499985489655
41,50,39346,2,0,P|82:68|101:96,1,73.1499985489655,0|0,1:2|0:0,0:0:0:0:
233,184,39541,5,0,2:0:0:0:
233,184,39638,1,0,2:0:0:0:
233,184,39736,2,0,P|266:133|168:136,1,313.500009567261,2|0,3:2|0:0,2:0:0:0:
225,337,40125,2,0,B|222:362|222:362|240:379|240:379|243:354|243:354|225:337,1,85.4999973907472,2|0,1:2|0:0,0:0:0:0:
346,309,40320,2,0,B|348:334|348:334|330:351|330:351|327:326|327:326|346:309,1,85.4999973907472,2|0,2:0|0:0,0:0:0:0:
441,238,40515,6,0,B|364:240|359:167|358:174|349:101|269:101,1,235.125002242327,2|2,3:2|2:0,2:0:0:0:
260,197,40905,2,0,B|311:198|315:149|316:153|322:104|374:104,1,156.750001494885,2|0,1:2|0:0,2:0:0:0:
456,151,41197,1,0,2:0:0:0:
456,151,41294,2,0,B|496:154|517:188|517:188|504:148|519:115|519:115|496:144|456:151,1,199.499993911743,2|0,3:2|0:0,2:0:0:0:
448,230,41586,1,0,0:0:0:0:
504,282,41684,2,0,P|457:271|420:268,1,78.3750007474423,0|0,1:2|0:0,0:0:0:0:
321,346,41879,2,0,P|299:320|303:274,1,78.3750007474423,2|0,2:0|2:0,2:0:0:0:
335,181,42073,6,0,B|296:88|245:182|255:-73|417:124|310:82|333:167,1,256.499992172241,2|0,3:2|0:0,2:0:0:0:
288,269,42463,2,0,P|240:275|201:261,1,80.750001540184,0|0,1:2|0:0,0:0:0:0:
132,176,42658,5,2,2:0:0:0:
127,199,42755,1,2,2:0:0:0:
124,223,42853,2,0,L|116:305,2,61.7499971733095,2|2|2,3:2|2:0|2:0,0:0:0:0:
17,245,43145,1,2,2:0:0:0:
17,245,43242,2,0,L|25:163,2,61.7499971733095,2|2|2,1:2|2:0|2:0,0:0:0:0:
0,350,43534,1,2,2:0:0:0:
0,350,43632,6,0,P|64:360|140:332,1,142.5,2|0,3:2|0:0,2:0:0:0:
231,214,44021,2,0,P|221:283|246:350,1,142.5,2|0,1:2|0:0,0:0:0:0:
358,384,44411,1,6,0:0:0:0:
464,362,45969,5,2,0:3:0:0:
467,348,46749,5,2,0:0:0:0:
470,334,47138,5,2,0:0:0:0:
366,249,47528,6,0,B|354:150|278:221|262:111|356:117|340:201,1,190,2|0,3:2|1:2,2:0:0:0:
279,262,47820,1,0,2:0:0:0:
279,262,47918,2,0,P|269:305|268:334,1,71.2500027179719,0|0,3:2|2:0,2:0:0:0:
185,257,48112,2,0,P|195:214|196:185,1,71.2500027179719,2|0,1:2|2:0,2:0:0:0:
118,112,48307,6,0,B|121:81|99:60|44:64|13:141|83:181,1,190,2|0,3:2|1:2,2:0:0:0:
173,245,48599,1,0,2:0:0:0:
173,245,48697,2,0,L|160:328,1,76,0|0,3:2|2:0,2:0:0:0:
67,356,48892,2,0,L|54:273,1,76,0|0,1:2|2:0,2:0:0:0:
174,157,49086,6,0,B|266:127|302:204|300:192|334:273|428:232,1,285,4|0,3:2|0:0,2:0:0:0:
380,159,49866,6,0,P|403:120|396:89,1,76,4|0,3:2|0:0,0:0:0:0:
330,21,50255,2,0,P|307:60|314:91,1,76,2|0,0:0|0:0,0:0:0:0:
251,264,50645,6,0,B|226:242|195:250|195:250|233:227|278:243|290:280,1,170.999994781494,2|0,0:0|0:0,0:0:0:0:
382,355,51376,1,2,2:0:0:0:
356,167,51688,2,0,B|339:90|262:60|196:92|177:167|177:167|150:172|150:172|135:217|77:229|48:190,1,406.124987606049,2|0,2:0|0:0,0:0:0:0:
51,85,53764,6,0,L|45:122,2,23.75,2|0|0,2:0|0:0|0:0,0:0:0:0:
21,279,54540,5,2,0:0:0:0:
53,370,54929,1,2,2:0:0:0:
142,332,55317,1,2,2:0:0:0:
499,16,56468,5,2,2:0:0:0:
402,264,56896,2,0,B|347:315|259:279|238:208|278:167|278:167|327:126|327:58|264:32|219:46|205:87|205:87|176:45|127:40|76:65|71:132|133:179|132:175|186:186|260:244|283:255,1,814.285689435687,2|10,2:3|2:3,2:0:0:0:
461,22,63114,6,0,L|449:117,2,76,2|2|2,2:0|2:0|2:0,0:0:0:0:
351,103,63698,2,0,L|365:216,2,80.750001540184,2|2|2,2:0|2:0|2:0,0:0:0:0:
462,193,64282,2,0,L|447:306,2,85.4999973907472,2|2|2,2:0|2:0|2:0,0:0:0:0:
353,287,64867,2,0,P|297:306|251:282,2,95,2|2|2,2:0|2:0|2:0,0:0:0:0:
460,254,65451,5,2,2:0:0:0:
479,98,65646,1,2,2:0:0:0:
323,79,65841,1,2,2:0:0:0:
304,234,66036,1,2,2:0:0:0:
395,170,66230,5,2,2:3:0:0:
304,234,66425,2,0,P|271:240|245:233,1,56.9999982604981,2|0,2:0|0:0,0:0:0:0:
233,207,66620,2,0,P|200:198|179:181,1,56.9999982604981,2|0,2:0|0:0,0:0:0:0:
103,98,66815,2,0,P|89:154|80:211,1,113.999996520996,2|2,2:0|2:0,2:0:0:0:
146,329,67204,5,2,2:0:0:0:
250,288,67399,2,0,P|285:273|307:277,1,56.9999982604981,2|0,2:3|0:0,2:0:0:0:
324,299,67594,2,0,P|362:300|380:313,1,56.9999982604981,2|0,2:0|0:0,0:0:0:0:
396,335,67789,1,2,2:0:0:0:
477,255,67984,2,0,B|506:239|509:210|509:210|502:269|508:332,1,170.999994781494,2|0,2:0|0:0,0:0:0:0:
424,186,68373,5,2,2:0:0:0:
501,38,68568,1,2,2:0:0:0:
424,186,68763,1,2,2:0:0:0:
360,31,68958,1,2,2:0:0:0:
500,124,69152,1,2,2:0:0:0:
329,118,69347,5,2,3:0:0:0:
313,124,69445,1,0,3:2:0:0:
296,129,69542,2,0,P|256:135|237:131,1,56.9999982604981,2|0,3:2|3:2,0:0:0:0:
156,40,69737,1,2,3:0:0:0:
172,34,69834,1,0,3:2:0:0:
189,29,69932,2,0,P|229:23|248:27,1,56.9999982604981
160,127,70126,6,0,L|151:190,3,61.7499971733095,2|0|2|0,3:2|3:2|3:2|3:2,0:0:0:0:
73,265,70516,2,0,L|82:328,3,61.7499971733095,2|0|0|0,3:2|3:2|0:0|0:0,2:0:0:0:
213,365,70906,6,0,L|294:375,1,76,2|0,3:0|3:2,2:0:0:0:
418,238,71101,2,0,B|409:210|427:186|427:186|435:214|418:238,1,95,2|0,3:0|2:0,2:0:0:0:
418,238,71685,5,2,2:3:0:0:
416,248,72075,5,2,2:3:0:0:
331,50,72464,5,6,3:2:0:0:
308,33,72562,1,0,0:0:0:0:
280,25,72659,1,0,0:0:0:0:
252,29,72756,1,0,2:0:0:0:
228,43,72854,2,0,P|191:60|170:89,3,56.9999982604981,10|2|2|0,2:0|2:0|2:0|2:0,0:0:0:0:
274,149,73243,5,2,3:2:0:0:
296,165,73341,1,2,2:0:0:0:
324,173,73438,1,2,2:0:0:0:
352,169,73536,1,2,2:0:0:0:
376,169,73633,2,0,P|413:185|434:214,3,56.9999982604981,10|2|2|2,2:0|2:0|2:0|2:0,2:0:0:0:
337,287,74023,5,2,3:2:0:0:
311,308,74120,1,0,0:0:0:0:
277,314,74217,1,0,0:0:0:0:
246,301,74315,1,0,2:0:0:0:
226,273,74412,1,10,2:0:0:0:
194,149,74607,1,2,2:0:0:0:
96,244,74802,6,0,B|51:273|45:332|45:332|48:271|5:236,1,213.750008153916,2|0,3:0|2:0,2:0:0:0:
102,131,75191,2,0,P|54:66|90:137,1,235.125002242327,10|0,2:0|2:0,2:0:0:0:
201,51,75581,5,2,3:0:0:0:
229,32,75678,1,0,0:0:0:0:
263,26,75776,1,0,0:0:0:0:
296,34,75873,1,0,2:0:0:0:
324,53,75971,2,0,P|358:82|376:108,3,61.7499971733095,8|0|0|0,2:0|0:0|0:0|2:0,2:0:0:0:
475,185,76360,5,2,3:2:0:0:
502,209,76458,1,2,2:0:0:0:
508,246,76555,1,2,2:0:0:0:
488,277,76652,1,2,2:0:0:0:
452,288,76750,1,10,2:0:0:0:
414,280,76847,1,2,2:0:0:0:
377,286,76945,1,2,2:0:0:0:
344,305,77042,1,2,2:0:0:0:
320,334,77139,6,0,P|288:358|247:358,3,61.7499971733095,2|0|0|2,3:2|0:0|2:0|2:0,2:0:0:0:
149,265,77529,2,0,P|181:241|222:241,3,61.7499971733095,10|2|2|2,2:0|2:0|2:0|2:0,2:0:0:0:
330,193,77919,5,2,3:0:0:0:
359,167,78016,1,0,0:0:0:0:
372,129,78114,1,0,0:0:0:0:
358,93,78211,1,0,2:0:0:0:
335,63,78308,5,10,2:0:0:0:
341,108,78406,1,0,0:0:0:0:
348,153,78503,1,0,0:0:0:0:
353,198,78601,1,0,2:0:0:0:
303,259,78698,6,0,P|252:257|270:324,1,180.49999518012999,6|0,3:2|0:0,2:0:0:0:
395,290,78990,1,0,2:0:0:0:
395,290,79088,2,0,L|412:365,1,76,10|2,2:0|2:0,0:0:0:0:
489,298,79282,2,0,L|506:223,1,76,2|0,2:0|2:0,2:0:0:0:
449,127,79477,5,2,3:2:0:0:
460,82,79575,1,2,2:0:0:0:
504,94,79672,1,2,2:0:0:0:
493,138,79769,1,2,2:0:0:0:
462,118,79867,5,10,2:0:0:0:
439,118,79964,1,2,2:0:0:0:
418,127,80062,1,2,2:0:0:0:
405,145,80159,1,2,2:0:0:0:
400,167,80256,6,0,P|365:187|327:181,3,66.4999979705811,2|0|0|0,3:2|0:0|0:0|2:0,0:0:0:0:
226,120,80646,2,0,P|191:100|153:106,3,66.4999979705811,10|0|2|0,2:0|2:0|2:0|2:0,2:0:0:0:
74,11,81036,6,0,P|54:94|49:242,1,228,2|0,3:0|2:0,2:0:0:0:
6,327,81425,2,0,B|65:372|111:318|107:324|156:271|217:315,1,228,10|0,2:0|2:0,2:0:0:0:
314,239,81815,6,0,P|353:218|388:223,3,61.7499971733095,2|0|0|0,3:0|0:0|0:0|2:0,2:0:0:0:
471,308,82204,2,0,P|432:329|397:324,3,61.7499971733095,8|0|2|0,2:0|2:0|2:0|2:0,2:0:0:0:
311,350,82594,5,2,3:2:0:0:
284,322,82691,1,2,2:0:0:0:
250,308,82789,1,2,2:0:0:0:
212,307,82886,1,2,2:0:0:0:
176,321,82984,2,0,P|136:338|105:333,3,71.2500027179719,10|2|2|2,2:0|2:0|2:0|2:0,0:0:0:0:
43,253,83373,5,2,3:2:0:0:
31,216,83471,1,0,0:0:0:0:
50,183,83568,1,2,2:0:0:0:
84,166,83665,1,2,2:0:0:0:
115,143,83763,1,10,2:0:0:0:
122,105,83860,1,0,0:0:0:0:
104,70,83958,1,0,2:0:0:0:
66,68,84055,1,0,0:0:0:0:
44,93,84152,6,0,P|147:101|246:111,1,199.499993911743,2|0,3:0|0:0,2:0:0:0:
346,123,84542,2,0,P|243:131|144:141,1,178.125,10|0,2:0|0:0,0:0:0:0:
90,206,84932,1,6,1:2:0:0:
89,214,86490,5,2,2:3:0:0:
221,198,88049,6,0,L|207:291,2,85.4999973907472,2|2|2,2:3|2:0|2:0,0:0:0:0:
316,131,88633,6,0,L|330:224,2,76,2|2|2,2:0|2:0|2:0,0:0:0:0:
408,71,89217,6,0,L|419:-4,2,66.4999979705811,2|2|2,2:0|2:0|2:0,0:0:0:0:
482,157,89802,1,2,2:0:0:0:
412,246,89997,5,2,2:0:0:0:
318,206,90191,1,2,0:0:0:0:
402,147,90386,1,2,2:3:0:0:
496,187,90581,1,2,2:0:0:0:
393,144,90776,6,0,L|351:148,1,42.75,2|0,2:3|0:0,2:0:0:0:
329,137,91750,6,0,L|322:111,2,23.75,0|2|0,0:0|2:3|0:0,0:0:0:0:
256,192,92042,12,0,97399,2:0:0:0:
