osu file format v14

[General]
AudioFilename: audio.mp3
AudioLeadIn: 0
PreviewTime: 31171
Countdown: 0
SampleSet: Soft
StackLeniency: 0.5
Mode: 0
LetterboxInBreaks: 0
WidescreenStoryboard: 1

[Editor]
DistanceSpacing: 0.8
BeatDivisor: 4
GridSize: 32
TimelineZoom: 1.5

[Metadata]
Title:Qilin's Prance
TitleUnicode:麟跃幽岩
Artist:Yu-Peng Chen @HOYO-MiX
ArtistUnicode:陈致逸 @HOYO-MiX
Creator:SatonoDiamond
Version:Ame's Extra
Source:Genshin Impact
Tags:video game qilins the stellar moments dimeng yuan thunderbird2678 instrumental electronic keevy nanoya thunderbird nodoro matsuyuki ame rk657 entsetzen ent ganyu mihoyo ost
BeatmapID:3597021
BeatmapSetID:1693168

[Difficulty]
HPDrainRate:5.4
CircleSize:4.5
OverallDifficulty:8.6
ApproachRate:9.2
SliderMultiplier:2
SliderTickRate:1

[Events]
//Background and Video events
0,0,"ganyu.jpg",0,0
//Break Periods
//Storyboard Layer 0 (Background)
//Storyboard Layer 1 (Fail)
//Storyboard Layer 2 (Pass)
//Storyboard Layer 3 (Foreground)
//Storyboard Layer 4 (Overlay)
//Storyboard Sound Samples

[TimingPoints]
769,784.313725490196,4,2,1,20,1,0
769,-142.857142857143,4,2,1,20,0,8
1553,827.586206896552,4,2,1,20,1,0
1553,-83.3333333333333,4,2,1,20,0,8
2242,612.244897959184,4,2,1,20,1,0
2446,710.059171597633,4,2,1,20,1,0
3511,882.352941176471,4,2,1,20,1,0
3952,714.285714285714,4,2,1,20,1,0
3952,-200,4,2,1,20,0,8
5380,882.352941176471,4,2,1,20,1,0
6262,772.200772200772,4,2,1,20,1,0
6262,-142.857142857143,4,2,1,20,0,8
7806,810.810810810811,4,2,1,20,1,0
8616,736.196319018405,4,2,1,20,1,0
9720,879.120879120879,4,2,1,20,1,0
10159,765.794511805999,4,2,1,20,1,0
10159,-250,4,2,1,20,0,8
11690,768,4,2,1,20,1,0
11690,-125,4,2,1,20,0,0
13994,731.707317073171,4,2,1,15,1,0
13994,-90.9090909090909,4,2,1,15,0,8
14603,705.882352941176,4,2,1,15,1,0
14838,748.129675810474,4,2,1,25,1,0
16334,769.230769230769,4,2,1,25,1,0
16334,-166.666666666667,4,2,1,25,0,0
17872,816.326530612245,4,2,1,25,1,0
18688,794.701986754967,4,2,1,25,1,0
18688,-142.857142857143,4,2,1,25,0,0
19482,-166.666666666667,4,2,1,25,0,0
20674,776.699029126214,4,2,1,25,1,0
21062,857.142857142857,4,2,1,20,1,0
21490,-81.3008130081301,4,2,1,20,0,0
22776,819.112627986348,4,2,1,25,1,0
24414,833.333333333333,4,2,1,25,1,0
24830,769.230769230769,4,2,1,25,1,0
24830,-66.6666666666667,4,2,1,25,0,0
25022,612.244897959184,4,2,1,25,1,0
25098,-57.1428571428571,4,2,1,25,0,0
25328,535.714285714286,4,2,1,25,1,0
25595,444.444444444444,4,2,1,25,1,0
25706,389.61038961039,4,2,1,30,1,0
25706,-125,4,2,1,30,0,0
28822,-100,4,2,2,25,0,0
29407,-83.3333333333333,4,2,2,35,0,0
29991,-71.4285714285714,4,2,2,45,0,0
30576,-100,4,2,2,50,0,0
30770,405.405405405405,4,2,2,5,1,8
30770,-100,4,2,2,5,0,0
31175,384.615384615385,4,2,2,30,1,8
31175,-250,4,2,2,30,0,0
31559,-83.3333333333333,4,2,2,30,0,0
31944,389.61038961039,4,2,1,65,1,8
31944,-66.6666666666667,4,2,1,65,0,0
32333,-76.9230769230769,4,2,1,65,0,0
33502,-58.8235294117647,4,2,1,65,0,0
33892,-76.9230769230769,4,2,1,65,0,0
34573,-86.9565217391304,4,2,1,65,0,0
35060,-58.8235294117647,4,2,1,65,0,0
35450,-76.9230769230769,4,2,1,65,0,0
37788,-68.9655172413793,4,2,1,65,0,0
38177,-66.6666666666667,4,2,1,65,0,0
38567,-76.9230769230769,4,2,1,65,0,0
40807,-86.9565217391304,4,2,1,65,0,0
41294,-58.8235294117647,4,2,1,65,0,0
41684,-76.9230769230769,4,2,1,65,0,0
44021,-166.666666666667,4,2,1,65,0,0
44411,-142.857142857143,4,2,1,40,0,0
46749,-166.666666666667,4,2,1,40,0,0
47528,-100,4,2,1,45,0,0
48307,-76.9230769230769,4,2,1,50,0,0
49086,-100,4,2,1,60,0,0
50255,-166.666666666667,4,2,1,45,0,0
50547,-166.666666666667,4,2,1,5,0,0
50645,731.707317073171,4,2,1,30,1,0
50645,-100,4,2,1,30,0,0
51376,625,4,2,1,30,1,8
51688,830.449826989619,4,2,1,30,1,8
51688,-125,4,2,1,30,0,0
53764,776.699029126214,4,2,1,30,1,0
53764,-125,4,2,1,30,0,0
54540,-100,4,2,1,30,0,0
55317,767.754318618042,4,2,1,30,1,8
56468,857.142857142857,4,2,1,30,1,8
56896,718.562874251497,4,2,1,30,1,0
56896,-166.666666666667,4,2,1,30,0,0
58333,750,4,2,1,25,1,8
58708,1016.94915254237,4,2,1,25,1,8
58877,731.707317073171,4,2,1,25,1,8
59120,845.070422535211,4,2,1,25,1,8
59683,857.755539671194,4,2,1,25,1,0
59683,-200,4,2,1,25,0,0
60004,-200,4,2,1,5,0,0
60540,-100,4,2,1,5,0,0
63114,389.61038961039,4,2,1,15,1,0
63114,-125,4,2,1,15,0,0
66230,-111.111111111111,4,2,1,20,0,0
66815,-111.111111111111,4,2,1,15,0,0
67399,-111.111111111111,4,2,1,25,0,0
67984,-111.111111111111,4,2,1,35,0,0
68568,-111.111111111111,4,2,1,30,0,0
68958,-111.111111111111,4,2,1,25,0,0
69347,-83.3333333333333,4,2,2,25,0,0
69737,-83.3333333333333,4,2,2,35,0,0
69932,-71.4285714285714,4,2,2,35,0,0
70321,-71.4285714285714,4,2,2,45,0,0
70516,-58.8235294117647,4,2,2,55,0,0
71101,-58.8235294117647,4,2,2,65,0,0
71198,-58.8235294117647,4,2,2,5,0,0
71685,-200,4,2,1,35,0,0
72075,-76.9230769230769,4,2,1,35,0,0
72464,-50,4,2,1,70,0,0
72756,-58.8235294117647,4,2,1,70,0,0
74023,-52.6315789473684,4,2,1,70,0,0
74412,-58.8235294117647,4,2,1,70,0,0
74802,-62.5,4,2,1,70,0,0
75191,-66.6666666666667,4,2,1,70,0,0
75581,-50,4,2,1,70,0,0
75971,-58.8235294117647,4,2,1,70,0,0
78308,-54.054054054054,4,2,1,70,0,0
78698,-50,4,2,1,70,0,0
79088,-58.8235294117647,4,2,1,70,0,0
81036,-50,4,2,1,70,0,0
81425,-66.6666666666667,4,2,1,70,0,0
81815,-45.4545454545455,4,2,1,70,0,0
82204,-58.8235294117647,4,2,1,70,0,0
84932,-200,4,2,1,55,0,0
87269,-285.714285714286,4,2,1,55,0,0
88049,-285.714285714286,4,2,1,45,0,0
88828,-285.714285714286,4,2,1,35,0,0
90386,-285.714285714286,4,2,1,25,0,0
90776,-285.714285714286,4,2,1,15,0,0
91847,-285.714285714286,4,2,1,25,0,0
97399,-285.714285714286,4,2,1,5,0,0

[Colours]
Combo1 : 237,241,160
Combo2 : 133,202,239
Combo3 : 175,117,146
Combo4 : 74,96,167
Combo5 : 201,237,246
Combo6 : 228,203,211
Combo7 : 51,65,116
Combo8 : 199,199,168

[HitObjects]
479,86,769,6,0,P|421:111|434:159,1,116.666663106283,2|0,2:0|0:0,2:0:0:0:
497,219,1553,2,0,P|433:188|325:170,1,159.999995117188,2|0,2:0|0:0,0:0:0:0:
257,257,2242,6,0,L|268:303,2,33.3333333333333,2|2|2,2:0|2:0|2:0,2:0:0:0:
257,257,3511,1,2,2:0:0:0:
189,343,3952,2,0,P|212:244|226:186,1,150,2|0,2:0|0:0,2:0:0:0:
183,81,5380,5,2,2:3:0:0:
183,81,6262,6,0,L|103:100,1,69.9999978637696,2|2,2:0|2:0,2:0:0:0:
13,61,7034,2,0,P|66:89|66:178,1,139.999995727539,2|2,2:0|2:0,2:0:0:0:
8,300,8616,5,2,2:3:0:0:
8,300,9720,1,2,2:0:0:0:
141,384,10159,2,0,B|125:317|106:257,1,120,2|0,2:2|0:0,2:0:0:0:
181,95,11690,6,0,B|262:79|243:168|334:150,1,160,2|2,2:3|2:0,2:0:0:0:
391,111,12842,1,2,2:0:0:0:
342,261,13226,6,0,P|421:283|400:334,1,133.333333333333,2|0,2:3|2:0,2:0:0:0:
501,237,13994,2,0,P|470:276|434:394,1,146.666671142578,2|0,2:0|0:0,2:0:0:0:
308,369,14603,5,0,2:0:0:0:
292,351,14720,1,0,0:0:0:0:
273,344,14838,2,0,B|195:358|135:375|135:375|72:326|129:276|129:276,1,250,2|0,2:3|0:0,2:0:0:0:
195,265,15960,1,2,2:3:0:0:
308,167,16334,6,0,P|289:251|271:355,1,179.999994506836,2|0,2:3|2:0,2:0:0:0:
187,215,17776,2,0,P|194:218|189:220,1,14.9999995422363,0|2,0:0|2:3,0:0:0:0:
63,106,18688,6,0,P|82:163|91:202,1,69.9999978637696,2|2,2:3|2:3,2:0:0:0:
223,39,19482,2,0,P|206:103|184:236,1,179.999994506836,2|2,2:3|2:3,2:0:0:0:
221,374,21062,5,2,2:3:0:0:
288,314,21276,1,2,2:0:0:0:
352,255,21490,6,0,B|305:247|327:222|274:210|274:210|294:164|334:175|334:175|311:134|355:101|355:101|404:121|394:162|394:162|415:118|466:133|466:133|480:183|443:201|443:201|483:203|492:252|492:252|452:283|423:261|423:261|412:305|389:324|382:307|353:319|351:363|362:371|380:358|373:339,1,779.99997619629,2|0,2:0|2:0,2:0:0:0:
372,354,24414,5,2,2:0:0:0:
352,255,24622,2,0,P|333:257|325:274,1,25,2|2,2:0|2:0,0:0:0:0:
256,318,24830,2,0,P|264:340|267:353,2,37.5000014305115,2|2|2,2:0|2:0|2:0,0:0:0:0:
146,384,25098,5,2,2:0:0:0:
149,376,25175,1,2,2:0:0:0:
150,360,25251,2,0,P|145:341|137:317,1,43.7500004172325,2|2,2:0|2:0,0:0:0:0:
198,268,25394,6,0,P|197:255|202:244,3,25,2|2|2|2,2:0|2:0|2:0|2:0,0:0:0:0:
195,162,25706,6,0,P|183:109|156:92,1,80,2|2,3:2|2:0,2:0:0:0:
195,162,26095,1,2,3:2:0:0:
321,46,26290,2,0,P|271:52|256:83,1,80,0|2,2:3|3:2,2:0:0:0:
321,46,26680,1,2,2:3:0:0:
362,184,26874,2,0,P|319:166|282:158,1,80,2|2,3:2|2:0,2:0:0:0:
362,184,27264,1,2,3:2:0:0:
421,69,27459,6,0,P|406:140|389:246,1,160,2|2,2:3|2:3,0:0:0:0:
438,364,28043,1,2,3:2:0:0:
499,240,28238,1,2,2:3:0:0:
351,298,28433,1,2,3:2:0:0:
438,364,28628,1,2,2:3:0:0:
248,365,28822,6,0,P|253:333|275:310,1,50,2|0,3:2|3:2,2:0:0:0:
358,238,29017,1,0,3:2:0:0:
371,270,29115,1,0,3:2:0:0:
351,298,29212,1,2,3:2:0:0:
336,266,29309,1,0,3:2:0:0:
358,238,29407,6,0,P|342:205|313:197,1,59.9999981689454,2|0,3:2|3:2,2:0:0:0:
192,130,29602,1,0,3:2:0:0:
185,169,29699,1,0,3:2:0:0:
211,202,29796,1,2,3:2:0:0:
220,162,29894,1,0,3:2:0:0:
192,130,29991,6,0,L|106:148,1,69.9999978637696,2|0,3:2|3:2,2:0:0:0:
61,311,30186,1,0,3:2:0:0:
113,290,30283,1,0,3:2:0:0:
80,244,30381,1,0,3:2:0:0:
27,265,30478,1,0,3:2:0:0:
61,311,30576,5,6,2:0:0:0:
304,171,31175,6,0,B|295:193|276:189|276:189|290:168|302:173,1,60,2|0,2:0|0:0,0:0:0:0:
348,105,31559,2,0,B|393:140|368:187|368:187|322:157|340:104,1,179.999994506836,2|0,2:0|0:0,0:0:0:0:
411,37,31944,6,0,P|340:72|268:67,1,150.000005722046,6|0,3:2|0:0,2:0:0:0:
190,42,32236,1,0,2:0:0:0:
190,42,32333,2,0,P|147:22|140:-1,1,64.9999970245363,0|0,1:0|0:0,2:0:0:0:
215,135,32528,2,0,P|180:145|151:178,1,64.9999970245363,2|0,2:0|2:0,0:0:0:0:
19,22,32723,6,0,P|56:111|68:167,1,129.999994049073,2|0,3:2|2:0,2:0:0:0:
37,232,33015,1,0,2:0:0:0:
37,232,33112,2,0,P|2:265|1:290,1,64.9999970245363,0|0,1:2|0:0,0:0:0:0:
106,349,33307,2,0,P|105:324|117:342,1,64.9999970245363,0|0,2:0|0:0,0:0:0:0:
287,161,33502,6,0,B|283:223|231:227|234:213|170:212|119:299|194:344|242:310|185:278|211:246|247:239,1,255.000004863739,2|0,3:2|0:0,2:0:0:0:
341,343,33892,6,0,P|300:321|263:316,1,64.9999970245363,2|0,1:2|0:0,2:0:0:0:
431,230,34086,2,0,P|391:254|368:284,1,64.9999970245363,2|0,2:0|2:0,0:0:0:0:
303,85,34281,2,0,P|375:107|373:172,1,129.999994049073,2|2,3:2|2:0,2:0:0:0:
431,230,34573,1,2,2:0:0:0:
431,230,34671,2,0,P|413:170|451:158,1,115.000002193451,2|2,1:2|2:0,2:0:0:0:
510,89,34963,1,2,2:0:0:0:
449,148,35060,6,0,P|367:159|274:182,1,170.000003242493,2|0,3:2|2:0,2:0:0:0:
225,113,35353,1,0,0:0:0:0:
225,113,35450,2,0,P|239:70|272:75,1,64.9999970245363,0|0,1:2|0:0,0:0:0:0:
364,22,35645,2,0,P|349:78|346:99,1,64.9999970245363,2|2,2:0|2:0,2:0:0:0:
265,206,35840,6,0,P|287:289|305:350,1,129.999994049073,2|0,3:2|2:0,2:0:0:0:
376,372,36132,1,0,2:0:0:0:
376,372,36229,2,0,P|392:335|375:315,1,64.9999970245363,0|0,1:2|2:0,2:0:0:0:
263,302,36424,2,0,P|215:315|190:325,1,64.9999970245363,2|0,2:0|2:0,2:0:0:0:
42,140,36619,5,2,3:2:0:0:
90,127,36716,1,0,0:0:0:0:
132,141,36814,1,0,2:0:0:0:
155,180,36911,1,0,2:0:0:0:
159,217,37008,1,0,1:2:0:0:
151,242,37106,1,0,2:0:0:0:
139,259,37203,1,0,2:0:0:0:
129,266,37301,1,0,2:0:0:0:
95,239,37398,6,0,L|121:95,1,129.999994049073,0|0,3:2|0:0,2:0:0:0:
59,36,37690,1,0,2:0:0:0:
59,36,37788,2,0,P|68:97|86:268,1,217.500006637573,0|0,1:2|2:0,2:0:0:0:
84,336,38177,6,0,P|156:355|191:289,1,150.000005722046,6|0,3:2|2:0,2:0:0:0:
186,211,38469,1,0,2:0:0:0:
186,211,38567,2,0,P|231:215|243:242,1,64.9999970245363,0|0,1:2|2:0,2:0:0:0:
311,255,38762,2,0,P|306:300|279:312,1,64.9999970245363,2|0,2:0|2:0,2:0:0:0:
288,145,38956,5,2,3:2:0:0:
339,153,39054,1,0,0:0:0:0:
378,175,39151,1,0,2:0:0:0:
401,206,39249,1,0,0:0:0:0:
410,230,39346,2,0,P|398:269|394:303,1,64.9999970245363,0|0,1:2|0:0,0:0:0:0:
485,317,39541,2,0,P|497:278|501:244,1,64.9999970245363,0|0,2:0|2:0,0:0:0:0:
475,76,39736,5,2,3:2:0:0:
416,73,39833,1,0,2:0:0:0:
372,88,39931,1,0,2:0:0:0:
340,111,40028,1,0,2:0:0:0:
326,133,40125,6,0,P|338:171|341:202,1,64.9999970245363,2|0,1:2|0:0,0:0:0:0:
187,228,40320,2,0,P|175:190|172:159,1,64.9999970245363,2|0,2:0|0:0,0:0:0:0:
349,277,40515,2,0,P|266:292|189:317,1,129.999994049073,2|2,3:2|2:0,2:0:0:0:
127,301,40807,1,2,2:0:0:0:
127,301,40905,2,0,B|126:285|110:274|110:274|142:271|161:303|146:331,1,115.000002193451,2|0,1:2|2:0,2:0:0:0:
85,384,41197,1,0,2:0:0:0:
18,325,41294,6,0,P|81:278|77:189,1,170.000003242493,2|0,3:2|2:0,2:0:0:0:
11,138,41586,1,0,0:0:0:0:
11,138,41684,2,0,P|48:125|61:88,1,64.9999970245363,0|0,1:2|0:0,0:0:0:0:
183,174,41879,2,0,P|148:140|117:137,1,64.9999970245363,2|0,2:0|2:0,2:0:0:0:
277,61,42073,6,0,P|345:43|384:-3,1,129.999994049073,2|0,3:2|2:0,2:0:0:0:
450,73,42366,1,0,0:0:0:0:
450,73,42463,2,0,P|412:82|412:104,1,64.9999970245363,0|0,1:2|0:0,0:0:0:0:
305,245,42658,1,2,2:0:0:0:
315,265,42755,1,2,2:0:0:0:
375,234,42853,5,2,3:2:0:0:
353,179,42950,1,2,2:0:0:0:
303,164,43047,1,2,2:0:0:0:
254,130,43145,5,2,2:0:0:0:
216,154,43242,1,2,1:2:0:0:
210,186,43340,1,2,2:0:0:0:
176,218,43437,5,2,2:0:0:0:
192,245,43534,1,2,2:0:0:0:
219,253,43632,6,0,P|200:325|186:385,1,129.999994049073,2|0,3:2|0:0,2:0:0:0:
140,295,43924,1,0,2:0:0:0:
140,295,44021,2,0,P|153:329|161:352,1,59.9999981689454,2|0,1:2|3:2,2:0:0:0:
117,123,44411,6,0,B|73:131|37:95|58:52|122:33|178:111|224:184|156:166|167:234|245:300|343:297|366:284|386:239|343:197|301:201|282:249,1,489.999985046387,6|0,0:0|0:0,0:0:0:0:
190,340,45969,6,0,B|111:359|55:378|55:378|65:350|91:341|112:350,1,209.999993591309,2|2,0:3|0:0,0:0:0:0:
318,227,46749,2,0,P|372:246|435:270,1,119.999996337891,2|2,0:0|0:0,0:0:0:0:
449,0,47528,6,0,B|408:15|408:15|396:33|396:33|355:51,1,100,2|0,3:2|1:2,2:0:0:0:
299,73,47820,1,0,2:0:0:0:
299,73,47918,1,0,3:2:0:0:
204,109,48112,1,2,1:2:0:0:
54,156,48307,6,0,B|96:171|96:171|117:202|117:202|163:216,1,129.999994049073,2|0,3:2|1:2,2:0:0:0:
245,239,48599,1,0,2:0:0:0:
245,239,48697,1,0,3:2:0:0:
425,344,48892,1,0,1:2:0:0:
420,324,48989,1,0,2:0:0:0:
415,304,49086,6,0,B|370:268|305:272|267:329|271:381|271:381|302:333|289:277|243:253,1,350,4|0,3:2|0:0,2:0:0:0:
179,213,49866,1,4,3:2:0:0:
11,306,50060,1,0,0:0:0:0:
0,384,50255,2,0,P|40:361|0:306,1,119.999996337891,2|2,0:0|0:0,0:0:0:0:
47,37,51376,5,2,2:0:0:0:
47,37,51688,2,0,P|177:58|416:110,1,360,2|0,2:0|0:0,0:0:0:0:
493,91,53764,2,0,P|430:120|437:177,1,120,2|0,2:0|2:0,2:0:0:0:
507,243,54540,6,0,P|488:298|469:377,1,100,2|2,0:0|2:0,0:0:0:0:
298,148,55317,2,0,B|269:189|282:244|342:267|342:267|334:269|334:269|392:294|409:345|366:398,1,300,2|2,2:0|2:0,0:0:0:0:
399,206,56896,6,0,B|387:255|330:272|331:242|265:281|270:354,1,209.999993591309,2|0,2:3|2:0,2:0:0:0:
365,347,58333,6,0,P|395:336|416:334,2,33.3333333333333,2|2|2,2:3|2:3|2:3,0:0:0:0:
270,352,58708,5,2,2:3:0:0:
148,294,58877,5,2,2:3:0:0:
242,190,59120,5,2,2:3:0:0:
195,70,59401,5,2,2:3:0:0:
257,6,59683,6,0,P|284:26|254:9,1,100,10|0,2:3|0:0,2:0:0:0:
319,169,63114,6,0,P|359:161|365:198,1,80,2|2,2:0|2:0,0:0:0:0:
319,169,63503,1,2,2:0:0:0:
260,127,63698,2,0,P|273:88|308:101,1,80,2|2,2:0|2:0,0:0:0:0:
260,127,64088,1,2,2:0:0:0:
188,154,64282,2,0,P|161:123|190:99,1,80,2|2,2:0|2:0,0:0:0:0:
188,154,64672,1,2,2:0:0:0:
240,209,64867,6,0,P|221:294|209:393,1,160,2|2,2:0|2:0,0:0:0:0:
290,305,65451,1,2,2:0:0:0:
190,262,65646,1,2,2:0:0:0:
116,334,65841,1,2,2:0:0:0:
109,363,66036,1,2,2:0:0:0:
15,174,66230,6,0,P|76:187|82:223,1,89.9999972534181,2|2,2:3|2:0,2:0:0:0:
15,174,66620,1,2,2:0:0:0:
136,70,66815,2,0,P|155:129|127:152,1,89.9999972534181,2|2,2:0|2:0,2:0:0:0:
136,70,67204,1,2,2:0:0:0:
235,181,67399,2,0,P|193:227|159:214,1,89.9999972534181,2|2,2:3|2:0,2:0:0:0:
235,181,67789,1,2,2:0:0:0:
329,82,67984,6,0,P|439:98|506:112,1,179.999994506836,2|2,2:0|2:0,0:0:0:0:
371,295,68568,1,2,2:0:0:0:
304,184,68763,1,2,2:0:0:0:
413,94,68958,1,2,2:0:0:0:
423,63,69152,1,2,2:0:0:0:
208,1,69347,6,0,P|198:38|191:82,1,59.9999981689454,2|0,3:0|3:2,0:0:0:0:
90,135,69542,1,2,3:2:0:0:
69,105,69639,1,0,3:2:0:0:
75,69,69737,1,2,3:0:0:0:
94,99,69834,1,0,3:2:0:0:
90,135,69932,6,0,P|99:172|107:218,1,69.9999978637696
231,259,70126,1,2,3:2:0:0:
258,226,70224,1,0,3:2:0:0:
251,184,70321,1,2,3:2:0:0:
224,216,70419,1,0,3:2:0:0:
231,259,70516,6,0,P|221:296|212:350,1,85.0000016212464,2|0,3:2|3:2,2:0:0:0:
50,368,70711,1,0,0:0:0:0:
2,319,70808,1,0,0:0:0:0:
65,293,70906,1,2,3:0:0:0:
113,340,71003,1,0,3:2:0:0:
50,368,71101,5,2,3:0:0:0:
397,185,71685,6,0,B|381:190|372:209|372:209|384:193|410:191,1,75,2|0,2:3|0:0,0:0:0:0:
459,94,72075,2,0,P|427:201|407:297,1,194.999991073609,2|0,2:3|0:0,0:0:0:0:
306,360,72464,6,0,B|328:350|342:311|308:287|287:289|287:289|168:321,1,200,6|0,3:2|0:0,2:0:0:0:
99,371,72756,1,0,2:0:0:0:
99,371,72854,2,0,B|63:340|63:340|88:291,1,85.0000016212464,10|2,2:0|2:0,0:0:0:0:
255,210,73049,2,0,P|243:256|231:307,1,85.0000016212464,2|0,2:0|2:0,2:0:0:0:
83,47,73243,5,2,3:2:0:0:
119,105,73341,1,2,2:0:0:0:
139,151,73438,1,2,2:0:0:0:
151,191,73536,1,2,2:0:0:0:
156,215,73633,2,0,P|101:224|83:193,1,85.0000016212464,10|2,2:0|2:0,2:0:0:0:
114,72,73828,2,0,P|169:63|187:94,1,85.0000016212464,2|2,2:0|2:0,2:0:0:0:
276,294,74023,6,0,B|352:310|387:240|358:239|384:172|457:144|520:183,1,284.999992389679,2|0,3:2|2:0,2:0:0:0:
476,292,74412,6,0,P|469:265|487:292,1,85.0000016212464,10|0,2:0|2:0,2:0:0:0:
287,210,74607,2,0,P|294:183|276:210,1,85.0000016212464,2|0,2:0|2:0,2:0:0:0:
477,32,74802,2,0,P|409:33|401:127,1,160,2|0,3:0|0:0,2:0:0:0:
288,88,75094,1,0,2:0:0:0:
288,88,75191,2,0,P|369:118|371:192,1,150.000005722046,10|0,2:0|0:0,2:0:0:0:
512,219,75484,1,0,2:0:0:0:
476,292,75581,6,0,P|379:266|280:254,1,200,2|0,3:0|0:0,2:0:0:0:
205,324,75873,1,0,2:0:0:0:
205,324,75971,2,0,P|160:359|163:398,1,85.0000016212464,8|0,2:0|0:0,2:0:0:0:
66,194,76165,2,0,P|104:229|118:290,1,85.0000016212464,0|0,0:0|2:0,0:0:0:0:
344,77,76360,5,2,3:2:0:0:
276,85,76458,1,2,2:0:0:0:
226,96,76555,1,2,2:0:0:0:
186,109,76652,1,2,2:0:0:0:
163,120,76750,2,0,P|188:75|177:43,1,85.0000016212464,10|2,2:0|2:0,2:0:0:0:
30,23,76945,2,0,P|4:67|15:99,1,85.0000016212464,2|2,2:0|2:0,2:0:0:0:
210,251,77139,5,2,3:2:0:0:
266,269,77237,1,2,0:0:0:0:
320,245,77334,1,2,2:0:0:0:
341,189,77432,1,2,2:0:0:0:
261,180,77529,5,8,2:0:0:0:
254,185,77626,1,0,2:0:0:0:
258,192,77724,1,0,2:0:0:0:
266,189,77821,1,0,2:0:0:0:
210,251,77919,6,0,P|175:220|169:184,1,85.0000016212464,2|0,3:0|0:0,2:0:0:0:
142,53,78114,1,0,0:0:0:0:
149,37,78211,1,0,2:0:0:0:
157,22,78308,2,0,B|190:-6|250:28|233:127|157:109|178:70|111:73|70:118|73:180,1,277.499998941422,10|0,2:0|0:0,0:0:0:0:
0,271,78698,6,0,B|34:315|9:359|18:369|18:369|32:366|34:315|102:300,1,200,6|0,3:2|0:0,2:0:0:0:
226,335,78990,1,0,2:0:0:0:
226,335,79088,2,0,B|211:351|224:373|219:378|219:378|212:376|211:351|177:343,1,85.0000016212464,10|2,2:0|2:0,0:0:0:0:
155,215,79282,2,0,B|171:231|158:253|163:258|163:258|170:256|171:231|205:223,1,85.0000016212464,2|0,2:0|2:0,2:0:0:0:
456,126,79477,5,2,3:2:0:0:
403,69,79575,1,2,2:0:0:0:
335,61,79672,1,2,2:0:0:0:
283,89,79769,1,2,2:0:0:0:
259,134,79867,1,10,2:0:0:0:
262,176,79964,1,2,2:0:0:0:
277,196,80062,1,2,2:0:0:0:
292,203,80159,1,2,2:0:0:0:
356,152,80256,5,2,3:2:0:0:
308,103,80354,1,0,0:0:0:0:
249,95,80451,1,0,0:0:0:0:
208,108,80549,1,0,2:0:0:0:
184,131,80646,6,0,P|163:154|172:124,1,85.0000016212464,10|0,2:0|2:0,2:0:0:0:
53,292,80841,2,0,P|76:312|61:285,1,85.0000016212464,2|0,2:0|2:0,2:0:0:0:
0,178,81036,2,0,P|76:199|190:256,1,200,2|0,3:0|0:0,2:0:0:0:
272,319,81328,1,0,2:0:0:0:
272,319,81425,2,0,B|242:341|240:386|240:386|216:346|180:339,1,150.000005722046,10|0,2:0|0:0,2:0:0:0:
292,208,81717,1,0,2:0:0:0:
346,275,81815,6,0,B|411:290|472:310|472:310|530:279|493:234|493:234,1,220.000006713867,2|0,3:0|0:0,2:0:0:0:
369,180,82107,1,0,2:0:0:0:
369,180,82204,2,0,P|321:189|298:222,1,85.0000016212464,8|0,2:0|2:0,2:0:0:0:
452,88,82399,2,0,P|492:102|493:142,1,85.0000016212464,2|0,2:0|2:0,2:0:0:0:
270,119,82594,5,2,3:2:0:0:
257,69,82691,1,2,2:0:0:0:
307,59,82789,1,2,2:0:0:0:
320,107,82886,1,2,2:0:0:0:
270,119,82984,5,10,2:0:0:0:
204,136,83081,1,2,2:0:0:0:
220,201,83178,1,2,2:0:0:0:
286,186,83276,1,2,2:0:0:0:
204,136,83373,5,2,3:2:0:0:
130,158,83471,1,0,0:0:0:0:
92,224,83568,1,2,2:0:0:0:
110,297,83665,1,2,2:0:0:0:
173,341,83763,5,10,2:0:0:0:
177,324,83860,1,0,0:0:0:0:
182,307,83958,1,0,2:0:0:0:
187,290,84055,1,0,0:0:0:0:
250,337,84152,5,2,3:0:0:0:
305,376,84250,1,0,2:0:0:0:
366,348,84347,1,2,2:0:0:0:
313,303,84445,1,0,2:0:0:0:
250,337,84542,5,10,2:0:0:0:
205,360,84639,1,0,0:0:0:0:
168,329,84737,1,2,3:2:0:0:
211,309,84834,1,2,2:3:0:0:
250,337,84932,6,0,P|279:216|342:0,1,350,6|0,1:2|2:0,2:0:0:0:
489,234,86490,2,0,P|473:180|449:81,1,150,2|2,2:3|2:0,0:0:0:0:
353,312,87269,2,0,P|366:268|381:206,1,104.999996795654,2|0,2:3|0:0,2:0:0:0:
434,317,88049,5,2,2:3:0:0:
374,384,88243,1,2,2:0:0:0:
286,357,88438,1,2,2:0:0:0:
229,242,88633,5,2,2:0:0:0:
258,230,88828,1,2,2:0:0:0:
277,254,89023,1,2,2:0:0:0:
190,361,89217,5,2,2:0:0:0:
158,278,89412,1,2,2:0:0:0:
90,344,89607,1,2,2:0:0:0:
58,261,89802,1,2,2:0:0:0:
190,361,89997,5,2,2:0:0:0:
265,371,90191,1,2,0:0:0:0:
312,324,90386,1,2,2:3:0:0:
318,276,90581,1,2,2:0:0:0:
316,250,90776,2,0,P|294:169|273:87,1,157.499995193482,2|0,2:3|0:0,2:0:0:0:
273,85,91750,6,0,P|272:76|271:85,1,17.4999994659424,0|2,0:0|2:3,0:0:0:0:
256,192,91945,12,0,97399,2:0:0:0:
