osu file format v14

[General]
AudioFilename: audio.mp3
AudioLeadIn: 0
PreviewTime: 71576
Countdown: 0
SampleSet: Normal
StackLeniency: 0.7
Mode: 1
LetterboxInBreaks: 0
WidescreenStoryboard: 1

[Editor]
DistanceSpacing: 1.1
BeatDivisor: 8
GridSize: 32
TimelineZoom: 2.699999

[Metadata]
Title:Qilin's Prance
TitleUnicode:麟躍幽岩
Artist:Yu-Peng Chen @HOYO-MiX
ArtistUnicode:陈致逸 @HOYO-MiX
Creator:Hivie
Version:Celestial Shower
Source:Genshin Impact
Tags:原神 Gānyǔ theme ost electronic instrumental miHoYo video game soundtrack Ganyu 甘雨 The Stellar Moments Emre1504 麟躍幽岩 輝く星々 qilins
BeatmapID:2941623
BeatmapSetID:1428834

[Difficulty]
HPDrainRate:6
CircleSize:2
OverallDifficulty:6
ApproachRate:9
SliderMultiplier:1.4
SliderTickRate:1

[Events]
//Background and Video events
0,0,"ganyu my beloved.jpg",0,90
//Break Periods
2,50635,53152
2,59861,62502
//Storyboard Layer 0 (Background)
//Storyboard Layer 1 (Fail)
//Storyboard Layer 2 (Pass)
//Storyboard Layer 3 (Foreground)
//Storyboard Layer 4 (Overlay)
//Storyboard Sound Samples

[TimingPoints]
765,389.61038961039,4,1,0,20,1,0
765,-200,4,1,0,20,0,0
25651,-125,4,1,0,50,0,0
28768,-111.111111111111,4,1,0,50,0,0
28866,-109.430142532761,4,1,0,50,0,0
28963,-107.799277744839,4,1,0,50,0,0
29061,-106.216309514326,4,1,0,50,0,0
29158,-104.679158379567,4,1,0,50,0,0
29255,-103.18597001003,4,1,0,50,0,0
29353,-101.734677994484,4,1,0,50,0,0
29450,-100.323644075788,4,1,0,50,0,0
29548,-98.9512160609698,4,1,0,50,0,0
29645,-97.6158309449993,4,1,0,50,0,0
29742,-96.3160089727994,4,1,0,50,0,0
29840,-95.0503481694253,4,1,0,50,0,0
29937,-93.8175192959183,4,1,0,50,0,0
30035,-92.6162611926752,4,1,0,50,0,0
30132,-91.4454600986879,4,1,0,50,0,0
30229,-90.3038091049719,4,1,0,50,0,0
30327,-89.190312505017,4,1,0,50,0,0
30424,-88.1039415060312,4,1,0,50,0,0
30522,-87.0437168363439,4,1,0,50,0,0
31106,-100,4,1,0,30,0,0
31885,-100,4,1,0,70,0,0
45863,-125,4,1,0,70,0,0
47421,-100,4,1,0,70,0,0
50538,-100,4,1,0,20,0,0
53752,779.220779220779,4,1,0,20,1,0
53752,-50,4,1,0,20,0,0
59596,-100,4,1,0,30,0,0
63102,389.61038961039,4,1,0,30,1,0
63102,-142.857142857143,4,1,0,30,0,0
66170,-125,4,1,0,40,0,0
69285,-111.111111111111,4,1,0,50,0,0
69383,-109.430142532761,4,1,0,50,0,0
69480,-107.799277744839,4,1,0,50,0,0
69578,-106.216309514326,4,1,0,50,0,0
69675,-104.679158379567,4,1,0,50,0,0
69772,-103.18597001003,4,1,0,50,0,0
69870,-101.734677994484,4,1,0,50,0,0
69967,-100.323644075788,4,1,0,50,0,0
70065,-98.9512160609698,4,1,0,50,0,0
70162,-97.6158309449993,4,1,0,50,0,0
70259,-96.3160089727994,4,1,0,50,0,0
70357,-95.0503481694253,4,1,0,50,0,0
70454,-93.8175192959183,4,1,0,50,0,0
70552,-92.6162611926752,4,1,0,50,0,0
70649,-91.4454600986879,4,1,0,50,0,0
70746,-90.3038091049719,4,1,0,50,0,0
70844,-89.190312505017,4,1,0,50,0,0
70941,-88.1039415060312,4,1,0,50,0,0
71039,-87.0437168363439,4,1,0,50,0,0
72403,-100,4,1,0,70,0,0
72452,389.61038961039,4,1,0,70,1,1
72452,-83.3333333333333,4,1,0,70,0,1
84919,-83.3333333333333,4,1,0,70,0,0
86089,-111.111111111111,4,1,0,60,0,0

[HitObjects]
256,192,25700,5,8,0:0:0:0:
256,192,25894,1,0,0:0:0:0:
256,192,26089,1,0,0:0:0:0:
256,192,26284,1,8,0:0:0:0:
256,192,26479,1,0,0:0:0:0:
256,192,26674,1,8,0:0:0:0:
256,192,26868,1,8,0:0:0:0:
256,192,27063,1,0,0:0:0:0:
256,192,27258,1,8,0:0:0:0:
256,192,27453,1,8,0:0:0:0:
256,192,27648,1,0,0:0:0:0:
256,192,27842,1,8,0:0:0:0:
256,192,28037,1,8,0:0:0:0:
256,192,28232,1,8,0:0:0:0:
256,192,28427,1,0,0:0:0:0:
256,192,28622,1,0,0:0:0:0:
256,192,28816,1,8,0:0:0:0:
256,192,28914,1,0,0:0:0:0:
256,192,29011,1,0,0:0:0:0:
256,192,29109,1,0,0:0:0:0:
256,192,29206,1,8,0:0:0:0:
256,192,29303,1,0,0:0:0:0:
256,192,29401,1,8,0:0:0:0:
256,192,29498,1,8,0:0:0:0:
256,192,29596,1,0,0:0:0:0:
256,192,29693,1,0,0:0:0:0:
256,192,29790,1,8,0:0:0:0:
256,192,29888,1,0,0:0:0:0:
256,192,29985,1,8,0:0:0:0:
256,192,30083,1,8,0:0:0:0:
256,192,30180,1,0,0:0:0:0:
256,192,30277,1,0,0:0:0:0:
256,192,30375,1,8,0:0:0:0:
256,192,30472,1,0,0:0:0:0:
256,192,30570,1,8,0:0:0:0:
256,96,31933,1,12,0:0:0:0:
256,192,32226,1,0,0:0:0:0:
256,192,32323,1,0,0:0:0:0:
256,192,32518,1,8,0:0:0:0:
256,192,32713,1,0,0:0:0:0:
256,192,32907,1,0,0:0:0:0:
256,192,33005,1,8,0:0:0:0:
256,192,33102,1,0,0:0:0:0:
256,192,33297,1,0,0:0:0:0:
256,192,33492,1,8,0:0:0:0:
256,192,33687,1,0,0:0:0:0:
256,192,33881,1,8,0:0:0:0:
256,192,33979,1,8,0:0:0:0:
256,192,34076,1,0,0:0:0:0:
256,192,34174,1,0,0:0:0:0:
256,192,34271,1,8,0:0:0:0:
256,192,34466,1,0,0:0:0:0:
256,192,34661,1,0,0:0:0:0:
256,192,34758,1,0,0:0:0:0:
256,192,34855,1,0,0:0:0:0:
256,192,34953,1,0,0:0:0:0:
256,192,35050,1,8,0:0:0:0:
256,192,35342,1,0,0:0:0:0:
256,192,35440,1,0,0:0:0:0:
256,192,35635,1,8,0:0:0:0:
256,192,35829,1,8,0:0:0:0:
256,192,36024,1,0,0:0:0:0:
256,192,36122,1,8,0:0:0:0:
256,192,36219,1,0,0:0:0:0:
256,192,36414,1,0,0:0:0:0:
256,192,36609,1,8,0:0:0:0:
256,192,36706,1,0,0:0:0:0:
256,192,36803,1,0,0:0:0:0:
256,192,36998,1,8,0:0:0:0:
256,192,37193,1,0,0:0:0:0:
256,192,37388,1,8,0:0:0:0:
256,192,37583,1,0,0:0:0:0:
256,192,37680,1,0,0:0:0:0:
256,192,37777,1,0,0:0:0:0:
256,192,37972,1,0,0:0:0:0:
256,192,38167,1,8,0:0:0:0:
256,192,38459,1,0,0:0:0:0:
256,192,38557,1,0,0:0:0:0:
256,192,38752,1,8,0:0:0:0:
256,192,38946,1,0,0:0:0:0:
256,192,39141,1,0,0:0:0:0:
256,192,39239,1,8,0:0:0:0:
256,192,39336,1,0,0:0:0:0:
256,192,39531,1,0,0:0:0:0:
256,192,39726,1,8,0:0:0:0:
256,192,39920,1,0,0:0:0:0:
256,192,40115,1,8,0:0:0:0:
256,192,40213,1,8,0:0:0:0:
256,192,40310,1,0,0:0:0:0:
256,192,40407,1,0,0:0:0:0:
256,192,40505,1,8,0:0:0:0:
256,192,40700,1,0,0:0:0:0:
256,192,40894,1,0,0:0:0:0:
256,192,40992,1,8,0:0:0:0:
256,192,41089,1,0,0:0:0:0:
256,192,41187,1,0,0:0:0:0:
256,192,41284,1,8,0:0:0:0:
256,192,41576,1,0,0:0:0:0:
256,192,41674,1,0,0:0:0:0:
256,192,41868,1,8,0:0:0:0:
256,192,42063,1,8,0:0:0:0:
256,192,42258,1,0,0:0:0:0:
256,192,42355,1,8,0:0:0:0:
256,192,42453,1,0,0:0:0:0:
256,192,42648,1,0,0:0:0:0:
256,192,42842,1,8,0:0:0:0:
256,192,42940,1,0,0:0:0:0:
256,192,43037,1,8,0:0:0:0:
256,192,43135,1,8,0:0:0:0:
256,192,43232,1,0,0:0:0:0:
256,192,43329,1,8,0:0:0:0:
256,192,43427,1,0,0:0:0:0:
256,192,43524,1,0,0:0:0:0:
256,192,43622,1,8,0:0:0:0:
256,192,43816,1,0,0:0:0:0:
256,192,43914,1,0,0:0:0:0:
256,192,44011,1,0,0:0:0:0:
256,192,44206,1,0,0:0:0:0:
256,96,44401,1,12,0:0:0:0:
256,192,45959,1,8,0:0:0:0:
256,192,46739,1,8,0:0:0:0:
256,192,47518,1,0,0:0:0:0:
256,192,47713,1,0,0:0:0:0:
256,192,47810,1,8,0:0:0:0:
256,192,47907,1,0,0:0:0:0:
256,192,48102,1,8,0:0:0:0:
256,192,48297,1,8,0:0:0:0:
256,192,48492,1,0,0:0:0:0:
256,192,48687,1,8,0:0:0:0:
256,192,48784,1,0,0:0:0:0:
256,192,48881,1,8,0:0:0:0:
256,96,49076,1,12,0:0:0:0:
256,96,49855,1,4,0:0:0:0:
256,192,53752,12,0,56868,0:0:0:0:
256,192,59661,5,8,0:0:0:0:
256,192,63102,5,8,0:0:0:0:
256,192,63491,1,0,0:0:0:0:
256,192,63686,1,8,0:0:0:0:
256,192,63881,1,0,0:0:0:0:
256,192,64076,1,8,0:0:0:0:
256,192,64270,1,8,0:0:0:0:
256,192,64660,1,8,0:0:0:0:
256,192,64855,1,8,0:0:0:0:
256,192,65050,1,0,0:0:0:0:
256,192,65244,1,8,0:0:0:0:
256,192,65439,1,8,0:0:0:0:
256,192,65634,1,8,0:0:0:0:
256,192,65829,1,0,0:0:0:0:
256,192,66218,5,8,0:0:0:0:
256,192,66413,1,0,0:0:0:0:
256,192,66608,1,0,0:0:0:0:
256,192,66803,1,8,0:0:0:0:
256,192,66998,1,0,0:0:0:0:
256,192,67192,1,8,0:0:0:0:
256,192,67387,1,8,0:0:0:0:
256,192,67582,1,0,0:0:0:0:
256,192,67777,1,8,0:0:0:0:
256,192,67972,1,8,0:0:0:0:
256,192,68166,1,0,0:0:0:0:
256,192,68361,1,8,0:0:0:0:
256,192,68556,1,8,0:0:0:0:
256,192,68751,1,8,0:0:0:0:
256,192,68946,1,0,0:0:0:0:
256,192,69140,1,0,0:0:0:0:
256,192,69335,1,8,0:0:0:0:
256,192,69433,1,0,0:0:0:0:
256,192,69530,1,0,0:0:0:0:
256,192,69627,1,0,0:0:0:0:
256,192,69725,1,8,0:0:0:0:
256,192,69822,1,0,0:0:0:0:
256,192,69920,1,8,0:0:0:0:
256,192,70017,1,8,0:0:0:0:
256,192,70114,1,0,0:0:0:0:
256,192,70212,1,0,0:0:0:0:
256,192,70309,1,8,0:0:0:0:
256,192,70407,1,0,0:0:0:0:
256,192,70504,1,8,0:0:0:0:
256,192,70602,1,8,0:0:0:0:
256,192,70699,1,0,0:0:0:0:
256,192,70796,1,0,0:0:0:0:
256,192,70894,1,8,0:0:0:0:
256,192,70991,1,0,0:0:0:0:
256,192,71089,1,8,0:0:0:0:
256,192,72452,1,0,0:0:0:0:
256,192,72549,1,8,0:0:0:0:
256,192,72646,1,0,0:0:0:0:
256,192,72744,1,0,0:0:0:0:
256,192,72841,1,8,0:0:0:0:
256,192,73036,1,8,0:0:0:0:
256,192,73133,1,8,0:0:0:0:
256,192,73231,1,0,0:0:0:0:
256,192,73328,1,0,0:0:0:0:
256,192,73426,1,8,0:0:0:0:
256,192,73620,1,0,0:0:0:0:
256,192,73815,1,8,0:0:0:0:
256,192,73913,1,8,0:0:0:0:
256,192,74010,1,0,0:0:0:0:
256,192,74205,1,0,0:0:0:0:
256,192,74400,1,8,0:0:0:0:
256,192,74497,1,0,0:0:0:0:
256,192,74594,1,8,0:0:0:0:
256,192,74692,1,8,0:0:0:0:
256,192,74789,1,0,0:0:0:0:
256,192,74984,1,8,0:0:0:0:
256,192,75179,1,0,0:0:0:0:
256,192,75276,1,0,0:0:0:0:
256,192,75374,1,0,0:0:0:0:
256,192,75471,1,0,0:0:0:0:
256,192,75568,1,8,0:0:0:0:
256,192,75763,1,0,0:0:0:0:
256,192,75958,1,0,0:0:0:0:
256,192,76153,1,8,0:0:0:0:
256,192,76250,1,0,0:0:0:0:
256,192,76348,1,8,0:0:0:0:
256,192,76445,1,8,0:0:0:0:
256,192,76542,1,0,0:0:0:0:
256,192,76640,1,8,0:0:0:0:
256,192,76737,1,0,0:0:0:0:
256,192,76932,1,0,0:0:0:0:
256,192,77127,1,8,0:0:0:0:
256,192,77224,1,8,0:0:0:0:
256,192,77322,1,0,0:0:0:0:
256,192,77516,1,8,0:0:0:0:
256,192,77614,1,0,0:0:0:0:
256,192,77711,1,0,0:0:0:0:
256,192,77906,1,8,0:0:0:0:
256,192,78101,1,0,0:0:0:0:
256,192,78296,1,8,0:0:0:0:
256,192,78490,1,0,0:0:0:0:
256,192,78588,1,0,0:0:0:0:
256,192,78685,1,8,0:0:0:0:
256,192,78783,1,8,0:0:0:0:
256,192,78880,1,0,0:0:0:0:
256,192,79075,1,8,0:0:0:0:
256,192,79172,1,0,0:0:0:0:
256,192,79270,1,8,0:0:0:0:
256,192,79367,1,8,0:0:0:0:
256,192,79464,1,8,0:0:0:0:
256,192,79562,1,0,0:0:0:0:
256,192,79659,1,0,0:0:0:0:
256,192,79854,1,8,0:0:0:0:
256,192,79952,1,0,0:0:0:0:
256,192,80049,1,0,0:0:0:0:
256,192,80244,1,8,0:0:0:0:
256,192,80341,1,8,0:0:0:0:
256,192,80439,1,0,0:0:0:0:
256,192,80633,1,8,0:0:0:0:
256,192,80828,1,0,0:0:0:0:
256,192,81023,1,8,0:0:0:0:
256,192,81120,1,0,0:0:0:0:
256,192,81218,1,0,0:0:0:0:
256,192,81315,1,0,0:0:0:0:
256,192,81413,1,8,0:0:0:0:
256,192,81607,1,0,0:0:0:0:
256,192,81802,1,8,0:0:0:0:
256,192,81997,1,0,0:0:0:0:
256,192,82094,1,0,0:0:0:0:
256,192,82192,1,0,0:0:0:0:
256,192,82387,1,8,0:0:0:0:
256,192,82581,1,0,0:0:0:0:
256,192,82679,1,8,0:0:0:0:
256,192,82776,1,0,0:0:0:0:
256,192,82874,1,0,0:0:0:0:
256,192,82971,1,8,0:0:0:0:
256,192,83068,1,8,0:0:0:0:
256,192,83166,1,0,0:0:0:0:
256,192,83361,1,8,0:0:0:0:
256,192,83458,1,8,0:0:0:0:
256,192,83555,1,0,0:0:0:0:
256,192,83750,1,8,0:0:0:0:
256,192,83848,1,0,0:0:0:0:
256,192,83945,1,0,0:0:0:0:
256,192,84140,1,8,0:0:0:0:
256,192,84237,1,8,0:0:0:0:
256,192,84335,1,0,0:0:0:0:
256,192,84432,1,0,0:0:0:0:
256,192,84529,1,8,0:0:0:0:
256,192,84724,1,0,0:0:0:0:
256,96,84919,1,12,0:0:0:0:
256,192,86477,1,8,0:0:0:0:
256,192,87257,1,0,0:0:0:0:
256,192,87646,1,0,0:0:0:0:
256,192,88036,1,8,0:0:0:0:
256,192,88231,12,0,91932,0:0:0:0:
