osu file format v14

[General]
AudioFilename: audio.mp3
AudioLeadIn: 0
PreviewTime: 16470
Countdown: 0
SampleSet: Soft
StackLeniency: 0.7
Mode: 2
LetterboxInBreaks: 0
WidescreenStoryboard: 1

[Editor]
DistanceSpacing: 1
BeatDivisor: 4
GridSize: 4
TimelineZoom: 2

[Metadata]
Title:Preserver of Fortune
TitleUnicode:度厄童子
Artist:Yu-Peng Chen @HOYO-MiX
ArtistUnicode:陈致逸 @HOYO-MiX
Creator:bigh
Version:Salad
Source:Genshin Impact
Tags:原神 七七 Qīqī Qiqi Nana Seven-Seven Seven Theme The Stellar Moments Soundtrack Mihoyo Cryo OST Liyue electronic video game instrumental gacha kukkai shurelia
BeatmapID:3294449
BeatmapSetID:1613181

[Difficulty]
HPDrainRate:3
CircleSize:4
OverallDifficulty:7
ApproachRate:7
SliderMultiplier:1.8
SliderTickRate:0.5

[Events]
//Background and Video events
0,0,"bg.jpg",0,0
//Break Periods
//Storyboard Layer 0 (Background)
//Storyboard Layer 1 (Fail)
//Storyboard Layer 2 (Pass)
//Storyboard Layer 3 (Foreground)
//Storyboard Layer 4 (Overlay)
//Storyboard Sound Samples

[TimingPoints]
317,576.923076923077,4,2,1,37,1,0
7817,-100,4,2,2,57,0,0
7961,-100,4,2,1,7,0,0
16470,-83.3333333333333,4,2,1,67,0,0
25701,-83.3333333333333,4,2,1,67,0,0
31470,576.923076923077,4,2,1,67,1,0
31470,-83.3333333333333,4,2,1,67,0,0
40700,-83.3333333333333,4,2,1,77,0,1
53248,-100,4,2,1,67,0,0
53970,-100,4,2,1,40,0,0
54259,-100,4,2,1,35,0,0
55124,-100,4,2,1,30,0,0
55990,-100,4,2,1,25,0,0
56855,-100,4,2,1,20,0,0
57720,-100,4,2,1,15,0,0
58586,-100,4,2,1,10,0,0
59163,-100,4,2,1,5,0,0

[Colours]
Combo1 : 250,124,197
Combo2 : 146,116,186
Combo3 : 142,151,206
Combo4 : 196,180,115

[HitObjects]
431,125,317,5,2,0:0:0:0:
252,152,893,1,0,0:0:0:0:
387,187,1326,1,0,0:0:0:0:
163,266,2047,1,0,0:0:0:0:
343,171,2624,5,2,0:0:0:0:
164,144,3200,1,0,0:0:0:0:
299,109,3633,1,0,0:0:0:0:
75,30,4354,1,0,0:0:0:0:
256,97,4932,5,2,0:0:0:0:
436,125,5508,1,0,0:0:0:0:
301,167,5941,1,0,0:0:0:0:
75,238,6663,1,0,0:0:0:0:
165,262,6951,1,0,0:0:0:0:
256,192,7817,12,2,14595,0:0:0:0:
385,56,16470,6,0,L|239:55,2,107.999996704102,4|0|8,3:2|0:0|0:0,0:0:0:0:
148,295,17624,1,2,0:0:0:0:
267,294,17913,1,2,0:0:0:0:
386,295,18201,1,2,0:1:0:0:
148,298,18778,6,0,L|294:299,2,107.999996704102,4|2|8,3:0|0:0|0:0,0:0:0:0:
385,56,19932,1,2,0:0:0:0:
266,54,20221,1,2,0:0:0:0:
385,56,20509,2,0,L|401:185,1,107.999996704102,2|0,0:1|0:0,0:0:0:0:
143,108,21086,5,4,3:2:0:0:
56,168,21374,1,0,0:0:0:0:
143,223,21663,1,8,0:0:0:0:
262,256,21951,1,2,0:3:0:0:
381,289,22240,1,2,0:0:0:0:
468,228,22528,1,2,0:0:0:0:
381,174,22817,1,4,0:1:0:0:
144,80,23393,5,0,3:0:0:0:
263,82,23682,1,0,3:0:0:0:
382,84,23970,1,8,0:0:0:0:
382,84,24259,1,2,0:3:0:0:
263,82,24547,1,2,3:0:0:0:
382,84,24836,1,2,3:2:0:0:
501,84,25124,1,2,0:1:0:0:
68,280,25701,5,14,0:1:0:0:
258,279,26278,1,8,0:1:0:0:
15,279,26999,1,8,0:1:0:0:
161,280,27432,1,8,0:1:0:0:
355,220,28009,5,10,0:1:0:0:
140,219,28586,1,8,0:1:0:0:
383,153,29307,1,8,0:1:0:0:
238,144,29740,1,8,0:1:0:0:
389,282,30317,6,0,L|244:284,1,107.999996704102,10|10,0:1|0:1,0:0:0:0:
169,284,30893,1,10,0:1:0:0:
496,88,31470,6,0,L|372:88,1,107.999996704102,14|0,3:2|0:0,0:0:0:0:
258,89,32047,1,2,1:2:0:0:
64,112,32480,2,0,P|21:183|92:224,1,161.999995056153,2|2,3:2|3:2,0:0:0:0:
200,218,33201,2,0,L|83:219,1,107.999996704102,2|2,1:2|0:0,0:0:0:0:
348,154,33778,6,0,P|385:186|334:204,1,107.999996704102,10|0,3:2|0:0,0:0:0:0:
218,212,34355,1,2,1:2:0:0:
412,299,34788,2,0,L|246:300,1,161.999995056153,2|2,3:2|3:2,0:0:0:0:
380,299,35509,2,0,L|381:165,1,107.999996704102,2|2,1:2|1:2,0:0:0:0:
124,239,36086,6,0,L|122:109,1,107.999996704102,10|0,3:2|0:0,0:0:0:0:
252,100,36663,1,2,1:2:0:0:
446,169,37095,2,0,L|247:172,1,161.999995056153,2|0,3:2|3:0,0:0:0:0:
154,178,37817,2,0,L|159:62,1,107.999996704102,2|2,1:2|0:0,0:0:0:0:
414,280,38393,6,0,L|306:280,1,107.999996704102,10|0,3:2|0:0,0:0:0:0:
176,281,38970,1,2,1:2:0:0:
306,229,39259,1,0,3:0:0:0:
177,221,39547,6,0,L|44:224,1,107.999996704102,8|8,1:3|3:0,0:0:0:0:
199,149,40124,2,0,L|305:86,1,107.999996704102,8|8,1:3|3:0,0:0:0:0:
227,90,40557,1,8,1:3:0:0:
76,72,40701,6,0,P|34:197|100:256,1,215.999993408203,4|0,3:2|1:0,0:0:0:0:
212,242,41567,1,0,0:0:0:0:
341,233,41855,2,0,L|360:107,1,107.999996704102,0|0,0:0|3:0,0:0:0:0:
227,57,42432,1,0,1:0:0:0:
356,42,42720,1,2,0:0:0:0:
291,50,42865,1,2,0:0:0:0:
140,134,43009,6,0,P|17:223|58:288,1,215.999993408203,0|0,3:0|1:0,0:0:0:0:
157,321,43874,1,0,0:0:0:0:
27,268,44163,2,0,L|53:111,1,107.999996704102,0|0,0:0|3:0,0:0:0:0:
175,112,44740,1,2,1:0:0:0:
95,124,44884,1,2,0:1:0:0:
40,129,45028,1,2,0:1:0:0:
95,124,45172,1,2,0:1:0:0:
247,68,45317,6,0,P|330:141|268:196,1,215.999993408203,0|2,3:0|1:0,0:0:0:0:
144,184,46182,1,2,0:1:0:0:
273,182,46470,2,0,L|270:71,1,107.999996704102,2|2,0:1|3:1,0:0:0:0:
400,48,47047,2,0,L|457:149,1,107.999996704102,0|2,1:0|0:1,0:0:0:0:
388,156,47480,1,0,0:0:0:0:
237,162,47624,6,0,B|212:165|212:165|202:180|215:195|215:195|237:198|323:198,1,161.999995056153,0|2,3:0|0:1,0:0:0:0:
440,160,48345,1,2,0:1:0:0:
332,165,48634,1,0,0:0:0:0:
261,166,48778,2,0,L|138:167,2,107.999996704102,2|2|2,1:0|3:1|0:1,0:0:0:0:
391,160,49643,1,2,0:3:0:0:
326,162,49788,1,2,0:1:0:0:
176,120,49932,6,0,L|136:234,1,107.999996704102,2|0,3:1|0:0,0:0:0:0:
392,120,50509,2,0,P|467:178|403:222,1,161.999995056153,2|2,1:0|3:1,0:0:0:0:
274,279,51374,1,2,3:1:0:0:
48,280,51663,2,0,L|177:280,1,107.999996704102,2|2,1:0|0:1,0:0:0:0:
388,212,52240,6,0,L|388:133,1,53.9999983520508,6|6,3:1|0:1,0:0:0:0:
280,152,52672,2,0,L|280:73,1,53.9999983520508,6|6,3:1|0:1,0:0:0:0:
24,119,53105,1,6,3:1:0:0:
24,119,53249,6,0,P|29:227|150:273,1,225,6|0,3:1|0:0,0:0:0:0:
256,192,54259,12,0,59163,0:0:0:0:
