osu file format v14

[General]
AudioFilename: audio.mp3
AudioLeadIn: 0
PreviewTime: 16470
Countdown: 0
SampleSet: Soft
StackLeniency: 0.7
Mode: 2
LetterboxInBreaks: 0
WidescreenStoryboard: 1

[Editor]
DistanceSpacing: 1
BeatDivisor: 8
GridSize: 4
TimelineZoom: 2

[Metadata]
Title:Preserver of Fortune
TitleUnicode:度厄童子
Artist:Yu-Peng Chen @HOYO-MiX
ArtistUnicode:陈致逸 @HOYO-MiX
Creator:bigh
Version:Rain
Source:Genshin Impact
Tags:原神 七七 Qīqī Qiqi Nana Seven-Seven Seven Theme The Stellar Moments Soundtrack Mihoyo Cryo OST Liyue electronic video game instrumental gacha kukkai shurelia
BeatmapID:3294805
BeatmapSetID:1613181

[Difficulty]
HPDrainRate:5
CircleSize:6
OverallDifficulty:8.5
ApproachRate:8.5
SliderMultiplier:2
SliderTickRate:0.5

[Events]
//Background and Video events
0,0,"bg.jpg",0,0
//Break Periods
//Storyboard Layer 0 (Background)
//Storyboard Layer 1 (Fail)
//Storyboard Layer 2 (Pass)
//Storyboard Layer 3 (Foreground)
//Storyboard Layer 4 (Overlay)
//Storyboard Sound Samples

[TimingPoints]
317,576.923076923077,4,2,1,37,1,0
7817,-100,4,2,2,57,0,0
7961,-100,4,2,1,7,0,0
16470,-60.6060606060606,4,2,1,67,0,0
25701,-60.6060606060606,4,2,1,67,0,0
31470,576.923076923077,4,2,1,67,1,0
31470,-60.6060606060606,4,2,1,67,0,0
40700,-60.6060606060606,4,2,1,77,0,1
53248,-60.6060606060606,4,2,1,67,0,0
53970,-100,4,2,1,40,0,0
54259,-100,4,2,1,35,0,0
55124,-100,4,2,1,30,0,0
55990,-100,4,2,1,25,0,0
56855,-100,4,2,1,20,0,0
57720,-100,4,2,1,15,0,0
58586,-100,4,2,1,10,0,0
59163,-100,4,2,1,5,0,0

[Colours]
Combo1 : 250,124,197
Combo2 : 146,116,186
Combo3 : 142,151,206
Combo4 : 196,180,115

[HitObjects]
400,288,317,5,2,0:0:0:0:
200,256,893,1,0,0:0:0:0:
350,216,1326,1,0,0:0:0:0:
350,216,1759,1,0,0:0:0:0:
250,214,2047,1,0,0:0:0:0:
150,212,2336,1,0,0:0:0:0:
252,172,2624,5,2,0:0:0:0:
52,140,3200,1,0,0:0:0:0:
202,100,3633,1,0,0:0:0:0:
352,100,4066,1,0,0:0:0:0:
252,105,4354,1,0,0:0:0:0:
152,103,4643,1,0,0:0:0:0:
252,178,4932,6,0,P|312:242|228:302,1,200,2|0,0:0|0:0,0:0:0:0:
92,234,5942,2,0,L|248:222,1,150,0|0,0:0|0:0,0:0:0:0:
141,178,6663,1,0,0:0:0:0:
41,162,6951,1,0,0:0:0:0:
256,192,7817,5,4,0:3:0:0:
256,192,8105,12,2,14595,0:0:0:0:
108,356,16470,6,0,L|108:188,1,165.000001573563,4|0,3:2|0:0,0:0:0:0:
191,185,16903,1,0,3:0:0:0:
339,167,17047,1,8,0:0:0:0:
339,167,17336,1,2,0:3:0:0:
254,164,17480,1,2,0:3:0:0:
105,147,17624,5,2,0:0:0:0:
24,148,17768,1,8,0:1:0:0:
105,147,17913,1,2,0:0:0:0:
344,118,18201,1,2,0:1:0:0:
260,108,18345,1,0,0:0:0:0:
176,96,18490,1,2,0:0:0:0:
512,44,18778,6,0,P|491:112|401:153,1,165.000001573563,4|2,3:0|0:0,0:0:0:0:
331,115,19211,1,0,0:0:0:0:
184,92,19355,1,8,0:0:0:0:
167,94,19643,1,2,0:3:0:0:
248,92,19788,1,2,0:3:0:0:
396,156,19932,6,0,L|396:268,1,82.5000007867813,2|8,0:0|0:1,0:0:0:0:
312,304,20220,2,0,L|400:304,1,82.5000007867813,2|8,0:0|0:1,0:0:0:0:
172,232,20509,2,0,L|84:232,1,82.5000007867813,2|0,0:1|0:0,0:0:0:0:
8,228,20797,1,0,0:0:0:0:
372,56,21086,6,0,P|423:123|364:144,1,165.000001573563,4|0,3:2|0:0,0:0:0:0:
291,143,21518,1,0,3:0:0:0:
142,110,21663,1,8,0:0:0:0:
127,110,21951,1,2,0:3:0:0:
212,108,22095,1,2,0:3:0:0:
360,118,22240,5,2,0:0:0:0:
442,144,22384,1,8,0:1:0:0:
464,224,22528,1,2,0:0:0:0:
128,168,22817,1,4,0:1:0:0:
209,166,22961,1,2,0:1:0:0:
128,168,23105,1,2,0:3:0:0:
473,72,23393,6,0,L|472:248,1,165.000001573563,0|0,3:0|3:0,0:0:0:0:
216,232,23970,1,8,0:0:0:0:
52,228,24259,1,2,0:3:0:0:
132,232,24403,1,8,0:3:0:0:
300,230,24547,6,0,L|300:134,1,82.5000007867813,2|8,3:0|0:1,0:0:0:0:
217,134,24836,2,0,L|216:32,1,82.5000007867813,2|0,3:2|0:0,0:0:0:0:
421,42,25124,2,0,L|424:132,1,82.5000007867813,2|0,0:1|0:0,0:0:0:0:
80,112,25701,5,14,0:1:0:0:
279,113,26134,1,8,0:1:0:0:
205,113,26278,1,8,0:1:0:0:
337,112,26567,1,8,0:1:0:0:
140,115,26999,1,8,0:1:0:0:
272,115,27288,1,8,0:1:0:0:
206,117,27432,1,8,0:1:0:0:
470,178,28009,5,10,0:1:0:0:
271,179,28442,1,8,0:1:0:0:
345,179,28586,1,8,0:1:0:0:
213,178,28875,1,8,0:1:0:0:
16,181,29307,1,8,0:1:0:0:
148,181,29596,1,8,0:1:0:0:
213,178,29740,1,8,0:1:0:0:
476,80,30317,6,0,L|476:264,1,165.000001573563,10|10,0:1|0:1,0:0:0:0:
146,204,30893,2,0,P|66:156|130:113,1,165.000001573563,10|0,0:1|0:0,0:0:0:0:
464,152,31470,6,0,L|297:152,1,165.000001573563,14|0,3:2|0:0,0:0:0:0:
216,152,31903,1,0,0:0:0:0:
28,156,32047,2,0,P|74:269|128:296,1,165.000001573563,2|0,1:2|0:0,0:0:0:0:
256,260,32480,1,2,3:2:0:0:
338,233,32624,6,0,L|166:233,1,165.000001573563,8|2,2:2|3:2,0:0:0:0:
256,176,33057,1,0,0:0:0:0:
448,160,33201,2,0,P|468:236|400:292,1,165.000001573563,2|2,1:2|0:0,0:0:0:0:
72,144,33778,6,0,L|244:144,1,165.000001573563,10|0,3:2|0:0,0:0:0:0:
320,142,34211,1,0,0:0:0:0:
128,216,34355,2,0,P|70:286|134:337,1,165.000001573563,2|0,1:2|0:0,0:0:0:0:
252,316,34788,1,2,3:2:0:0:
336,276,34932,6,0,B|368:276|368:276|368:120,1,165.000001573563,8|2,2:2|3:2,0:0:0:0:
286,76,35365,1,0,0:0:0:0:
96,100,35509,2,0,L|96:196,1,82.5000007867813,2|2,1:2|0:0,0:0:0:0:
286,206,35797,2,0,L|286:302,1,82.5000007867813,2|2,1:2|1:2,0:0:0:0:
96,248,36086,6,0,P|45:159|96:120,1,165.000001573563,10|0,3:2|0:0,0:0:0:0:
160,108,36518,1,0,0:0:0:0:
352,148,36663,2,0,P|372:216|290:268,1,165.000001573563,2|0,1:2|0:0,0:0:0:0:
161,255,37095,1,2,3:2:0:0:
78,211,37240,6,0,L|262:212,1,165.000001573563,8|0,2:2|3:0,0:0:0:0:
325,210,37672,1,0,0:0:0:0:
134,158,37817,2,0,P|88:102|160:64,1,165.000001573563,2|2,1:2|0:0,0:0:0:0:
488,140,38393,6,0,L|320:140,1,165.000001573563,10|0,3:2|0:0,0:0:0:0:
240,139,38826,1,0,0:0:0:0:
48,184,38970,2,0,P|4:252|54:310,1,165.000001573563,2|0,1:2|3:0,0:0:0:0:
132,312,39403,1,0,0:3:0:0:
326,250,39547,5,8,1:3:0:0:
408,244,39692,1,8,0:3:0:0:
274,134,39836,1,8,3:0:0:0:
248,180,39908,1,8,0:3:0:0:
288,216,39979,1,8,0:3:0:0:
344,224,40051,1,8,0:0:0:0:
476,252,40124,5,8,1:3:0:0:
492,220,40196,1,8,0:3:0:0:
468,176,40268,1,8,0:3:0:0:
420,160,40341,1,8,0:3:0:0:
292,188,40413,1,8,3:0:0:0:
248,168,40485,1,8,0:3:0:0:
224,120,40557,1,8,1:3:0:0:
248,72,40628,1,8,0:0:0:0:
380,48,40701,6,0,P|456:80|392:140,1,165.000001573563,4|0,3:2|3:0,0:0:0:0:
346,146,41134,1,0,0:0:0:0:
156,164,41278,1,0,1:0:0:0:
72,180,41422,1,0,0:0:0:0:
40,256,41567,1,0,0:0:0:0:
72,180,41711,1,0,3:0:0:0:
264,324,41855,5,0,0:0:0:0:
346,290,41999,1,0,0:0:0:0:
376,246,42143,1,0,3:0:0:0:
293,217,42288,1,0,0:0:0:0:
484,88,42432,2,0,L|484:177,1,82.5000007867813,0|2,1:0|0:0,0:0:0:0:
296,168,42720,2,0,L|195:168,1,82.5000007867813,2|2,0:0|0:0,0:0:0:0:
404,56,43009,6,0,P|449:147|387:161,1,165.000001573563,0|0,3:0|0:0,0:0:0:0:
336,164,43442,1,0,0:0:0:0:
144,164,43586,1,0,1:0:0:0:
104,124,43730,1,0,0:0:0:0:
144,80,43874,1,0,0:0:0:0:
208,64,44018,1,0,3:0:0:0:
400,80,44163,5,0,0:0:0:0:
484,76,44307,1,0,0:0:0:0:
400,80,44451,1,0,3:0:0:0:
316,88,44595,1,0,0:0:0:0:
124,156,44740,2,0,L|124:68,1,82.5000007867813,2|2,1:0|0:1,0:0:0:0:
316,144,45028,2,0,L|316:228,1,82.5000007867813,2|2,0:1|0:1,0:0:0:0:
124,212,45317,6,0,L|124:304,1,82.5000007867813,0|2,3:0|0:1,0:0:0:0:
208,296,45605,1,2,0:1:0:0:
290,297,45749,1,0,0:0:0:0:
100,128,45893,2,0,L|100:224,1,82.5000007867813,2|0,1:0|0:0,0:0:0:0:
182,210,46182,2,0,L|90:210,1,82.5000007867813,2|0,0:1|3:0,0:0:0:0:
248,136,46470,5,2,0:1:0:0:
331,136,46615,1,2,0:1:0:0:
248,136,46759,2,0,L|157:136,1,82.5000007867813,2|0,3:1|0:0,0:0:0:0:
356,52,47047,2,0,L|356:148,1,82.5000007867813,0|0,1:0|0:0,0:0:0:0:
272,136,47336,1,2,0:1:0:0:
190,136,47480,1,0,0:0:0:0:
380,52,47624,5,0,3:0:0:0:
464,52,47768,2,0,L|368:52,1,82.5000007867813,2|0,0:1|0:0,0:0:0:0:
240,60,48057,2,0,L|240:152,1,82.5000007867813,2|0,0:1|1:0,0:0:0:0:
428,56,48345,2,0,P|480:84|420:144,1,165.000001573563,2|0,0:1|0:0,0:0:0:0:
236,172,48778,5,2,1:0:0:0:
154,171,48922,1,0,0:0:0:0:
104,120,49067,1,2,3:1:0:0:
154,171,49211,1,0,0:0:0:0:
344,52,49355,1,2,0:1:0:0:
428,52,49499,1,2,0:3:0:0:
344,52,49643,1,2,0:3:0:0:
212,52,49787,1,2,0:1:0:0:
404,80,49932,6,0,P|459:118|393:161,1,165.000001573563,2|0,3:1|0:0,0:0:0:0:
317,169,50365,1,0,0:0:0:0:
128,248,50509,2,0,L|128:76,1,165.000001573563,2|0,1:0|0:0,0:0:0:0:
272,76,50942,2,0,P|331:110|259:144,1,165.000001573563,2|0,3:1|0:0,0:0:0:0:
132,152,51374,2,0,L|44:152,1,82.5000007867813,2|0,3:1|0:0,0:0:0:0:
240,216,51663,6,0,L|240:112,1,82.5000007867813,2|0,1:0|0:0,0:0:0:0:
160,120,51951,2,0,L|60:119,1,82.5000007867813,2|0,0:1|0:0,0:0:0:0:
268,144,52240,5,6,3:1:0:0:
352,140,52384,2,0,P|441:135|460:64,1,165.000001573563,6|6,0:1|3:1,0:0:0:0:
272,76,52816,2,0,L|104:76,1,165.000001573563,6|6,0:1|3:1,0:0:0:0:
300,4,53248,6,0,P|436:68|292:216,1,412.500003933907,6|0,3:1|0:0,0:0:0:0:
256,192,54259,12,0,59163,0:0:0:0:
