osu file format v14

[General]
AudioFilename: audio.mp3
AudioLeadIn: 0
PreviewTime: 40701
Countdown: 0
SampleSet: None
StackLeniency: 0.7
Mode: 0
LetterboxInBreaks: 0
WidescreenStoryboard: 0

[Editor]
DistanceSpacing: 0.7
BeatDivisor: 4
GridSize: 4
TimelineZoom: 1

[Metadata]
Title:Preserver of Fortune
TitleUnicode:度厄童子
Artist:Yu-Peng Chen @HOYO-MiX
ArtistUnicode:Yu-Peng Chen @HOYO-MiX
Creator:Lemmie
Version:Icy Resurrection
Source:Genshin Impact
Tags:Qiqi
BeatmapID:3693349
BeatmapSetID:1801351

[Difficulty]
HPDrainRate:7
CircleSize:4
OverallDifficulty:8.8
ApproachRate:9.4
SliderMultiplier:1.6
SliderTickRate:1

[Events]
//Background and Video events
0,0,"qiqi.jpg",0,0
//Break Periods
//Storyboard Layer 0 (Background)
//Storyboard Layer 1 (Fail)
//Storyboard Layer 2 (Pass)
//Storyboard Layer 3 (Foreground)
//Storyboard Layer 4 (Overlay)
//Storyboard Sound Samples

[TimingPoints]
317,288.461538461538,4,1,0,70,1,0
7816,-333.333333333333,4,1,0,70,0,0
16470,-100,4,1,0,70,0,0
21086,-80,4,1,0,70,0,0
25701,-142.857142857143,4,1,0,70,0,0
30316,-66.6666666666667,4,1,0,70,0,0
31470,-80,4,1,0,70,0,0
45605,-133.333333333333,4,1,0,70,0,0
46326,-76.9230769230769,4,1,0,70,0,0
47768,-100,4,1,0,70,0,0
49355,-66.6666666666667,4,1,0,70,0,0
52240,-50.251256281407,4,1,0,70,0,0
53105,-41.1522633744856,4,1,0,70,0,0

[HitObjects]
256,192,7816,12,0,14595,0:0:0:0:
117,312,16470,6,0,B|171:289|171:289|178:263|178:234|170:220|163:210,1,120
166,220,16759,1,0,0:0:0:0:
66,153,16903,1,0,0:0:0:0:
66,153,16975,1,0,0:0:0:0:
79,234,17047,2,0,B|35:229|35:229|0:198,1,80
221,104,17336,1,0,0:0:0:0:
221,104,17480,2,0,B|177:109|177:109|142:140,1,80
79,234,17768,1,0,0:0:0:0:
123,325,17913,1,0,0:0:0:0:
204,273,18057,1,0,0:0:0:0:
156,180,18201,2,0,B|134:147|134:147|111:137|101:137|96:137|90:137,1,80
18,276,18490,2,0,B|19:277|24:277|34:277|57:267|57:267|79:234,1,80
95,137,18778,6,0,B|77:81|20:110|11:48,1,120
81,26,19066,1,0,0:0:0:0:
188,56,19211,1,0,0:0:0:0:
222,136,19355,1,0,0:0:0:0:
222,136,19643,2,0,B|212:166|212:166|202:175|199:176|191:177,1,40
268,41,19788,2,0,B|258:11|258:11|248:2|245:1|237:0,1,40
200,167,19932,1,0,0:0:0:0:
271,193,20076,1,0,0:0:0:0:
316,262,20220,2,0,B|345:253|345:253|347:246|348:245|347:238|347:237,1,40
208,310,20365,2,0,B|237:319|237:319|239:326|240:327|239:334|239:335,1,40
202,317,20509,1,0,0:0:0:0:
100,341,20653,1,0,0:0:0:0:
100,341,20725,1,0,0:0:0:0:
46,281,20797,1,0,0:0:0:0:
46,281,20869,1,0,0:0:0:0:
59,204,20941,1,0,0:0:0:0:
167,115,21086,6,0,B|230:126|265:131|265:131|284:121|290:104|291:94|291:83|289:72,1,150
126,46,21374,1,0,0:0:0:0:
129,184,21518,1,0,0:0:0:0:
194,232,21663,1,0,0:0:0:0:
194,238,21951,2,0,B|165:252|164:253|154:261|152:271|152:279,1,50
63,305,22095,2,0,B|34:291|33:290|23:282|21:272|21:264,1,50
215,312,22240,1,0,0:0:0:0:
276,352,22384,1,0,0:0:0:0:
208,315,22528,2,0,B|204:347|204:346|201:359|201:370|203:374,1,50
208,315,22816,1,0,0:0:0:0:
79,247,22961,1,0,0:0:0:0:
196,161,23105,1,0,0:0:0:0:
196,161,23393,6,0,B|171:89|109:141|87:58,1,150
160,36,23682,1,0,0:0:0:0:
266,100,23826,1,0,0:0:0:0:
341,78,23970,1,0,0:0:0:0:
341,78,24259,1,0,0:0:0:0:
245,107,24403,1,0,0:0:0:0:
358,184,24547,5,0,0:0:0:0:
358,184,24836,2,0,B|396:176|396:176|407:171|415:164|418:159|420:147|420:138|418:120|417:118,1,100
299,238,25124,2,0,P|291:296|291:296,1,50
151,345,25701,6,0,B|121:315|118:315|114:315|106:319|103:320|97:326|91:329|78:329|66:328|55:325|53:324,1,83.9999974365235
62,321,25990,1,0,0:0:0:0:
10,265,26134,1,0,0:0:0:0:
12,186,26278,1,0,0:0:0:0:
24,172,26566,1,0,0:0:0:0:
90,124,26855,1,0,0:0:0:0:
119,85,26999,1,0,0:0:0:0:
124,36,27143,1,0,0:0:0:0:
124,36,27432,2,0,P|162:29|189:22,1,55.9999982910157
265,54,27720,2,0,P|303:47|330:40,1,55.9999982910157
443,11,28009,5,0,0:0:0:0:
443,11,28297,1,0,0:0:0:0:
482,59,28441,1,0,0:0:0:0:
491,112,28586,1,0,0:0:0:0:
410,178,28874,1,0,0:0:0:0:
319,250,29163,1,0,0:0:0:0:
284,274,29235,1,0,0:0:0:0:
272,306,29307,1,0,0:0:0:0:
302,343,29379,1,0,0:0:0:0:
357,352,29451,1,0,0:0:0:0:
369,349,29740,1,0,0:0:0:0:
465,357,30028,1,0,0:0:0:0:
299,303,30316,6,0,B|320:276|320:276|342:264|354:262|364:262|380:265|393:272|410:284,1,120.000004577637
496,265,30605,2,0,P|484:213|464:134,1,120.000004577637
429,64,30893,1,0,0:0:0:0:
429,64,31470,6,0,B|353:40|358:122|281:95,1,150
303,24,31759,1,0,0:0:0:0:
189,97,31903,1,0,0:0:0:0:
286,124,32047,5,0,0:0:0:0:
315,198,32191,1,0,0:0:0:0:
242,187,32336,1,0,0:0:0:0:
121,254,32480,5,0,0:0:0:0:
242,187,32624,1,0,0:0:0:0:
238,329,32768,1,0,0:0:0:0:
101,234,32913,5,0,0:0:0:0:
140,325,33057,1,0,0:0:0:0:
276,100,33201,5,0,0:0:0:0:
242,187,33345,1,0,0:0:0:0:
30,37,33490,5,0,0:0:0:0:
69,128,33634,1,0,0:0:0:0:
242,187,33778,6,0,B|297:203|297:203|309:217|318:236|320:242|320:242|363:256|380:257,1,150
442,229,34066,1,0,0:0:0:0:
442,229,34211,1,0,0:0:0:0:
352,112,34355,5,0,0:0:0:0:
451,251,34499,1,0,0:0:0:0:
468,86,34643,1,0,0:0:0:0:
348,317,34788,5,0,0:0:0:0:
400,184,34932,1,0,0:0:0:0:
260,201,35076,1,0,0:0:0:0:
375,330,35220,5,0,0:0:0:0:
289,371,35365,1,0,0:0:0:0:
310,133,35509,5,0,0:0:0:0:
205,104,35653,1,0,0:0:0:0:
220,307,35797,5,0,0:0:0:0:
108,345,35941,1,0,0:0:0:0:
207,143,36086,6,0,B|222:83|228:54|228:47|228:24,1,100
297,248,36374,1,0,0:0:0:0:
297,248,36518,1,0,0:0:0:0:
334,363,36663,5,0,0:0:0:0:
206,275,36807,1,0,0:0:0:0:
367,286,36951,1,0,0:0:0:0:
146,332,37095,5,0,0:0:0:0:
297,248,37240,1,0,0:0:0:0:
121,206,37384,1,0,0:0:0:0:
223,358,37528,5,0,0:0:0:0:
197,263,37672,1,0,0:0:0:0:
397,238,37816,5,0,0:0:0:0:
371,143,37960,1,0,0:0:0:0:
175,251,38105,5,0,0:0:0:0:
140,118,38249,1,0,0:0:0:0:
85,310,38393,6,0,B|53:321|53:321|62:332|72:336|96:340|109:338|119:334|128:326|135:314|141:304|143:298|149:288|157:281,1,150
96,235,38682,1,0,0:0:0:0:
96,235,38826,1,0,0:0:0:0:
59,72,38970,5,0,0:0:0:0:
140,118,39115,1,0,0:0:0:0:
8,147,39259,1,0,0:0:0:0:
137,36,39403,5,0,0:0:0:0:
125,201,39547,1,0,0:0:0:0:
263,130,39691,1,0,0:0:0:0:
284,257,39836,5,0,0:0:0:0:
251,47,39980,1,0,0:0:0:0:
64,262,40124,5,0,0:0:0:0:
64,262,40196,1,0,0:0:0:0:
138,231,40268,1,0,0:0:0:0:
138,231,40341,1,0,0:0:0:0:
182,160,40413,1,0,0:0:0:0:
182,160,40485,1,0,0:0:0:0:
187,75,40557,1,0,0:0:0:0:
187,75,40629,1,0,0:0:0:0:
135,4,40701,6,0,B|76:17|76:17|69:27|66:37|63:46|62:54|62:57,1,100
255,203,40990,1,0,0:0:0:0:
301,266,41134,1,0,0:0:0:0:
360,107,41278,6,0,B|419:120|419:120|426:130|429:140|432:149|433:157|433:160,1,100
307,279,41566,1,0,0:0:0:0:
232,316,41711,2,0,B|207:328|207:328|197:345|194:353|194:360,1,50
116,366,41855,5,0,0:0:0:0:
27,320,41999,1,0,0:0:0:0:
16,212,42143,1,0,0:0:0:0:
16,212,42288,1,0,0:0:0:0:
131,354,42432,5,0,0:0:0:0:
251,313,42576,5,0,0:0:0:0:
353,365,42720,5,0,0:0:0:0:
473,324,42864,5,0,0:0:0:0:
482,178,43009,6,0,B|482:157|482:157|484:131|491:122|498:115,1,50
509,55,43153,1,0,0:0:0:0:
509,55,43297,1,0,0:0:0:0:
352,161,43441,1,0,0:0:0:0:
327,83,43586,6,0,P|284:112|278:178,1,100
370,243,43874,1,0,0:0:0:0:
331,326,44018,6,0,B|262:348|268:269|193:294,1,150
141,349,44307,1,0,0:0:0:0:
24,252,44451,6,0,P|55:299|58:309,1,50
27,243,44595,1,0,0:0:0:0:
136,54,44740,5,0,0:0:0:0:
39,120,44884,1,0,0:0:0:0:
222,143,45028,1,0,0:0:0:0:
124,71,45172,1,0,0:0:0:0:
169,206,45316,6,0,L|182:267,1,50
323,251,45461,1,0,0:0:0:0:
323,251,45605,2,0,L|337:319,1,60.0000022888184
378,179,45893,2,0,P|387:144|395:115,1,60.0000022888184
294,162,46182,1,0,0:0:0:0:
294,162,46326,6,0,L|237:172,1,51.999997619629
150,261,46470,1,0,0:0:0:0:
78,283,46615,1,0,0:0:0:0:
38,353,46759,6,0,P|91:366|101:371,1,51.999997619629
270,322,46903,1,0,0:0:0:0:
281,242,47047,5,0,0:0:0:0:
294,162,47191,1,0,0:0:0:0:
365,117,47336,2,0,P|377:169|340:231,1,103.999995239258
152,258,47624,5,0,0:0:0:0:
34,301,47768,2,0,P|26:261|1:203,1,80
186,181,48057,1,0,0:0:0:0:
280,347,48201,1,0,0:0:0:0:
304,272,48345,2,0,P|284:322|280:361,1,80
152,288,48634,1,0,0:0:0:0:
285,179,48778,5,0,0:0:0:0:
158,53,48922,1,0,0:0:0:0:
220,236,49066,1,0,0:0:0:0:
394,293,49211,1,0,0:0:0:0:
289,94,49355,6,0,B|250:101|236:105|223:109,1,60.0000022888184
156,128,49499,2,0,B|117:135|103:139|90:143,1,60.0000022888184
45,283,49643,1,0,0:0:0:0:
132,307,49788,1,0,0:0:0:0:
241,376,49932,6,0,P|280:368|311:364,1,60.0000022888184
378,363,50076,1,0,0:0:0:0:
479,271,50220,1,0,0:0:0:0:
405,136,50365,1,0,0:0:0:0:
283,267,50509,5,0,0:0:0:0:
454,198,50653,1,0,0:0:0:0:
307,74,50797,1,0,0:0:0:0:
152,282,50941,5,0,0:0:0:0:
331,361,51086,1,0,0:0:0:0:
302,155,51230,1,0,0:0:0:0:
132,253,51374,6,0,P|146:315|156:364,1,60.0000022888184
208,364,51518,1,0,0:0:0:0:
380,183,51663,6,0,P|386:153|393:124,1,60.0000022888184
318,236,51807,1,0,0:0:0:0:
155,94,51951,1,0,0:0:0:0:
155,94,52023,1,0,0:0:0:0:
86,138,52095,1,0,0:0:0:0:
86,138,52167,1,0,0:0:0:0:
58,216,52240,6,0,P|78:280|81:324,1,79.6000019737244
183,124,52384,2,0,P|163:60|160:16,1,79.6000019737244
454,216,52672,6,0,P|434:280|431:324,1,79.6000019737244
329,124,52816,2,0,P|349:60|352:16,1,79.6000019737244
52,318,53105,6,0,P|99:328|146:342,1,97.1999993696594
423,100,53249,2,0,P|375:109|328:123,1,97.1999993696594
256,192,53393,12,0,53970,0:0:0:0:
