osu file format v14

[General]
AudioFilename: audio.mp3
AudioLeadIn: 0
PreviewTime: 27413
Countdown: 0
SampleSet: Soft
StackLeniency: 0.3
Mode: 0
LetterboxInBreaks: 0
WidescreenStoryboard: 1

[Editor]
Bookmarks: 979,15228,27484,50450,72699
DistanceSpacing: 1.1
BeatDivisor: 4
GridSize: 32
TimelineZoom: 1.4

[Metadata]
Title:Ouvertuere der ewigen Nacht
TitleUnicode:永夜的序曲
Artist:Yu-Peng Chen @HOYO-MiX
ArtistUnicode:陈致逸 @HOYO-MiX
Creator:Nytrocide_
Version:Normal
Source:Genshin Impact
Tags:nachmark seolv [_l_u_k_a_s_] muya- bluirre asaiga fischl fisshuru theme video game videogame instrumental ost the stellar moments mihoyo gacha oz prinzessin der verurteilung sovereign of immernachtreich ouverture ganyumymommy nytro 永夜の序曲
BeatmapID:3429142
BeatmapSetID:1677677

[Difficulty]
HPDrainRate:3.8
CircleSize:3.6
OverallDifficulty:4.2
ApproachRate:4.6
SliderMultiplier:0.999999999999999
SliderTickRate:1

[Events]
//Background and Video events
0,0,"fish.jpg",0,0
//Break Periods
//Storyboard Layer 0 (Background)
//Storyboard Layer 1 (Fail)
//Storyboard Layer 2 (Pass)
//Storyboard Layer 3 (Foreground)
//Storyboard Layer 4 (Overlay)
//Storyboard Sound Samples

[TimingPoints]
979,526.315789473684,4,2,2,30,1,0
979,-100,4,2,2,30,0,0
3534,521.739130434783,4,2,2,30,1,0
3534,-100,4,2,2,30,0,0
3910,530.973451327433,4,2,2,30,1,0
3910,-100,4,2,2,30,0,0
4971,-100,4,2,2,5,0,0
5637,533.333333333333,4,2,2,30,1,0
5637,-100,4,2,2,30,0,0
6436,454.545454545455,4,2,2,30,1,0
6436,-100,4,2,2,30,0,0
6778,521.739130434783,4,2,2,30,1,0
6778,-100,4,2,2,30,0,0
9386,-100,4,2,2,5,0,0
9646,523.1037489102,4,2,2,30,1,0
9646,-100,4,2,2,30,0,0
12261,-100,4,2,2,5,0,0
12524,527.704485488127,4,2,2,30,1,0
12524,-100,4,2,2,30,0,0
15228,705.882352941177,4,2,2,40,1,0
15228,-100,4,2,2,40,0,0
15406,586.797066014669,4,2,2,40,1,0
15406,-100,4,2,2,40,0,0
15992,714.285714285713,4,2,2,40,1,0
15992,-100,4,2,2,40,0,0
16170,606.060606060606,4,2,2,40,1,0
16170,-100,4,2,2,40,0,0
16473,714.285714285714,4,2,2,40,1,0
16473,-100,4,2,2,40,0,0
16827,540.540540540541,4,2,2,40,1,0
16827,-100,4,2,2,40,0,0
17502,530.973451327434,4,2,2,40,1,0
17502,-100,4,2,2,40,0,0
18210,552.995391705069,4,2,2,40,1,0
18210,-100,4,2,2,40,0,0
18782,745.341614906832,4,2,2,40,1,0
18782,-100,4,2,2,40,0,0
18970,540.540540540541,4,2,2,40,1,0
18970,-100,4,2,2,40,0,0
19510,745.341614906832,4,2,2,40,1,0
19510,-100,4,2,2,40,0,0
19696,526.315789473684,4,2,2,40,1,0
19696,-100,4,2,2,40,0,0
20416,535.714285714286,4,2,2,40,1,0
20416,-100,4,2,2,40,0,0
21087,540.540540540541,4,2,2,40,1,0
21087,-100,4,2,2,40,0,0
21832,500,4,2,2,50,1,0
21832,-100,4,2,2,50,0,0
22144,508.474576271186,4,2,2,50,1,0
22144,-100,4,2,2,50,0,0
22525,389.61038961039,4,2,2,50,1,0
22525,-100,4,2,2,50,0,0
23300,526.315789473684,4,2,2,50,1,0
23300,-100,4,2,2,50,0,0
24018,594.059405940594,4,2,2,50,1,0
24018,-100,4,2,2,50,0,0
24814,529.801324503311,4,2,2,50,1,0
24814,-100,4,2,2,50,0,0
27484,358.851674641148,4,2,3,70,1,0
27484,-100,4,2,3,70,0,0
38967,-100,4,2,2,60,0,0
50450,-100,4,2,1,75,0,0
52603,-100,4,2,2,75,0,0
52693,-100,4,2,1,75,0,0
53321,-100,4,2,2,75,0,0
53411,-100,4,2,1,75,0,0
55474,-100,4,2,2,75,0,0
56281,-100,4,2,1,75,0,0
58524,-100,4,2,2,75,0,0
59152,-100,4,2,1,75,0,0
60139,-100,4,2,2,75,0,0
60588,-100,4,2,1,75,0,0
61216,-100,4,2,2,75,0,0
62023,-100,4,2,1,75,0,0
62113,-100,4,2,2,75,0,0
62382,-100,4,2,1,75,0,0
63907,-100,4,2,2,75,0,0
64176,-100,4,2,1,75,0,0
66957,-100,4,2,2,75,0,0
67675,-100,4,2,1,75,0,0
68034,-100,4,2,1,50,0,0
72699,-1000,4,2,1,5,0,0

[Colours]
Combo1 : 240,240,100
Combo2 : 135,150,220
Combo3 : 160,230,50
Combo4 : 170,135,200

[HitObjects]
151,170,979,5,2,0:0:0:0:
293,253,1768,2,0,P|320:238|367:223,2,66.6666666666666,2|2|2,0:0|0:0|0:0,0:0:0:0:
234,367,3171,1,2,0:0:0:0:
144,332,3534,1,2,0:0:0:0:
167,237,3910,6,0,P|148:131|120:34,1,200,2|0,0:0|0:0,0:0:0:0:
260,39,5637,6,0,P|265:21|280:-3,2,37.5,2|2|2,0:0|0:0|0:0,0:0:0:0:
305,136,6436,1,2,0:0:0:0:
391,104,6778,2,0,B|421:116|459:111|459:111|453:192|513:237,1,200,2|2,0:0|0:0,0:0:0:0:
461,312,8169,2,0,B|342:277|362:391|238:350,1,233.333333333333,2|0,0:0|0:0,0:0:0:0:
184,284,9647,6,0,B|152:194|103:187|103:187|146:164|145:69|145:69|176:159|225:165|225:165|182:189|184:284,1,499.999999999999,2|0,0:0|0:0,0:0:0:0:
256,192,12523,12,2,15405,0:0:0:0:
20,187,16170,5,2,0:0:0:0:
93,144,16473,1,2,0:0:0:0:
160,204,16827,2,0,L|286:178,1,125,2|2,0:0|0:0,0:0:0:0:
335,48,18210,6,0,L|440:72,1,99.9999999999999,2|0,0:0|0:0,0:0:0:0:
474,66,18970,2,0,P|459:113|455:174,1,99.9999999999999,2|2,0:0|0:0,0:0:0:0:
467,199,19696,1,2,0:0:0:0:
384,254,20024,1,2,0:0:0:0:
293,207,20416,2,0,L|167:195,1,125,2|2,0:0|0:0,0:0:0:0:
57,64,21832,6,0,B|70:97|70:97|13:238|13:238|29:275,1,225,2|2,0:0|0:0,0:0:0:0:
74,347,23300,5,2,3:2:0:0:
206,346,24018,1,2,0:0:0:0:
247,227,24814,1,2,0:0:0:0:
256,192,24880,12,0,26403,0:0:0:0:
444,233,27484,6,0,P|400:211|332:200,1,99.9999999999999,6|2,3:2|0:0,0:0:0:0:
261,264,28201,2,0,P|212:274|167:296,1,99.9999999999999,2|2,0:0|0:0,0:0:0:0:
74,356,28919,2,0,L|85:235,1,99.9999999999999,2|2,0:0|0:0,0:0:0:0:
57,207,29457,1,2,0:0:0:0:
57,207,29637,2,0,L|49:100,1,99.9999999999999,2|2,0:0|1:2,0:0:0:0:
136,40,30354,6,0,P|185:64|229:61,1,99.9999999999999,2|2,3:2|0:0,0:0:0:0:
331,20,31072,2,0,P|380:-4|424:-1,1,99.9999999999999,2|2,0:0|0:0,0:0:0:0:
510,67,31790,2,0,P|490:107|473:167,1,99.9999999999999,2|2,0:0|0:0,0:0:0:0:
493,216,32328,1,2,0:0:0:0:
493,216,32507,2,0,L|502:283,1,50,2|2,3:2|3:2,0:0:0:0:
377,376,33225,6,0,B|335:350|335:350|272:360,1,99.9999999999999,2|2,3:2|0:0,0:0:0:0:
189,302,33943,2,0,L|200:198,1,99.9999999999999,2|2,0:0|0:0,0:0:0:0:
102,146,34661,2,0,B|53:154|53:154|11:128,1,99.9999999999999,2|2,0:0|0:0,0:0:0:0:
0,74,35199,1,2,0:0:0:0:
0,74,35378,2,0,L|-7:16,2,50,2|2|2,0:0|0:0|1:2,0:0:0:0:
101,31,36096,6,0,L|207:18,1,99.9999999999999,2|2,3:2|0:0,0:0:0:0:
287,86,36814,2,0,L|274:185,1,99.9999999999999,2|2,0:0|0:0,0:0:0:0:
322,284,37531,2,0,P|355:268|376:263,2,50,2|2|2,0:0|0:0|0:0,0:0:0:0:
233,350,38249,2,0,P|200:334|179:329,2,50,2|2|4,0:0|1:2|3:2,0:0:0:0:
338,384,38967,5,6,3:2:0:0:
445,362,39326,2,0,L|503:373,2,50,2|2|2,0:0|0:0|0:0,0:0:0:0:
366,285,40043,1,2,0:0:0:0:
459,226,40402,2,0,P|486:197|476:127,1,99.9999999999999,2|2,0:0|0:0,0:0:0:0:
419,49,41120,2,0,L|304:59,1,99.9999999999999,2|2,0:0|1:2,0:0:0:0:
216,17,41838,6,0,L|158:-1,2,50,2|2|2,3:2|0:0|0:0,0:0:0:0:
234,125,42555,2,0,P|217:168|215:234,1,99.9999999999999,2|2,0:0|0:0,0:0:0:0:
274,312,43273,1,2,3:2:0:0:
373,266,43632,1,2,3:2:0:0:
458,334,43991,2,0,L|467:399,2,50,2|2|2,3:2|1:2|3:2,0:0:0:0:
504,236,44708,5,6,3:2:0:0:
504,236,44888,2,0,P|505:212|517:172,1,50,2|2,0:0|0:0,0:0:0:0:
451,94,45426,2,0,P|396:71|347:81,1,99.9999999999999,2|2,0:0|0:0,0:0:0:0:
310,104,45964,1,2,0:0:0:0:
220,243,46503,2,0,P|222:266|226:292,2,50,2|2|2,0:0|0:0|0:0,0:0:0:0:
139,167,47220,1,2,1:2:0:0:
217,91,47579,6,0,B|266:80|266:80|326:112,1,99.9999999999999,2|2,3:2|0:0,0:0:0:0:
409,55,48297,2,0,B|458:44|458:44|518:76,1,99.9999999999999,2|2,0:0|0:0,0:0:0:0:
434,155,49015,5,2,1:2:0:0:
418,263,49373,1,0,1:2:0:0:
457,365,49732,2,0,P|481:351|506:345,2,50,2|2|2,0:0|0:0|1:2,0:0:0:0:
347,348,50450,6,0,P|313:325|244:319,1,99.9999999999999,6|2,3:2|0:2,0:0:0:0:
166,382,51168,1,2,0:2:0:0:
71,325,51527,1,2,0:0:0:0:
111,222,51885,2,0,P|105:170|83:111,1,99.9999999999999,2|2,0:2|0:2,0:0:0:0:
62,18,52603,2,0,B|147:-1|122:58|215:36,1,150,2|0,0:0|1:2,0:0:0:0:
246,0,53321,6,0,L|354:12,1,99.9999999999999,2|2,3:2|0:0,0:0:0:0:
418,93,54039,2,0,B|401:140|401:140|406:201,1,99.9999999999999,2|2,0:0|0:0,0:0:0:0:
475,274,54756,1,2,3:2:0:0:
413,365,55115,1,2,3:2:0:0:
307,332,55474,2,0,B|281:331|281:331|253:345,2,50,2|2|2,3:2|0:0|0:0,0:0:0:0:
311,221,56192,6,0,L|300:106,1,99.9999999999999,2|2,3:2|0:0,0:0:0:0:
227,40,56909,1,2,0:0:0:0:
127,87,57268,1,2,0:0:0:0:
176,185,57627,2,0,L|185:284,1,99.9999999999999,2|2,0:0|0:0,0:0:0:0:
235,383,58345,2,0,P|259:373|303:371,2,50,2|2|2,0:0|0:0|1:2,0:0:0:0:
126,363,59062,6,0,B|76:381|76:381|12:351,1,99.9999999999999,2|2,3:2|0:0,0:0:0:0:
0,255,59780,1,2,0:0:0:0:
63,165,60139,1,2,0:0:0:0:
162,212,60498,2,0,L|265:223,1,99.9999999999999,2|2,3:2|3:2,0:0:0:0:
366,256,61216,2,0,L|373:190,1,50,2|2,3:2|3:2,0:0:0:0:
392,155,61574,2,0,L|399:89,1,50,2|2,0:0|0:0,0:0:0:0:
376,54,61933,6,0,P|340:24|269:31,1,99.9999999999999,2|2,3:2|0:0,0:0:0:0:
185,60,62651,2,0,P|154:58|123:76,2,50,2|2|2,0:0|0:0|0:0,0:0:0:0:
245,152,63369,1,2,0:0:0:0:
189,246,63728,1,2,0:0:0:0:
274,314,64086,2,0,L|386:296,1,99.9999999999999,2|0,0:0|1:2,0:0:0:0:
474,340,64804,6,0,P|488:290|516:244,1,99.9999999999999,2|2,3:2|0:0,0:0:0:0:
452,156,65522,2,0,P|442:131|418:104,2,50,2|2|2,0:0|0:0|0:0,0:0:0:0:
393,249,66239,1,0,3:2:0:0:
287,219,66598,1,2,3:2:0:0:
177,228,66957,6,0,L|184:158,1,50,2|2,3:2|1:2,0:0:0:0:
159,127,67316,2,0,L|166:57,1,50,2|2,3:2|1:2,0:0:0:0:
197,33,67675,1,6,3:2:0:0:
256,192,68393,12,0,72699,0:0:0:0:
