osu file format v14

[General]
AudioFilename: audio.mp3
AudioLeadIn: 0
PreviewTime: 27413
Countdown: 0
SampleSet: Soft
StackLeniency: 0.3
Mode: 0
LetterboxInBreaks: 0
WidescreenStoryboard: 1

[Editor]
Bookmarks: 979,15228,27484,50450,72699
DistanceSpacing: 1.1
BeatDivisor: 4
GridSize: 8
TimelineZoom: 1.4

[Metadata]
Title:Ouvertuere der ewigen Nacht
TitleUnicode:永夜的序曲
Artist:Yu-Peng Chen @HOYO-MiX
ArtistUnicode:陈致逸 @HOYO-MiX
Creator:Nytrocide_
Version:Nachmark's Hard
Source:Genshin Impact
Tags:nachmark seolv [_l_u_k_a_s_] muya- bluirre asaiga fischl fisshuru theme video game videogame instrumental ost the stellar moments mihoyo gacha oz prinzessin der verurteilung sovereign of immernachtreich ouverture ganyumymommy nytro 永夜の序曲
BeatmapID:3429455
BeatmapSetID:1677677

[Difficulty]
HPDrainRate:4
CircleSize:3.8
OverallDifficulty:6.6
ApproachRate:7
SliderMultiplier:1.4
SliderTickRate:1

[Events]
//Background and Video events
0,0,"fish.jpg",0,0
//Break Periods
//Storyboard Layer 0 (Background)
//Storyboard Layer 1 (Fail)
//Storyboard Layer 2 (Pass)
//Storyboard Layer 3 (Foreground)
//Storyboard Layer 4 (Overlay)
//Storyboard Sound Samples

[TimingPoints]
979,526.315789473684,4,2,2,30,1,0
979,-121.951219512195,4,2,2,30,0,0
3534,521.739130434783,4,2,2,30,1,0
3534,-100,4,2,2,30,0,0
3910,530.973451327433,4,2,2,30,1,0
3910,-161.290322580645,4,2,2,30,0,0
4971,-161.290322580645,4,2,2,5,0,0
5637,533.333333333333,4,2,2,30,1,0
5637,-100,4,2,2,30,0,0
6436,454.545454545455,4,2,2,30,1,0
6436,-100,4,2,2,30,0,0
6778,521.739130434783,4,2,2,30,1,0
6778,-312.499999999999,4,2,2,30,0,0
9386,-312.499999999999,4,2,2,5,0,0
9646,523.1037489102,4,2,2,30,1,0
9646,-238.095238095238,4,2,2,30,0,0
12261,-238.095238095238,4,2,2,5,0,0
12524,527.704485488127,4,2,2,30,1,0
12524,-100,4,2,2,30,0,0
15228,705.882352941177,4,2,2,40,1,0
15228,-100,4,2,2,40,0,0
15406,586.797066014669,4,2,2,40,1,0
15406,-98.0392156862745,4,2,2,40,0,0
15992,714.285714285713,4,2,2,40,1,0
15992,-98.0392156862745,4,2,2,40,0,0
16170,606.060606060606,4,2,2,40,1,0
16170,-98.0392156862745,4,2,2,40,0,0
16473,714.285714285714,4,2,2,40,1,0
16473,-98.0392156862745,4,2,2,40,0,0
16827,540.540540540541,4,2,2,40,1,0
16827,-138.888888888889,4,2,2,40,0,0
17502,530.973451327434,4,2,2,40,1,0
17502,-98.0392156862745,4,2,2,40,0,0
18210,552.995391705069,4,2,2,40,1,0
18210,-138.888888888889,4,2,2,40,0,0
18782,745.341614906832,4,2,2,40,1,0
18782,-98.0392156862745,4,2,2,40,0,0
18970,540.540540540541,4,2,2,40,1,0
18970,-98.0392156862745,4,2,2,40,0,0
19510,745.341614906832,4,2,2,40,1,0
19510,-98.0392156862745,4,2,2,40,0,0
19696,526.315789473684,4,2,2,40,1,0
19696,-98.0392156862745,4,2,2,40,0,0
20416,535.714285714286,4,2,2,40,1,0
20416,-138.888888888889,4,2,2,40,0,0
21087,540.540540540541,4,2,2,40,1,0
21087,-98.0392156862745,4,2,2,40,0,0
21832,500,4,2,2,50,1,0
21832,-98.0392156862745,4,2,2,50,0,0
22144,508.474576271186,4,2,2,50,1,0
22144,-98.0392156862745,4,2,2,50,0,0
22525,389.61038961039,4,2,2,50,1,0
22525,-98.0392156862745,4,2,2,50,0,0
23300,526.315789473684,4,2,2,50,1,0
23300,-238.095238095238,4,2,2,50,0,0
23826,-238.095238095238,4,2,2,5,0,0
24018,594.059405940594,4,2,2,50,1,0
24018,-138.888888888889,4,2,2,50,0,0
24612,-138.888888888889,4,2,2,5,0,0
24814,529.801324503311,4,2,2,50,1,0
24814,-98.0392156862745,4,2,2,50,0,0
27484,358.851674641148,4,2,3,70,1,0
27484,-98.0392156862745,4,2,3,70,0,0
38967,-98.0392156862745,4,2,2,60,0,0
46503,-108.695652173913,4,2,2,60,0,0
47579,-89.2857142857143,4,2,2,60,0,0
49015,-98.0392156862745,4,2,2,60,0,0
50450,-98.0392156862745,4,2,1,75,0,0
52603,-98.0392156862745,4,2,2,75,0,0
52693,-98.0392156862745,4,2,1,75,0,0
53321,-98.0392156862745,4,2,2,75,0,0
53411,-98.0392156862745,4,2,1,75,0,0
55474,-98.0392156862745,4,2,2,75,0,0
56281,-98.0392156862745,4,2,1,75,0,0
58524,-98.0392156862745,4,2,2,75,0,0
59152,-98.0392156862745,4,2,1,75,0,0
60139,-98.0392156862745,4,2,2,75,0,0
60588,-98.0392156862745,4,2,1,75,0,0
61216,-98.0392156862745,4,2,2,75,0,0
62023,-98.0392156862745,4,2,1,75,0,0
62113,-98.0392156862745,4,2,2,75,0,0
62382,-98.0392156862745,4,2,1,75,0,0
63907,-98.0392156862745,4,2,2,75,0,0
64176,-98.0392156862745,4,2,1,75,0,0
66957,-98.0392156862745,4,2,2,75,0,0
67675,-98.0392156862745,4,2,1,75,0,0
68034,-98.0392156862745,4,2,1,50,0,0
72699,-98.0392156862745,4,2,1,5,0,0

[Colours]
Combo1 : 240,240,100
Combo2 : 135,150,220
Combo3 : 160,230,50
Combo4 : 170,135,200

[HitObjects]
78,129,979,5,2,0:0:0:0:
104,299,1768,2,0,P|156:275|197:276,2,76.5333345011394,2|2|2,0:0|0:0|0:0,0:0:0:0:
253,330,3171,5,2,0:0:0:0:
331,272,3534,1,2,0:0:0:0:
345,162,3910,2,0,B|299:139|262:177|276:197|238:228|190:210,1,173.599993112793,2|0,0:0|0:0,0:0:0:0:
48,111,5637,6,0,L|58:164,2,52.5,2|2|2,0:0|0:0|0:0,0:0:0:0:
141,31,6436,1,2,0:0:0:0:
224,74,6778,6,0,B|297:112|303:34|384:70|384:70|364:95|369:125,1,224,2|0,0:0|0:0,0:0:0:0:
456,188,9646,2,0,B|391:230|385:312|385:312|365:230|297:205,1,293.999991027832,2|0,0:0|0:0,0:0:0:0:
214,234,12523,5,2,0:0:0:0:
256,192,12655,12,0,14898,0:0:0:0:
25,351,15404,5,2,0:0:0:0:
81,211,15992,2,0,L|87:235,2,17.8500001089478,2|2|2,0:0|0:0|0:0,0:0:0:0:
51,124,16473,1,2,0:0:0:0:
188,160,16827,6,0,P|234:151|285:184,1,100.800002460938,2|0,0:0|0:0,0:0:0:0:
312,219,17502,1,2,0:0:0:0:
475,347,18210,6,0,L|472:262,1,75.6000018457032,2|0,0:0|0:0,0:0:0:0:
472,226,18782,1,2,0:0:0:0:
472,226,18970,2,0,P|424:216|382:235,1,95.2000005810547,2|0,0:0|0:0,0:0:0:0:
325,300,19510,2,0,L|321:325,2,17.8500001089478,2|2|2,0:0|0:0|0:0,0:0:0:0:
245,206,20024,1,2,0:0:0:0:
127,236,20416,6,0,P|105:167|119:130,1,100.800002460938,2|0,0:0|0:0,0:0:0:0:
142,105,21085,1,2,0:0:0:0:
440,11,21832,6,0,L|477:4,2,35.7000002178955,2|2|2,0:0|0:0|0:0,0:0:0:0:
416,22,22144,2,0,L|380:15,2,35.7000002178955,2|2|2,0:0|0:0|0:0,0:0:0:0:
463,96,22525,2,0,L|471:132,2,35.7000002178955,2|2|2,0:0|0:0|0:0,0:0:0:0:
415,197,22865,2,0,L|410:238,1,35.7000002178955,2|2,0:0|0:0,0:0:0:0:
441,367,23300,6,0,P|408:378|371:364,1,58.7999982055665,2|0,3:2|0:0,0:0:0:0:
347,377,24018,6,0,P|341:329|307:273,1,100.800002460938,2|0,0:0|0:0,0:0:0:0:
248,235,24814,1,2,0:0:0:0:
256,192,24946,12,0,26933,0:0:0:0:
30,127,27484,6,0,B|92:106|92:106|188:139,1,142.800000871582,6|2,3:2|0:0,0:0:0:0:
258,168,28022,1,2,0:0:0:0:
321,91,28201,2,0,P|344:117|350:152,1,71.400000435791,2|2,0:0|0:0,0:0:0:0:
420,224,28560,2,0,P|396:250|390:285,1,71.400000435791,2|2,0:0|0:0,0:0:0:0:
418,333,28829,1,0,0:0:0:0:
418,333,28919,6,0,P|352:300|264:323,1,142.800000871582,2|2,0:0|0:0,0:0:0:0:
196,356,29457,1,2,0:0:0:0:
102,318,29637,2,0,L|116:230,1,71.400000435791,2|2,0:0|0:0,0:0:0:0:
202,202,29995,2,0,L|194:157,3,35.7000002178955,2|0|2|0,1:2|1:2|1:2|1:2,0:0:0:0:
160,130,30354,6,0,P|210:138|285:80,1,142.800000871582,2|2,3:2|0:0,0:0:0:0:
337,3,30893,1,2,0:0:0:0:
398,81,31072,2,0,L|411:162,1,71.400000435791,2|2,0:0|0:0,0:0:0:0:
328,210,31431,2,0,L|321:289,1,71.400000435791,2|2,0:0|0:0,0:0:0:0:
395,348,31790,6,0,B|330:320|330:320|250:347,1,142.800000871582,2|2,0:0|0:0,0:0:0:0:
169,382,32328,1,2,0:0:0:0:
92,326,32507,1,2,3:2:0:0:
92,326,32687,1,2,3:2:0:0:
168,262,32866,2,0,L|174:181,1,71.400000435791,2|2,0:0|0:0,0:0:0:0:
237,113,33225,6,0,P|176:92|90:134,1,142.800000871582,2|2,3:2|0:0,0:0:0:0:
41,195,33763,1,2,0:0:0:0:
0,103,33943,2,0,L|5:29,1,71.400000435791,2|2,0:0|0:0,0:0:0:0:
103,12,34302,2,0,P|153:-5|196:19,1,71.400000435791,2|2,0:0|0:0,0:0:0:0:
213,32,34571,1,0,0:0:0:0:
213,32,34661,6,0,B|287:15|287:15|366:51,1,142.800000871582,2|2,0:0|0:0,0:0:0:0:
434,94,35199,1,2,0:0:0:0:
358,159,35378,2,0,L|367:254,1,71.400000435791,2|2,0:0|0:0,0:0:0:0:
459,262,35737,2,0,L|448:305,3,35.7000002178955,2|0|2|0,1:2|1:2|1:2|1:2,0:0:0:0:
480,336,36096,6,0,L|326:359,1,142.800000871582,2|2,3:2|0:0,0:0:0:0:
242,383,36634,1,2,0:0:0:0:
213,286,36814,2,0,P|179:274|144:277,1,71.400000435791,2|2,0:0|0:0,0:0:0:0:
87,358,37172,2,0,P|51:361|18:349,1,71.400000435791,2|2,0:0|0:0,0:0:0:0:
0,251,37531,6,0,L|11:173,1,71.400000435791,2|2,0:0|0:0,0:0:0:0:
49,90,37890,1,2,0:0:0:0:
49,90,38070,1,2,0:0:0:0:
142,54,38249,2,0,L|212:67,1,71.400000435791,2|4,1:2|3:2,0:0:0:0:
271,138,38607,1,2,0:0:0:0:
355,122,38787,5,0,1:2:0:0:
355,122,38877,1,0,1:2:0:0:
355,122,38967,2,0,P|358:157|346:190,1,71.400000435791,6|2,3:2|0:0,0:0:0:0:
309,270,39326,1,2,0:0:0:0:
309,270,39505,1,2,0:0:0:0:
378,320,39684,2,0,B|310:298|310:298|232:325,1,142.800000871582,2|2,0:0|0:0,0:0:0:0:
176,364,40223,1,2,0:0:0:0:
107,325,40402,6,0,L|115:240,1,71.400000435791,2|2,0:0|0:0,0:0:0:0:
172,200,40761,2,0,L|159:113,1,71.400000435791,2|2,0:0|0:0,0:0:0:0:
102,77,41120,2,0,P|157:46|191:59,1,71.400000435791,2|2,0:0|0:0,0:0:0:0:
240,41,41479,2,0,L|233:76,3,35.7000002178955,2|0|2|0,1:2|1:2|1:2|1:2,0:0:0:0:
266,120,41838,6,0,L|359:131,1,71.400000435791,2|2,3:2|0:0,0:0:0:0:
418,130,42196,1,2,0:0:0:0:
418,130,42376,1,2,0:0:0:0:
408,207,42555,2,0,L|396:371,1,142.800000871582,2|2,0:0|0:0,0:0:0:0:
323,320,43094,1,2,0:0:0:0:
261,368,43273,2,0,P|210:379|168:363,1,71.400000435791,2|2,3:2|0:0,0:0:0:0:
178,282,43632,2,0,L|180:205,1,71.400000435791,2|2,3:2|0:0,0:0:0:0:
135,120,43991,5,2,3:2:0:0:
135,120,44170,1,2,1:2:0:0:
44,75,44350,2,0,L|60:179,1,71.400000435791,2|2,3:2|0:0,0:0:0:0:
15,237,44708,6,0,B|58:217|93:248|78:262|128:279|171:253,1,142.800000871582,6|2,3:2|0:0,0:0:0:0:
332,180,45426,1,2,0:0:0:0:
332,180,45606,2,0,L|321:263,1,71.400000435791,2|2,0:0|0:0,0:0:0:0:
392,322,45964,2,0,P|333:294|252:323,1,142.800000871582,2|0,0:0|0:0,0:0:0:0:
176,348,46503,6,0,L|185:277,1,64.3999978381348,2|2,0:0|0:0,0:0:0:0:
104,241,46861,2,0,L|95:170,1,64.3999978381348,2|2,0:0|0:0,0:0:0:0:
172,128,47220,2,0,L|179:77,2,32.1999989190674,2|0|0,1:2|1:2|1:2,0:0:0:0:
271,177,47579,6,0,P|241:186|209:231,2,52.2666673046875,2|2|2,3:2|0:0|0:0,0:0:0:0:
282,254,47938,2,0,P|275:284|298:334,2,52.2666673046875,2|2|2,3:2|0:0|0:0,0:0:0:0:
354,283,48297,2,0,P|377:304|432:309,2,52.2666673046875,2|2|2,3:2|0:0|0:0,0:0:0:0:
416,235,48656,2,0,P|447:225|479:181,2,52.2666673046875,2|2|2,3:2|0:0|0:0,0:0:0:0:
402,156,49015,6,0,P|373:104|282:76,1,142.800000871582,2|0,1:2|1:2,0:0:0:0:
172,128,49643,1,2,0:0:0:0:
172,128,49732,2,0,L|158:208,1,71.400000435791,2|2,0:0|0:0,0:0:0:0:
154,291,50091,2,0,P|192:273|234:278,1,71.400000435791,2|2,1:2|1:2,0:0:0:0:
265,300,50360,1,0,1:2:0:0:
265,300,50450,6,0,P|315:250|385:270,1,142.800000871582,6|2,3:2|0:2,0:0:0:0:
425,353,50988,1,2,0:0:0:0:
507,295,51168,2,0,L|513:214,1,71.400000435791,2|2,0:2|0:2,0:0:0:0:
433,161,51527,2,0,L|419:60,1,71.400000435791,2|2,0:0|0:0,0:0:0:0:
399,51,51796,1,2,0:0:0:0:
399,51,51885,6,0,B|346:44|321:70|333:77|297:105|244:89,1,142.800000871582,2|2,0:2|0:2,0:0:0:0:
178,46,52424,1,2,0:2:0:0:
102,111,52603,2,0,L|109:208,1,71.400000435791,2|0,0:0|0:0,0:0:0:0:
180,257,52962,1,0,1:2:0:0:
180,257,53052,1,0,1:2:0:0:
180,257,53141,2,0,L|188:315,1,35.7000002178955,0|0,1:2|1:2,0:0:0:0:
185,343,53321,6,0,L|285:349,1,71.400000435791,2|2,3:2|0:0,0:0:0:0:
340,292,53680,2,0,L|417:281,1,71.400000435791,2|2,0:0|0:0,0:0:0:0:
501,323,54039,1,2,0:0:0:0:
501,323,54218,1,2,0:0:0:0:
484,224,54397,2,0,L|489:136,1,71.400000435791,2|2,0:0|0:0,0:0:0:0:
474,103,54667,1,2,0:0:0:0:
474,103,54756,6,0,P|436:95|401:109,1,71.400000435791,2|2,3:2|0:0,0:0:0:0:
323,163,55115,2,0,P|276:172|241:153,1,71.400000435791,2|2,3:2|0:0,0:0:0:0:
182,95,55474,1,2,3:2:0:0:
93,140,55653,1,2,0:0:0:0:
136,230,55833,2,0,L|128:294,2,47.6000002905273,2|2|2,0:0|0:0|0:0,0:0:0:0:
163,198,56192,6,0,P|214:185|293:239,1,142.800000871582,2|2,3:2|0:0,0:0:0:0:
367,289,56730,1,2,0:0:0:0:
451,235,56909,2,0,L|462:147,1,71.400000435791,2|2,0:0|0:0,0:0:0:0:
500,74,57268,2,0,P|469:56|434:61,1,71.400000435791,2|2,0:0|0:0,0:0:0:0:
358,126,57627,6,0,B|291:157|291:157|192:140,1,142.800000871582,2|2,0:0|0:0,0:0:0:0:
133,100,58165,1,2,0:0:0:0:
44,146,58345,2,0,L|47:229,1,71.400000435791,2|2,0:0|0:0,0:0:0:0:
119,286,58704,1,2,1:2:0:0:
119,286,58793,2,0,L|126:234,2,35.7000002178955,2|2|2,1:2|1:2|1:2,0:0:0:0:
59,341,59062,6,0,P|122:318|200:347,1,142.800000871582,2|2,3:2|0:0,0:0:0:0:
285,377,59601,1,2,0:0:0:0:
343,296,59780,2,0,L|418:284,1,71.400000435791,2|2,0:0|0:0,0:0:0:0:
502,331,60139,2,0,P|515:298|512:263,1,71.400000435791,2|2,0:0|0:0,0:0:0:0:
486,225,60408,1,2,0:0:0:0:
486,225,60498,6,0,L|471:142,1,71.400000435791,2|2,3:2|0:0,0:0:0:0:
500,58,60857,2,0,P|460:50|416:78,1,71.400000435791,2|2,3:2|0:0,0:0:0:0:
357,126,61216,1,2,3:2:0:0:
357,126,61395,1,2,3:2:0:0:
271,84,61574,1,2,0:0:0:0:
271,84,61754,1,2,0:0:0:0:
195,148,61933,6,0,P|133:141|64:197,1,142.800000871582,2|2,3:2|0:0,0:0:0:0:
27,276,62472,1,2,0:0:0:0:
99,344,62651,2,0,L|186:331,1,71.400000435791,2|2,0:0|0:0,0:0:0:0:
257,286,63010,2,0,L|341:293,1,71.400000435791,2|2,0:0|0:0,0:0:0:0:
390,370,63369,6,0,P|376:308|406:230,1,142.800000871582,2|2,0:0|0:0,0:0:0:0:
459,155,63907,1,2,0:0:0:0:
459,155,63997,1,2,0:0:0:0:
459,155,64086,2,0,P|428:137|392:137,1,71.400000435791,2|2,0:0|0:0,0:0:0:0:
307,189,64445,2,0,P|271:188|240:171,1,71.400000435791,0|0,1:2|1:2,0:0:0:0:
154,121,64804,6,0,L|172:269,1,142.800000871582,2|2,3:2|0:0,0:0:0:0:
105,338,65342,1,2,0:0:0:0:
202,359,65522,6,0,P|266:327|334:354,1,142.800000871582,2|2,0:0|0:0,0:0:0:0:
425,377,66060,1,2,0:0:0:0:
497,308,66239,6,0,B|462:239|462:239|487:155,1,142.800000871582,0|2,3:2|3:2,0:0:0:0:
500,77,66778,1,2,0:0:0:0:
417,30,66957,1,2,3:2:0:0:
417,30,67137,1,2,1:2:0:0:
346,100,67316,1,2,3:2:0:0:
346,100,67495,1,2,1:2:0:0:
252,62,67675,1,6,3:2:0:0:
43,59,68393,5,2,0:0:0:0:
256,192,68482,12,0,72699,0:0:0:0:
