osu file format v14

[General]
AudioFilename: audio.mp3
AudioLeadIn: 0
PreviewTime: 27413
Countdown: 0
SampleSet: Soft
StackLeniency: 0.3
Mode: 0
LetterboxInBreaks: 0
WidescreenStoryboard: 0

[Editor]
Bookmarks: 979,15228,27484,50450,72699
DistanceSpacing: 1.1
BeatDivisor: 6
GridSize: 16
TimelineZoom: 1.4

[Metadata]
Title:Ouvertuere der ewigen Nacht
TitleUnicode:永夜的序曲
Artist:Yu-Peng Chen @HOYO-MiX
ArtistUnicode:陈致逸 @HOYO-MiX
Creator:Nytrocide_
Version:Midnight Phantasmagoria
Source:Genshin Impact
Tags:nachmark seolv [_l_u_k_a_s_] muya- bluirre asaiga fischl fisshuru theme video game videogame instrumental ost the stellar moments mihoyo gacha oz prinzessin der verurteilung sovereign of immernachtreich ouverture ganyumymommy nytro 永夜の序曲
BeatmapID:3427623
BeatmapSetID:1677677

[Difficulty]
HPDrainRate:5
CircleSize:4.4
OverallDifficulty:8.8
ApproachRate:9.4
SliderMultiplier:2.2
SliderTickRate:1

[Events]
//Background and Video events
0,0,"fish.jpg",0,0
//Break Periods
//Storyboard Layer 0 (Background)
//Storyboard Layer 1 (Fail)
//Storyboard Layer 2 (Pass)
//Storyboard Layer 3 (Foreground)
//Storyboard Layer 4 (Overlay)
//Storyboard Sound Samples

[TimingPoints]
979,526.315789473684,4,2,2,30,1,0
979,-181.818181818181,4,2,2,30,0,0
1593,-181.818181818181,4,2,2,5,0,0
1768,-181.818181818181,4,2,2,30,0,0
3534,521.739130434783,4,2,2,30,1,0
3534,-100,4,2,2,30,0,0
3910,530.973451327433,4,2,2,30,1,0
3910,-222.222222222221,4,2,2,30,0,0
4971,-222.222222222221,4,2,2,5,0,0
5637,533.333333333333,4,2,2,30,1,0
5637,-222.222222222221,4,2,2,30,0,0
6436,454.545454545455,4,2,2,30,1,0
6436,-100,4,2,2,30,0,0
6778,521.739130434783,4,2,2,30,1,0
6778,-181.818181818181,4,2,2,30,0,0
7647,-181.818181818181,4,2,2,5,0,0
7821,-181.818181818181,4,2,2,30,0,0
9386,-181.818181818181,4,2,2,5,0,0
9646,523.1037489102,4,2,2,30,1,0
9646,-222.222222222221,4,2,2,30,0,0
12261,-222.222222222221,4,2,2,5,0,0
12524,527.704485488127,4,2,2,30,1,0
12524,-400,4,2,2,30,0,0
15228,705.882352941177,4,2,2,40,1,0
15228,-100,4,2,2,40,0,0
15406,586.797066014669,4,2,2,40,1,0
15406,-100,4,2,2,40,0,0
15992,714.285714285713,4,2,2,40,1,0
15992,-100,4,2,2,40,0,0
16170,606.060606060606,4,2,2,40,1,0
16170,-100,4,2,2,40,0,0
16473,714.285714285714,4,2,2,40,1,0
16473,-100,4,2,2,40,0,0
16827,540.540540540541,4,2,2,40,1,0
16827,-222.222222222221,4,2,2,40,0,0
17502,530.973451327434,4,2,2,40,1,0
17502,-100,4,2,2,40,0,0
18210,552.995391705069,4,2,2,40,1,0
18210,-181.818181818181,4,2,2,40,0,0
18782,745.341614906832,4,2,2,40,1,0
18782,-100,4,2,2,40,0,0
18970,540.540540540541,4,2,2,40,1,0
18970,-222.222222222221,4,2,2,40,0,0
19510,745.341614906832,4,2,2,40,1,0
19510,-100,4,2,2,40,0,0
19696,526.315789473684,4,2,2,40,1,0
19696,-100,4,2,2,40,0,0
20416,535.714285714286,4,2,2,40,1,0
20416,-285.714285714284,4,2,2,40,0,0
21087,540.540540540541,4,2,2,40,1,0
21087,-100,4,2,2,40,0,0
21832,500,4,2,2,50,1,0
21832,-133.333333333333,4,2,2,50,0,0
22144,508.474576271186,4,2,2,50,1,0
22144,-117.647058823529,4,2,2,50,0,0
22525,389.61038961039,4,2,2,50,1,0
22525,-181.818181818181,4,2,2,50,0,0
23300,526.315789473684,4,2,2,50,1,0
23300,-100,4,2,2,50,0,0
24018,594.059405940594,4,2,2,50,1,0
24018,-181.818181818181,4,2,2,50,0,0
24612,-181.818181818181,4,2,2,5,0,0
24814,529.801324503311,4,2,2,50,1,0
24814,-133.333333333333,4,2,2,50,0,0
26933,-285.714285714282,4,2,2,50,0,0
27484,358.851674641148,4,2,3,70,1,0
27484,-90.9090909090909,4,2,3,70,0,0
38967,-90.9090909090909,4,2,2,60,0,0
44708,-222.222222222221,4,2,2,60,0,0
45426,-166.666666666667,4,2,2,60,0,0
45964,-200,4,2,2,60,0,0
50450,-90.9090909090909,4,2,1,75,0,0
52603,-133.333333333333,4,2,2,75,0,0
52693,-133.333333333333,4,2,1,75,0,0
53321,-90.9090909090909,4,2,2,75,0,0
53411,-90.9090909090909,4,2,1,75,0,0
55474,-90.9090909090909,4,2,2,75,0,0
55833,-133.333333333333,4,2,2,75,0,0
56192,-90.9090909090909,4,2,2,75,0,0
56281,-90.9090909090909,4,2,1,75,0,0
58345,-133.333333333333,4,2,1,75,0,0
58524,-133.333333333333,4,2,2,75,0,0
59062,-90.9090909090909,4,2,2,75,0,0
59152,-90.9090909090909,4,2,1,75,0,0
60139,-90.9090909090909,4,2,2,75,0,0
60588,-90.9090909090909,4,2,1,75,0,0
61216,-90.9090909090909,4,2,2,75,0,0
62023,-90.9090909090909,4,2,1,75,0,0
62113,-90.9090909090909,4,2,2,75,0,0
62292,-133.333333333333,4,2,2,75,0,0
62382,-133.333333333333,4,2,1,75,0,0
62651,-90.9090909090909,4,2,1,75,0,0
63907,-90.9090909090909,4,2,2,75,0,0
64086,-133.333333333333,4,2,2,75,0,0
64176,-133.333333333333,4,2,1,75,0,0
66957,-133.333333333333,4,2,2,75,0,0
67137,-90.9090909090909,4,2,2,75,0,0
67316,-71.4285714285714,4,2,2,75,0,0
67495,-58.8235294117647,4,2,2,75,0,0
67675,-181.818181818181,4,2,1,75,0,0
68034,-181.818181818181,4,2,1,50,0,0
72699,-1000,4,2,1,5,0,0

[Colours]
Combo1 : 240,240,100
Combo2 : 135,150,220
Combo3 : 160,230,50
Combo4 : 170,135,200

[HitObjects]
8,240,979,6,0,P|81:238|142:191,1,141.166670974732,2|0,0:0|0:0,0:0:0:0:
117,117,1768,2,0,P|106:79|110:36,2,80.6666691284181,2|2|2,0:0|0:0|0:0,0:0:0:0:
235,384,3171,1,2,0:0:0:0:
226,362,3534,1,2,0:0:0:0:
247,275,3910,2,0,P|272:201|292:68,1,197.99999395752,2|0,0:0|0:0,0:0:0:0:
479,309,5637,6,0,P|495:311|519:319,2,37.1249988670349,2|2|2,0:0|0:0|0:0,0:0:0:0:
352,333,6436,1,2,0:0:0:0:
386,224,6778,2,0,B|352:137|255:166|255:166|271:184|274:209,1,201.666672821045,2|0,0:0|0:0,0:0:0:0:
314,275,7821,1,2,0:0:0:0:
257,377,8169,6,0,B|229:338|178:347|178:347|146:377|146:377|99:383|65:344|65:344|86:312|66:272,1,282.333341949463,2|0,0:0|0:0,0:0:0:0:
80,183,9647,6,0,B|81:107|10:84|10:84|85:86|107:16|107:16|108:91|176:113|176:113|102:111|80:183,1,494.999984893799,2|0,0:0|0:0,0:0:0:0:
72,289,12523,5,2,0:0:0:0:
256,192,12611,12,0,14898,0:0:0:0:
423,57,15228,5,2,0:0:0:0:
426,71,15316,1,2,0:0:0:0:
429,85,15406,1,2,0:0:0:0:
257,343,15992,5,2,0:0:0:0:
259,334,16051,1,2,0:0:0:0:
261,324,16111,1,2,0:0:0:0:
263,314,16170,1,2,0:0:0:0:
187,248,16473,1,2,0:0:0:0:
121,324,16827,2,0,P|76:340|27:329,1,98.9999969787599,2|0,0:0|0:0,0:0:0:0:
13,316,17502,5,2,0:0:0:0:
144,101,18210,6,0,P|191:90|243:115,1,105.875003231049,2|0,0:0|0:0,0:0:0:0:
260,202,18782,1,2,0:0:0:0:
265,214,18844,1,2,0:0:0:0:
273,224,18906,1,2,0:0:0:0:
281,231,18970,2,0,P|328:241|373:225,1,86.6249973564149,2|0,0:0|0:0,0:0:0:0:
436,184,19510,5,2,0:0:0:0:
439,170,19603,1,2,0:0:0:0:
442,156,19696,1,2,0:0:0:0:
501,69,20024,1,2,0:0:0:0:
420,12,20416,2,0,L|340:2,1,76.9999976501466,2|0,0:0|0:0,0:0:0:0:
330,0,21087,5,2,0:0:0:0:
17,105,21832,6,0,L|8:62,2,41.2500015735627,2|2|2,0:0|0:0|0:0,0:0:0:0:
28,120,22144,2,0,L|19:165,2,46.7500008916855,2|2|2,0:0|0:0|0:0,0:0:0:0:
110,155,22525,2,0,L|140:148,2,30.2500009231568,2|2|2,0:0|0:0|0:0,0:0:0:0:
99,67,22865,1,2,0:0:0:0:
102,52,22963,1,2,0:0:0:0:
75,312,23300,5,2,3:2:0:0:
231,102,24018,6,0,B|284:72|284:72|345:90,1,121.000003692627,2|0,0:0|0:0,0:0:0:0:
396,146,24814,1,2,0:0:0:0:
256,192,24902,12,0,26933,0:0:0:0:
180,202,27484,5,6,3:2:0:0:
188,201,27663,1,2,0:0:0:0:
254,107,27842,5,2,0:0:0:0:
255,115,28022,1,2,0:0:0:0:
349,181,28201,5,2,0:0:0:0:
341,182,28381,1,2,0:0:0:0:
275,276,28560,5,2,0:0:0:0:
274,268,28739,1,2,0:0:0:0:
143,90,28919,5,2,0:0:0:0:
60,122,29098,1,2,0:0:0:0:
350,148,29278,5,2,0:0:0:0:
364,59,29457,1,2,0:0:0:0:
196,297,29637,5,2,0:0:0:0:
266,353,29816,1,2,0:0:0:0:
151,135,29995,5,2,1:2:0:0:
147,112,30085,1,0,1:2:0:0:
143,90,30175,1,2,1:2:0:0:
139,67,30265,1,0,1:2:0:0:
135,45,30354,5,2,3:2:0:0:
41,0,30534,1,2,0:0:0:0:
303,109,30713,5,2,0:0:0:0:
348,15,30893,1,2,0:0:0:0:
239,277,31072,5,2,0:0:0:0:
333,322,31251,1,2,0:0:0:0:
71,213,31431,5,2,0:0:0:0:
26,307,31610,1,2,0:0:0:0:
186,160,31790,5,2,0:0:0:0:
333,322,31969,1,2,0:0:0:0:
173,384,32149,5,2,0:0:0:0:
303,220,32328,1,2,0:0:0:0:
182,274,32507,5,2,3:2:0:0:
473,230,32687,5,2,3:2:0:0:
440,157,32866,1,2,0:0:0:0:
488,92,33046,1,2,0:0:0:0:
361,149,33225,5,2,3:2:0:0:
392,222,33584,5,2,0:0:0:0:
285,20,33763,1,2,0:0:0:0:
272,247,33943,5,2,0:0:0:0:
275,12,34122,1,2,0:0:0:0:
174,193,34302,5,2,0:0:0:0:
270,0,34481,1,2,0:0:0:0:
333,322,34661,5,2,0:0:0:0:
270,236,34840,1,2,0:0:0:0:
244,348,35019,5,2,0:0:0:0:
274,224,35199,1,2,0:0:0:0:
177,285,35378,5,2,0:0:0:0:
286,219,35558,1,2,0:0:0:0:
174,193,35737,5,2,1:2:0:0:
151,190,35827,1,0,1:2:0:0:
128,187,35917,1,2,1:2:0:0:
106,184,36006,1,0,1:2:0:0:
83,181,36096,5,2,3:2:0:0:
202,29,36275,1,2,0:0:0:0:
354,147,36455,1,2,0:0:0:0:
235,299,36634,1,2,0:0:0:0:
368,46,36814,5,2,0:0:0:0:
253,135,36993,1,2,0:0:0:0:
341,249,37172,1,2,0:0:0:0:
455,159,37352,1,2,0:0:0:0:
265,240,37531,5,2,0:0:0:0:
351,172,37711,1,2,0:0:0:0:
417,258,37890,1,2,0:0:0:0:
330,325,38070,1,2,0:0:0:0:
242,112,38249,5,2,0:0:0:0:
258,384,38428,1,2,1:2:0:0:
274,32,38608,1,4,3:2:0:0:
106,256,38787,5,0,1:2:0:0:
112,294,38877,1,0,1:2:0:0:
120,334,38967,1,6,3:2:0:0:
120,334,39326,5,2,0:0:0:0:
106,256,39505,1,2,0:0:0:0:
151,190,39684,1,2,0:0:0:0:
229,175,39864,1,2,0:0:0:0:
229,175,39954,1,2,0:0:0:0:
229,175,40043,1,2,0:0:0:0:
294,219,40223,1,2,0:0:0:0:
372,204,40402,5,2,0:0:0:0:
413,145,40582,1,2,0:0:0:0:
402,85,40761,1,2,0:0:0:0:
361,57,40940,1,2,0:0:0:0:
325,63,41120,1,2,0:0:0:0:
311,82,41299,1,2,0:0:0:0:
372,204,41479,5,2,1:2:0:0:
370,222,41568,1,0,1:2:0:0:
367,249,41658,1,2,1:2:0:0:
363,289,41748,1,0,1:2:0:0:
357,349,41838,5,2,3:2:0:0:
421,384,42017,1,2,0:0:0:0:
483,346,42196,1,2,0:0:0:0:
481,273,42376,1,2,0:0:0:0:
413,145,42555,1,2,0:0:0:0:
294,219,42735,1,2,0:0:0:0:
294,219,42824,1,2,0:0:0:0:
294,219,42914,1,2,0:0:0:0:
210,206,43094,1,2,0:0:0:0:
159,137,43273,5,2,3:2:0:0:
171,52,43452,1,2,0:0:0:0:
171,52,43542,1,2,0:0:0:0:
171,52,43632,1,2,3:2:0:0:
240,1,43811,1,2,0:0:0:0:
324,13,43991,5,2,3:2:0:0:
362,167,44170,1,2,1:2:0:0:
210,206,44350,1,2,3:2:0:0:
210,206,44439,1,0,0:0:0:0:
210,206,44529,1,2,0:0:0:0:
171,52,44708,6,0,L|159:1,2,49.4999984893799,6|2|2,3:2|0:0|0:0,0:0:0:0:
210,206,45426,6,0,L|189:294,2,65.9999979858399,2|2|2,0:0|0:0|0:0,0:0:0:0:
111,136,45964,2,0,B|84:122|76:95|76:95|79:123|63:147,1,110,2|0,0:0|0:0,0:0:0:0:
4,216,46503,1,2,0:0:0:0:
35,256,46682,1,2,0:0:0:0:
17,282,46861,1,2,0:0:0:0:
22,296,47041,1,2,0:0:0:0:
28,384,47220,5,2,1:2:0:0:
46,374,47310,1,0,1:2:0:0:
65,366,47400,1,0,1:2:0:0:
84,360,47489,1,0,1:2:0:0:
105,356,47579,6,0,P|120:354|168:367,2,36.6666666666667,2|2|2,3:2|0:0|0:0,0:0:0:0:
193,295,47938,2,0,P|206:300|242:336,2,36.6666666666667,2|2|2,0:0|0:0|0:0,0:0:0:0:
281,379,48297,5,2,0:0:0:0:
348,308,48416,1,2,0:0:0:0:
436,351,48536,1,2,0:0:0:0:
292,384,48656,5,2,0:0:0:0:
351,323,48776,1,2,0:0:0:0:
427,360,48895,1,2,0:0:0:0:
270,374,49015,5,2,1:2:0:0:
445,342,49373,5,0,1:2:0:0:
331,224,49643,5,2,0:0:0:0:
331,224,49732,1,2,0:0:0:0:
402,112,49912,1,2,0:0:0:0:
290,41,50091,1,2,1:2:0:0:
219,153,50271,5,2,1:2:0:0:
219,153,50360,1,0,1:2:0:0:
219,153,50450,2,0,B|124:177|137:92|43:117,1,181.500005538941,6|0,3:2|0:0,0:0:0:0:
34,121,50809,5,2,0:2:0:0:
1,228,50988,1,2,0:0:0:0:
107,300,51168,5,2,0:2:0:0:
104,280,51347,1,2,0:2:0:0:
185,54,51527,1,2,0:0:0:0:
227,351,51706,5,2,0:0:0:0:
227,351,51796,1,0,0:0:0:0:
227,351,51885,1,2,0:2:0:0:
281,279,52065,1,2,0:0:0:0:
328,384,52244,5,2,0:2:0:0:
307,128,52424,1,2,0:2:0:0:
468,286,52603,6,0,B|504:267|509:228|509:228|519:260|497:287,1,123.750004720688,2|0,0:0|0:0,0:0:0:0:
504,359,52962,5,0,1:2:0:0:
497,307,53052,1,0,1:2:0:0:
491,256,53141,1,0,1:2:0:0:
485,205,53231,1,0,1:2:0:0:
479,154,53321,5,2,3:2:0:0:
378,224,53500,1,2,0:0:0:0:
206,58,53680,5,2,0:0:0:0:
307,128,53859,1,2,0:0:0:0:
408,58,54039,5,2,0:0:0:0:
281,279,54218,1,2,0:0:0:0:
204,36,54397,5,2,0:0:0:0:
213,192,54577,1,2,0:0:0:0:
213,192,54667,1,2,0:0:0:0:
213,192,54756,1,2,3:2:0:0:
307,128,54936,5,2,0:0:0:0:
92,80,55115,1,2,3:2:0:0:
158,290,55295,1,2,0:0:0:0:
220,7,55474,5,2,3:2:0:0:
30,214,55653,1,2,0:0:0:0:
305,276,55833,2,0,P|327:264|381:251,2,55.0000020980836,2|2|2,0:0|0:0|0:0,0:0:0:0:
235,353,56192,5,2,3:2:0:0:
239,375,56371,1,2,0:0:0:0:
158,290,56550,1,2,0:0:0:0:
359,341,56730,1,2,0:0:0:0:
434,252,56909,5,2,0:0:0:0:
430,274,57089,1,2,0:0:0:0:
512,194,57268,1,2,0:0:0:0:
295,233,57448,1,2,0:0:0:0:
225,143,57627,5,2,0:0:0:0:
229,165,57806,1,2,0:0:0:0:
151,74,57986,1,2,0:0:0:0:
393,101,58165,1,2,0:0:0:0:
473,2,58345,6,0,L|480:70,1,41.2500015735627,2|0,0:0|0:0,0:0:0:0:
469,56,58524,2,0,L|476:124,1,41.2500015735627,2|0,0:0|0:0,0:0:0:0:
512,194,58704,5,2,1:2:0:0:
460,187,58793,1,2,1:2:0:0:
409,181,58883,1,2,1:2:0:0:
358,175,58973,1,2,1:2:0:0:
307,169,59062,5,2,3:2:0:0:
398,278,59242,1,2,0:0:0:0:
331,384,59421,5,2,0:0:0:0:
326,360,59601,1,2,0:0:0:0:
384,67,59780,5,2,0:0:0:0:
393,302,59960,1,2,0:0:0:0:
307,169,60139,5,2,0:0:0:0:
255,176,60229,1,2,0:0:0:0:
204,182,60318,1,2,0:0:0:0:
153,188,60408,1,2,0:0:0:0:
102,194,60498,1,2,3:2:0:0:
33,43,60677,5,2,0:0:0:0:
36,57,60767,1,2,0:0:0:0:
40,72,60857,1,2,3:2:0:0:
205,336,61036,5,2,0:0:0:0:
209,321,61126,1,2,0:0:0:0:
212,307,61216,1,2,3:2:0:0:
379,85,61395,5,2,3:2:0:0:
335,380,61574,1,2,0:0:0:0:
102,194,61754,1,2,0:0:0:0:
377,228,61933,5,2,3:2:0:0:
212,307,62113,1,2,0:0:0:0:
386,242,62292,2,0,L|468:259,1,82.5000031471254,2|2,0:0|0:0,0:0:0:0:
271,182,62651,5,2,0:0:0:0:
267,202,62830,1,2,0:0:0:0:
248,80,63010,5,2,0:0:0:0:
443,166,63189,1,2,0:0:0:0:
337,14,63369,5,2,0:0:0:0:
374,254,63548,1,2,0:0:0:0:
158,143,63728,1,2,0:0:0:0:
198,365,63907,5,2,0:0:0:0:
202,350,63997,1,2,0:0:0:0:
205,336,64086,2,0,L|195:241,1,82.5000031471254,2|2,0:0|0:0,0:0:0:0:
69,46,64445,5,0,1:2:0:0:
121,53,64535,1,0,1:2:0:0:
172,59,64625,1,0,1:2:0:0:
223,65,64714,1,0,1:2:0:0:
274,71,64804,5,2,3:2:0:0:
3,150,64983,1,2,0:0:0:0:
196,253,65163,1,2,0:0:0:0:
93,375,65342,5,2,0:0:0:0:
89,360,65432,1,2,0:0:0:0:
86,346,65522,1,2,0:0:0:0:
130,150,65701,5,2,0:0:0:0:
196,253,65881,1,2,0:0:0:0:
314,219,66060,1,2,0:0:0:0:
318,204,66150,1,2,0:0:0:0:
321,190,66239,1,0,3:2:0:0:
251,73,66419,5,2,0:0:0:0:
196,253,66598,1,2,3:2:0:0:
347,370,66778,1,2,0:0:0:0:
512,275,66957,5,2,3:2:0:0:
470,277,67047,1,0,1:2:0:0:
429,279,67137,2,0,L|350:283,1,60.5000018463135,2|0,1:2|1:2,0:0:0:0:
53,145,67316,6,0,L|129:149,1,76.9999976501466,2|0,3:2|1:2,0:0:0:0:
472,8,67495,6,0,L|378:13,1,93.500001783371,2|0,1:2|1:2,0:0:0:0:
251,73,67675,5,6,3:2:0:0:
256,192,68393,12,0,72699,0:0:0:0:
