osu file format v14

[General]
AudioFilename: audio.mp3
AudioLeadIn: 0
PreviewTime: 27413
Countdown: 0
SampleSet: Soft
StackLeniency: 0.3
Mode: 0
LetterboxInBreaks: 0
WidescreenStoryboard: 1

[Editor]
Bookmarks: 979,15228,27484,50450,72699
DistanceSpacing: 1.1
BeatDivisor: 4
GridSize: 16
TimelineZoom: 1.4

[Metadata]
Title:Ouvertuere der ewigen Nacht
TitleUnicode:永夜的序曲
Artist:Yu-Peng Chen @HOYO-MiX
ArtistUnicode:陈致逸 @HOYO-MiX
Creator:Nytrocide_
Version:Collab Insane
Source:Genshin Impact
Tags:nachmark seolv [_l_u_k_a_s_] muya- bluirre asaiga fischl fisshuru theme video game videogame instrumental ost the stellar moments mihoyo gacha oz prinzessin der verurteilung sovereign of immernachtreich ouverture ganyumymommy nytro 永夜の序曲
BeatmapID:3432524
BeatmapSetID:1677677

[Difficulty]
HPDrainRate:4.4
CircleSize:4
OverallDifficulty:7.4
ApproachRate:9
SliderMultiplier:2.2
SliderTickRate:1

[Events]
//Background and Video events
0,0,"fish.jpg",0,0
//Break Periods
//Storyboard Layer 0 (Background)
//Storyboard Layer 1 (Fail)
//Storyboard Layer 2 (Pass)
//Storyboard Layer 3 (Foreground)
//Storyboard Layer 4 (Overlay)
//Storyboard Sound Samples

[TimingPoints]
979,526.315789473684,4,2,2,30,1,0
979,-181.818181818181,4,2,2,30,0,0
3534,521.739130434783,4,2,2,30,1,0
3534,-100,4,2,2,30,0,0
3910,530.973451327433,4,2,2,30,1,0
3910,-222.222222222221,4,2,2,30,0,0
5637,533.333333333333,4,2,2,30,1,0
5637,-222.222222222221,4,2,2,30,0,0
6436,454.545454545455,4,2,2,30,1,0
6436,-100,4,2,2,30,0,0
6778,521.739130434783,4,2,2,30,1,0
6778,-181.818181818181,4,2,2,30,0,0
9386,-181.818181818181,4,2,2,5,0,0
9646,523.1037489102,4,2,2,30,1,0
9646,-222.222222222221,4,2,2,30,0,0
12261,-222.222222222221,4,2,2,5,0,0
12524,527.704485488127,4,2,2,30,1,0
12524,-400,4,2,2,30,0,0
15228,705.882352941177,4,2,2,40,1,0
15228,-100,4,2,2,40,0,0
15406,586.797066014669,4,2,2,40,1,0
15406,-100,4,2,2,40,0,0
15992,714.285714285713,4,2,2,40,1,0
15992,-100,4,2,2,40,0,0
16170,606.060606060606,4,2,2,40,1,0
16170,-100,4,2,2,40,0,0
16473,714.285714285714,4,2,2,40,1,0
16473,-100,4,2,2,40,0,0
16827,540.540540540541,4,2,2,40,1,0
16827,-222.222222222221,4,2,2,40,0,0
17502,530.973451327434,4,2,2,40,1,0
17502,-100,4,2,2,40,0,0
18210,552.995391705069,4,2,2,40,1,0
18210,-181.818181818181,4,2,2,40,0,0
18782,745.341614906832,4,2,2,40,1,0
18782,-100,4,2,2,40,0,0
18970,540.540540540541,4,2,2,40,1,0
18970,-222.222222222221,4,2,2,40,0,0
19510,745.341614906832,4,2,2,40,1,0
19510,-100,4,2,2,40,0,0
19696,526.315789473684,4,2,2,40,1,0
19696,-100,4,2,2,40,0,0
20416,535.714285714286,4,2,2,40,1,0
20416,-200,4,2,2,40,0,0
21087,540.540540540541,4,2,2,40,1,0
21087,-100,4,2,2,40,0,0
21832,500,4,2,2,50,1,0
21832,-133.333333333333,4,2,2,50,0,0
22144,508.474576271186,4,2,2,50,1,0
22144,-117.647058823529,4,2,2,50,0,0
22525,389.61038961039,4,2,2,50,1,0
22525,-181.818181818181,4,2,2,50,0,0
23300,526.315789473684,4,2,2,50,1,0
23300,-100,4,2,2,50,0,0
24018,594.059405940594,4,2,2,50,1,0
24018,-181.818181818181,4,2,2,50,0,0
24612,-181.818181818181,4,2,2,5,0,0
24814,529.801324503311,4,2,2,50,1,0
24814,-222.222222222222,4,2,2,50,0,0
26933,-222.222222222222,4,2,2,50,0,0
27484,358.851674641148,4,2,3,70,1,0
27484,-133.333333333333,4,2,3,70,0,0
38967,-166.666666666667,4,2,2,60,0,0
44708,-153.846153846153,4,2,2,60,0,0
45426,-166.666666666667,4,2,2,60,0,0
45964,-200,4,2,2,60,0,0
47579,-133.333333333333,4,2,2,60,0,0
50450,-100,4,2,1,75,0,0
52603,-133.333333333333,4,2,2,75,0,0
52693,-133.333333333333,4,2,1,75,0,0
53321,-100,4,2,2,75,0,0
53411,-100,4,2,1,75,0,0
55474,-100,4,2,2,75,0,0
55833,-133.333333333333,4,2,2,75,0,0
56192,-100,4,2,2,75,0,0
56281,-100,4,2,1,75,0,0
58345,-133.333333333333,4,2,1,75,0,0
58524,-133.333333333333,4,2,2,75,0,0
59062,-100,4,2,2,75,0,0
59152,-100,4,2,1,75,0,0
60139,-100,4,2,2,75,0,0
60588,-100,4,2,1,75,0,0
61216,-100,4,2,2,75,0,0
62023,-100,4,2,1,75,0,0
62113,-100,4,2,2,75,0,0
62292,-133.333333333333,4,2,2,75,0,0
62382,-133.333333333333,4,2,1,75,0,0
62651,-100,4,2,1,75,0,0
63907,-100,4,2,2,75,0,0
64086,-133.333333333333,4,2,2,75,0,0
64176,-133.333333333333,4,2,1,75,0,0
66957,-133.333333333333,4,2,2,75,0,0
67137,-100,4,2,2,75,0,0
67316,-71.4285714285714,4,2,2,75,0,0
67495,-58.8235294117647,4,2,2,75,0,0
67675,-181.818181818181,4,2,1,75,0,0
68034,-181.818181818181,4,2,1,50,0,0
72699,-1000,4,2,1,5,0,0

[Colours]
Combo1 : 240,240,100
Combo2 : 135,150,220
Combo3 : 160,230,50
Combo4 : 170,135,200

[HitObjects]
273,88,979,6,0,B|297:150|254:194|254:194|223:231|221:276|221:276|209:234|226:188|226:188|202:141|166:184|110:171|110:171|146:212|194:197,1,504.166682052613,2|2,0:0|0:0,0:0:0:0:
380,295,3534,1,2,0:0:0:0:
330,348,3910,6,0,P|363:224|445:329,1,321.74999018097,2|2,0:0|0:0,0:0:0:0:
333,352,5837,1,2,0:0:0:0:
333,352,6037,2,0,P|308:304|311:276,1,74.2499977340699,2|2,0:0|0:0,0:0:0:0:
289,68,6778,6,0,P|264:127|453:34,1,605.000018463135,2|0,0:0|0:0,0:0:0:0:
390,146,9646,6,0,B|-7:184|-7:184|57:178|95:215,1,494.999984893799,2|0,0:0|0:0,0:0:0:0:
170,261,12524,2,0,B|225:267|257:230|280:155|208:183|220:100|268:56|313:67,1,281.875,2|2,0:0|0:0,0:0:0:0:
123,101,15406,5,2,0:0:0:0:
123,101,15992,2,0,L|130:144,2,27.5,2|2|2,0:0|0:0|0:0,0:0:0:0:
112,0,16473,1,2,0:0:0:0:
52,141,16827,2,0,B|37:112|45:82|45:82|36:112|4:128,1,123.74999622345,2|2,0:0|0:0,0:0:0:0:
7,211,18210,5,2,0:0:0:0:
4,344,18782,2,0,L|-3:387,2,27.5,2|2|2,0:0|0:0|0:0,0:0:0:0:
93,322,19510,2,0,L|86:365,2,27.5,2|2|2,0:0|0:0|0:0,0:0:0:0:
149,239,20024,1,2,0:0:0:0:
209,380,20416,2,0,B|224:351|213:314|213:314|225:351|257:367,1,137.5,2|2,0:0|0:0,0:0:0:0:
272,197,21832,6,0,L|315:184,2,41.2500015735627,2|2|2,0:0|0:0|0:0,0:0:0:0:
309,174,22144,2,0,L|357:163,2,46.7500008916855,2|2|2,0:0|0:0|0:0,0:0:0:0:
354,152,22525,2,0,L|384:144,2,30.2500009231568,2|2|2,0:0|0:0|0:0,0:0:0:0:
458,186,22865,1,2,0:0:0:0:
458,186,22963,1,2,0:0:0:0:
256,192,23300,1,2,3:2:0:0:
150,197,24018,6,0,P|179:174|260:198,1,121.000003692627,2|0,0:0|0:0,0:0:0:0:
202,329,24814,2,0,P|291:252|119:240,1,395.999987915039,2|0,0:0|0:0,0:0:0:0:
120,338,27484,6,0,L|211:327,1,82.5000031471254,6|2,3:2|0:0,0:0:0:0:
289,232,27842,2,0,L|198:243,1,82.5000031471254,2|2,0:0|0:0,0:0:0:0:
308,313,28201,1,2,0:0:0:0:
336,155,28381,1,2,0:0:0:0:
219,152,28560,1,2,0:0:0:0:
381,226,28740,1,2,0:0:0:0:
406,63,28919,6,0,L|417:154,1,82.5000031471254,2|2,0:0|0:0,0:0:0:0:
512,232,29278,2,0,L|501:141,1,82.5000031471254,2|2,0:0|0:0,0:0:0:0:
406,63,29637,1,2,0:0:0:0:
381,226,29816,1,2,0:0:0:0:
237,177,29995,1,2,1:2:0:0:
232,136,30084,1,0,1:2:0:0:
227,95,30174,1,2,1:2:0:0:
222,54,30265,1,0,1:2:0:0:
216,7,30354,6,0,L|125:18,1,82.5000031471254,2|2,3:2|0:0,0:0:0:0:
49,112,30713,2,0,L|130:102,1,82.5000031471254,2|2,0:0|0:0,0:0:0:0:
35,20,31072,1,2,0:0:0:0:
85,189,31251,1,2,0:0:0:0:
219,140,31431,1,2,0:0:0:0:
49,112,31610,1,2,0:0:0:0:
178,242,31790,6,0,L|187:323,1,82.5000031471254,2|2,0:0|0:0,0:0:0:0:
305,275,32149,2,0,L|295:193,1,82.5000031471254,2|2,0:0|0:0,0:0:0:0:
402,127,32507,2,0,L|409:174,1,41.2500015735627,2|0,3:2|0:0,0:0:0:0:
506,61,32687,2,0,L|513:108,1,41.2500015735627,2|0,3:2|0:0,0:0:0:0:
495,293,32866,1,2,0:0:0:0:
414,196,33046,1,2,0:0:0:0:
343,343,33225,6,0,L|261:352,1,82.5000031471254,2|2,3:2|0:0,0:0:0:0:
173,241,33584,2,0,L|254:231,1,82.5000031471254,2|2,0:0|0:0,0:0:0:0:
137,358,33943,1,2,0:0:0:0:
90,220,34122,1,2,0:0:0:0:
0,310,34302,1,2,0:0:0:0:
70,125,34481,1,2,0:0:0:0:
254,231,34661,6,0,L|243:322,1,82.5000031471254,2|2,0:0|0:0,0:0:0:0:
140,244,35020,2,0,L|151:153,1,82.5000031471254,2|2,0:0|0:0,0:0:0:0:
254,231,35379,1,2,0:0:0:0:
244,338,35558,1,2,0:0:0:0:
359,230,35737,1,2,1:2:0:0:
354,189,35826,1,0,1:2:0:0:
349,148,35916,1,2,1:2:0:0:
344,107,36007,1,0,1:2:0:0:
338,60,36096,6,0,L|247:71,1,82.5000031471254,2|2,3:2|0:0,0:0:0:0:
123,90,36455,1,2,0:0:0:0:
203,200,36634,1,2,0:0:0:0:
28,224,36814,2,0,L|109:214,1,82.5000031471254,2|2,0:0|0:0,0:0:0:0:
176,310,37172,2,0,L|94:319,1,82.5000031471254,2|2,0:0|0:0,0:0:0:0:
222,383,37531,6,0,P|269:338|272:312,1,82.5000031471254,2|2,0:0|0:0,0:0:0:0:
214,169,37890,2,0,P|229:232|250:247,1,82.5000031471254,2|2,0:0|0:0,0:0:0:0:
402,261,38249,2,0,P|339:242|315:253,2,82.5000031471254,2|2|4,0:0|1:2|3:2,0:0:0:0:
426,352,38787,1,0,1:2:0:0:
512,185,38967,5,6,3:2:0:0:
426,0,39326,6,0,L|408:88,1,65.9999979858399,2|2,0:0|0:0,0:0:0:0:
343,134,39684,1,2,0:0:0:0:
271,80,39864,1,2,0:0:0:0:
271,80,39954,1,2,0:0:0:0:
271,80,40043,1,2,0:0:0:0:
178,116,40223,1,2,0:0:0:0:
91,69,40402,6,0,L|18:60,1,65.9999979858399,2|2,0:0|0:0,0:0:0:0:
88,156,40761,2,0,L|161:147,1,65.9999979858399,2|2,0:0|0:0,0:0:0:0:
91,243,41120,2,0,L|18:234,1,65.9999979858399,2|2,0:0|0:0,0:0:0:0:
88,330,41479,1,2,1:2:0:0:
104,327,41568,1,0,1:2:0:0:
120,325,41658,1,2,1:2:0:0:
137,323,41748,1,0,1:2:0:0:
153,321,41838,6,0,L|239:310,1,65.9999979858399,2|2,3:2|0:0,0:0:0:0:
299,377,42196,1,2,0:0:0:0:
299,377,42376,1,2,0:0:0:0:
369,192,42555,1,2,0:0:0:0:
456,257,42735,1,2,0:0:0:0:
456,257,42824,1,2,0:0:0:0:
456,257,42914,1,2,0:0:0:0:
512,175,43094,1,2,0:0:0:0:
434,114,43273,6,0,L|424:45,1,65.9999979858399,2|2,3:2|0:0,0:0:0:0:
425,36,43542,1,2,0:0:0:0:
425,36,43632,1,2,3:2:0:0:
333,0,43811,1,2,0:0:0:0:
281,84,43991,2,0,L|271:149,1,65.9999979858399,2|2,3:2|1:2,0:0:0:0:
310,250,44350,1,2,3:2:0:0:
310,250,44440,1,0,0:0:0:0:
310,250,44529,1,2,0:0:0:0:
221,294,44708,6,0,B|165:281|165:281|140:295|140:295|77:280,1,142.99999345398,6|2,3:2|0:0,0:0:0:0:
106,107,45426,2,0,L|96:34,2,65.9999979858399,2|2|2,0:0|0:0|0:0,0:0:0:0:
154,174,45964,2,0,L|138:289,1,110,2|0,0:0|0:0,0:0:0:0:
73,356,46503,2,0,P|53:343|18:336,1,55,2|2,0:0|0:0,0:0:0:0:
181,371,46861,2,0,P|203:364|239:366,1,55,2|2,0:0|0:0,0:0:0:0:
350,277,47220,5,2,1:2:0:0:
327,273,47309,1,0,1:2:0:0:
303,270,47399,1,0,1:2:0:0:
279,267,47489,1,0,1:2:0:0:
255,264,47579,6,0,L|244:198,2,55.0000020980836,2|2|2,3:2|0:0|0:0,0:0:0:0:
156,213,47938,6,0,L|167:147,2,55.0000020980836,2|2|2,0:0|0:0|0:0,0:0:0:0:
233,100,48297,5,2,0:0:0:0:
223,87,48417,2,0,L|213:32,1,55.0000020980836,2|2,0:0|0:0,0:0:0:0:
314,142,48656,5,2,0:0:0:0:
324,129,48776,2,0,L|333:74,1,55.0000020980836,2|2,0:0|0:0,0:0:0:0:
416,133,49015,5,2,1:2:0:0:
361,373,49373,1,0,1:2:0:0:
492,237,49643,1,2,0:0:0:0:
492,237,49732,1,2,0:0:0:0:
333,148,49912,1,2,0:0:0:0:
381,276,50091,5,2,1:2:0:0:
362,267,50180,1,0,1:2:0:0:
342,262,50270,1,2,1:2:0:0:
321,258,50360,1,0,1:2:0:0:
301,258,50450,6,0,B|294:264|294:264|176:272,1,110,6|2,3:2|0:0,0:0:0:0:
113,190,50809,1,2,0:2:0:0:
116,208,50988,1,2,0:0:0:0:
100,305,51168,1,2,0:2:0:0:
97,323,51347,1,2,0:2:0:0:
23,243,51527,1,2,0:0:0:0:
193,270,51706,1,2,0:0:0:0:
113,190,51885,6,0,L|106:60,1,110,2|2,0:2|0:0,0:0:0:0:
212,20,52244,2,0,L|206:129,1,110,2|2,0:2|0:2,0:0:0:0:
295,208,52603,1,2,0:0:0:0:
277,205,52782,1,0,0:0:0:0:
338,105,52962,5,0,1:2:0:0:
361,115,53051,1,0,1:2:0:0:
381,131,53141,1,0,1:2:0:0:
395,153,53231,1,0,1:2:0:0:
402,177,53321,6,0,B|397:187|397:187|404:310,1,110,2|2,3:2|0:0,0:0:0:0:
463,364,53680,1,2,0:0:0:0:
481,361,53859,1,2,0:0:0:0:
328,343,54039,1,2,0:0:0:0:
310,340,54218,1,2,0:0:0:0:
402,285,54397,1,2,0:0:0:0:
228,382,54577,1,2,0:0:0:0:
228,382,54667,1,2,0:0:0:0:
228,382,54756,6,0,L|215:251,1,110,2|2,3:2|0:0,0:0:0:0:
326,113,55115,2,0,L|314:233,1,110,2|2,3:2|0:0,0:0:0:0:
402,285,55474,1,2,3:2:0:0:
420,282,55653,1,2,0:0:0:0:
241,293,55833,2,0,L|248:360,2,55.0000020980836,2|2|2,0:0|0:0|0:0,0:0:0:0:
154,214,56192,6,0,B|102:192|102:192|16:215,1,110,2|2,3:2|0:0,0:0:0:0:
217,134,56550,2,0,B|268:112|268:112|354:135,1,110,2|2,0:0|0:0,0:0:0:0:
414,193,56909,1,2,0:0:0:0:
411,175,57088,1,2,0:0:0:0:
435,73,57268,1,2,0:0:0:0:
305,24,57448,1,2,0:0:0:0:
273,207,57627,5,2,0:0:0:0:
270,225,57806,1,2,0:0:0:0:
134,105,57986,1,2,0:0:0:0:
131,87,58165,1,2,0:0:0:0:
194,0,58345,1,2,0:0:0:0:
79,196,58524,1,2,0:0:0:0:
232,103,58704,5,2,1:2:0:0:
257,106,58793,1,2,1:2:0:0:
282,110,58883,1,2,1:2:0:0:
308,114,58973,1,2,1:2:0:0:
333,118,59062,5,2,3:2:0:0:
175,228,59242,1,2,0:0:0:0:
282,327,59421,1,2,0:0:0:0:
285,309,59600,1,2,0:0:0:0:
172,340,59780,6,0,L|57:357,1,110,2|2,0:0|0:0,0:0:0:0:
376,225,60139,1,2,0:0:0:0:
401,229,60229,1,2,0:0:0:0:
426,233,60318,1,2,0:0:0:0:
451,237,60408,1,2,0:0:0:0:
475,242,60498,6,0,L|468:117,1,110,2|2,3:2|0:0,0:0:0:0:
351,10,60857,2,0,L|344:119,1,110,2|2,3:2|0:0,0:0:0:0:
256,172,61216,1,2,3:2:0:0:
238,169,61395,1,2,3:2:0:0:
125,118,61574,1,2,0:0:0:0:
253,43,61754,1,2,0:0:0:0:
157,213,61933,6,0,L|33:233,1,110,2|2,3:2|0:0,0:0:0:0:
210,295,62292,2,0,B|281:286|253:339|340:325,1,123.750004720688,2|0,0:0|0:0,0:0:0:0:
340,322,62651,1,2,0:0:0:0:
318,200,62830,1,2,0:0:0:0:
315,218,63009,1,2,0:0:0:0:
212,384,63189,1,2,0:0:0:0:
403,247,63369,6,0,P|453:220|521:210,1,110,2|2,0:0|0:0,0:0:0:0:
445,40,63728,2,0,P|414:85|399:138,1,110,2|2,0:0|0:0,0:0:0:0:
318,200,64086,2,0,P|303:162|299:122,1,82.5000031471254,2|2,0:0|0:0,0:0:0:0:
232,42,64445,1,0,1:2:0:0:
206,39,64534,1,0,1:2:0:0:
180,37,64624,1,0,1:2:0:0:
154,35,64714,1,0,1:2:0:0:
129,33,64804,6,0,L|30:49,1,82.5000031471254,2|2,3:2|0:0,0:0:0:0:
124,209,65163,2,0,L|140:110,1,82.5000031471254,2|2,0:0|0:0,0:0:0:0:
51,265,65522,1,2,0:0:0:0:
33,258,65701,1,2,0:0:0:0:
176,284,65881,1,2,0:0:0:0:
195,283,66060,1,2,0:0:0:0:
47,358,66239,5,0,3:2:0:0:
124,209,66419,1,2,0:0:0:0:
151,374,66598,1,2,3:2:0:0:
127,192,66778,1,2,0:0:0:0:
51,265,66957,5,2,3:2:0:0:
33,258,67047,1,0,1:2:0:0:
15,250,67137,5,2,1:2:0:0:
62,112,67316,5,2,3:2:0:0:
192,48,67495,5,2,1:2:0:0:
329,94,67675,5,6,3:2:0:0:
256,192,68393,12,0,72699,0:0:0:0:
