osu file format v14

[General]
AudioFilename: audio.mp3
AudioLeadIn: 0
PreviewTime: 27413
Countdown: 0
SampleSet: Soft
StackLeniency: 0.3
Mode: 0
LetterboxInBreaks: 0
WidescreenStoryboard: 1

[Editor]
Bookmarks: 979,15228,27484,28739,50450,72699
DistanceSpacing: 1.1
BeatDivisor: 6
GridSize: 16
TimelineZoom: 1.9

[Metadata]
Title:Ouvertuere der ewigen Nacht
TitleUnicode:永夜的序曲
Artist:Yu-Peng Chen @HOYO-MiX
ArtistUnicode:陈致逸 @HOYO-MiX
Creator:Nytrocide_
Version:Asaiga's Bolts of Downfall
Source:Genshin Impact
Tags:nachmark seolv [_l_u_k_a_s_] muya- bluirre asaiga fischl fisshuru theme video game videogame instrumental ost the stellar moments mihoyo gacha oz prinzessin der verurteilung sovereign of immernachtreich ouverture ganyumymommy nytro 永夜の序曲
BeatmapID:3433465
BeatmapSetID:1677677

[Difficulty]
HPDrainRate:5
CircleSize:4
OverallDifficulty:8
ApproachRate:9
SliderMultiplier:1.8
SliderTickRate:1

[Events]
//Background and Video events
0,0,"fish.jpg",0,0
//Break Periods
//Storyboard Layer 0 (Background)
//Storyboard Layer 1 (Fail)
//Storyboard Layer 2 (Pass)
//Storyboard Layer 3 (Foreground)
//Storyboard Layer 4 (Overlay)
//Storyboard Sound Samples

[TimingPoints]
979,526.315789473684,4,2,2,30,1,0
979,-125,4,2,2,30,0,0
1593,-125,4,2,2,5,0,0
1768,-125,4,2,2,30,0,0
3534,521.739130434783,4,2,2,30,1,0
3534,-100,4,2,2,30,0,0
3910,530.973451327433,4,2,2,30,1,0
3910,-125,4,2,2,30,0,0
4971,-125,4,2,2,5,0,0
5637,533.333333333333,4,2,2,30,1,0
5637,-100,4,2,2,30,0,0
6436,454.545454545455,4,2,2,30,1,0
6436,-100,4,2,2,30,0,0
6778,521.739130434783,4,2,2,30,1,0
6778,-125,4,2,2,30,0,0
7734,-125,4,2,2,5,0,0
7821,-125,4,2,2,30,0,0
9473,-125,4,2,2,5,0,0
9646,523.1037489102,4,2,2,30,1,0
9646,-125,4,2,2,30,0,0
10605,-125,4,2,2,5,0,0
10692,-125,4,2,2,30,0,0
11738,-125,4,2,2,5,0,0
11825,-125,4,2,2,30,0,0
12524,527.704485488127,4,2,2,30,1,0
12524,-100,4,2,2,30,0,0
15228,705.882352941177,4,2,2,40,1,0
15228,-100,4,2,2,40,0,0
15406,586.797066014669,4,2,2,40,1,0
15406,-100,4,2,2,40,0,0
15992,714.285714285713,4,2,2,40,1,0
15992,-62.5,4,2,2,40,0,0
16170,606.060606060606,4,2,2,40,1,0
16170,-100,4,2,2,40,0,0
16473,714.285714285714,4,2,2,40,1,0
16473,-100,4,2,2,40,0,0
16827,540.540540540541,4,2,2,40,1,0
16827,-125,4,2,2,40,0,0
17502,530.973451327434,4,2,2,40,1,0
17502,-100,4,2,2,40,0,0
18210,552.995391705069,4,2,2,40,1,0
18210,-125,4,2,2,40,0,0
18782,745.341614906832,4,2,2,40,1,0
18782,-62.5,4,2,2,40,0,0
18970,540.540540540541,4,2,2,40,1,0
18970,-100,4,2,2,40,0,0
19510,745.341614906832,4,2,2,40,1,0
19510,-62.5,4,2,2,40,0,0
19696,526.315789473684,4,2,2,40,1,0
19696,-100,4,2,2,40,0,0
20416,535.714285714286,4,2,2,40,1,0
20416,-125,4,2,2,40,0,0
21087,540.540540540541,4,2,2,40,1,0
21087,-100,4,2,2,40,0,0
21832,500,4,2,2,50,1,0
21832,-100,4,2,2,50,0,0
22144,508.474576271186,4,2,2,50,1,0
22144,-100,4,2,2,50,0,0
22525,389.61038961039,4,2,2,50,1,0
22525,-100,4,2,2,50,0,0
23300,526.315789473684,4,2,2,50,1,0
23300,-100,4,2,2,50,0,0
24018,594.059405940594,4,2,2,50,1,0
24018,-100,4,2,2,50,0,0
24814,529.801324503311,4,2,2,50,1,0
24814,-100,4,2,2,50,0,0
27484,358.851674641148,4,2,3,70,1,0
27484,-100,4,2,3,70,0,0
38967,-100,4,2,2,60,0,0
44708,-125,4,2,2,60,0,0
45336,-125,4,2,2,5,0,0
45426,-125,4,2,2,60,0,0
47579,-100,4,2,2,60,0,0
50450,-71.4285714285714,4,2,1,75,0,0
52603,-71.4285714285714,4,2,2,75,0,0
52693,-71.4285714285714,4,2,1,75,0,0
53321,-71.4285714285714,4,2,2,75,0,0
53411,-71.4285714285714,4,2,1,75,0,0
55474,-71.4285714285714,4,2,2,75,0,0
56281,-71.4285714285714,4,2,1,75,0,0
58524,-71.4285714285714,4,2,2,75,0,0
59152,-71.4285714285714,4,2,1,75,0,0
60139,-71.4285714285714,4,2,2,75,0,0
60588,-71.4285714285714,4,2,1,75,0,0
61216,-71.4285714285714,4,2,2,75,0,0
62023,-71.4285714285714,4,2,1,75,0,0
62113,-71.4285714285714,4,2,2,75,0,0
62382,-71.4285714285714,4,2,1,75,0,0
63907,-71.4285714285714,4,2,2,75,0,0
64176,-71.4285714285714,4,2,1,75,0,0
66957,-71.4285714285714,4,2,2,75,0,0
67675,-71.4285714285714,4,2,1,75,0,0
68034,-71.4285714285714,4,2,1,50,0,0
72699,-71.4285714285714,4,2,1,5,0,0

[Colours]
Combo1 : 240,240,100
Combo2 : 135,150,220
Combo3 : 160,230,50
Combo4 : 170,135,200

[HitObjects]
45,56,979,6,0,B|133:33|112:105|207:79,1,168,2|0,0:0|0:0,0:0:0:0:
324,122,1768,2,0,B|301:118|292:104|292:104|284:136|248:158,2,96,2|2|2,0:0|0:0|0:0,0:0:0:0:
66,260,3171,5,2,0:0:0:0:
110,195,3534,5,2,0:0:0:0:
114,324,3910,6,0,B|193:339|253:336|263:332|278:259|252:234|205:227|165:252|182:296,1,288,2|0,0:0|0:0,0:0:0:0:
373,84,5637,6,0,L|382:2,2,67.5,2|2|2,0:0|0:0|0:0,0:0:0:0:
418,153,6437,5,2,0:0:0:0:
360,207,6778,6,0,B|204:224|236:327|333:275|238:159,1,264,2|0,0:0|0:0,0:0:0:0:
221,148,7821,1,2,0:0:0:0:
24,165,8256,6,0,B|140:202|119:330|42:377|32:298|75:240|164:228,1,336,2|0,0:0|0:0,0:0:0:0:
247,286,9647,2,0,B|285:307|275:344|260:387|305:291|346:271|386:281|454:359|423:317|412:288|443:253,1,264,2|0,0:0|0:0,0:0:0:0:
455,243,10692,1,2,0:0:0:0:
329,126,11128,2,0,B|284:65|316:-3|386:5|385:55,1,168,2|0,0:0|0:0,0:0:0:0:
381,52,11825,5,2,0:0:0:0:
266,75,12174,1,2,0:0:0:0:
169,13,12524,1,2,0:0:0:0:
256,192,12655,12,0,14898,0:0:0:0:
422,273,15228,5,2,0:0:0:0:
443,275,15316,1,2,0:0:0:0:
468,277,15406,1,2,0:0:0:0:
360,188,15992,6,0,L|351:156,3,24,2|2|2|2,0:0|0:0|0:0|0:0,0:0:0:0:
335,344,16473,5,2,0:0:0:0:
256,304,16827,6,0,L|74:325,1,144,2|0,0:0|0:0,0:0:0:0:
9,279,17502,5,2,0:0:0:0:
186,24,18210,6,0,L|207:137,1,108,2|0,0:0|0:0,0:0:0:0:
156,216,18782,2,0,L|122:205,2,24,2|2|2,0:0|0:0|0:0,0:0:0:0:
174,223,18970,2,0,L|201:366,1,135,2|0,0:0|0:0,0:0:0:0:
450,257,19510,6,0,L|489:271,2,36,2|2|2,0:0|0:0|0:0,0:0:0:0:
368,330,20024,5,2,0:0:0:0:
347,187,20416,6,0,L|371:42,1,144,2|0,0:0|0:0,0:0:0:0:
283,0,21085,5,2,0:0:0:0:
71,277,21832,6,0,L|15:301,2,45,2|2|2,0:0|0:0|0:0,0:0:0:0:
84,257,22144,2,0,L|139:275,2,45,2|2|2,0:0|0:0|0:0,0:0:0:0:
34,190,22525,6,0,L|16:138,2,45,2|2|2,0:0|0:0|0:0,0:0:0:0:
96,32,22865,2,0,L|85:95,1,45,2|2,0:0|0:0,0:0:0:0:
147,279,23300,5,2,3:2:0:0:
256,192,24018,12,0,26933,0:0:0:0:
155,80,27484,5,6,3:2:0:0:
90,125,27663,1,2,0:0:0:0:
160,158,27842,5,2,0:0:0:0:
90,125,28022,1,2,0:0:0:0:
220,36,28201,5,2,0:0:0:0:
90,125,28381,1,2,0:0:0:0:
232,193,28560,5,2,0:0:0:0:
90,125,28739,1,2,0:0:0:0:
88,252,28919,5,2,0:0:0:0:
164,232,29098,1,2,0:0:0:0:
148,310,29278,1,2,0:0:0:0:
164,232,29457,1,2,0:0:0:0:
208,365,29637,5,2,0:0:0:0:
164,232,29816,1,2,0:0:0:0:
396,280,29995,5,2,1:2:0:0:
351,255,30085,1,0,1:2:0:0:
325,287,30175,1,2,1:2:0:0:
297,276,30265,1,0,1:2:0:0:
290,283,30354,5,2,3:2:0:0:
326,187,30534,1,2,0:0:0:0:
293,95,30713,5,2,0:0:0:0:
326,187,30893,1,2,0:0:0:0:
206,54,31072,5,2,0:0:0:0:
293,95,31251,1,2,0:0:0:0:
117,89,31431,5,2,0:0:0:0:
206,54,31610,1,2,0:0:0:0:
74,181,31790,5,2,0:0:0:0:
116,263,31969,1,2,0:0:0:0:
151,198,32149,5,2,0:0:0:0:
40,254,32328,1,2,0:0:0:0:
40,115,32507,5,2,3:2:0:0:
151,333,32686,1,2,3:2:0:0:
151,198,32866,5,2,0:0:0:0:
40,254,33045,1,2,0:0:0:0:
292,343,33225,5,2,3:2:0:0:
292,343,33943,5,2,0:0:0:0:
327,263,34122,1,2,0:0:0:0:
373,384,34302,1,2,0:0:0:0:
327,263,34481,1,2,0:0:0:0:
199,335,34661,5,2,0:0:0:0:
161,265,34840,1,2,0:0:0:0:
128,381,35019,5,2,0:0:0:0:
128,381,35199,1,2,0:0:0:0:
187,191,35378,5,2,0:0:0:0:
90,306,35558,1,2,0:0:0:0:
46,81,35737,5,2,1:2:0:0:
87,109,35827,1,0,1:2:0:0:
71,147,35917,1,2,1:2:0:0:
96,157,36006,1,0,1:2:0:0:
98,170,36096,5,2,3:2:0:0:
178,109,36275,1,2,0:0:0:0:
303,131,36455,5,2,0:0:0:0:
279,149,36634,1,2,0:0:0:0:
328,31,36814,5,2,0:0:0:0:
431,82,36993,1,2,0:0:0:0:
443,211,37172,5,2,0:0:0:0:
431,185,37352,1,2,0:0:0:0:
506,337,37531,5,2,0:0:0:0:
413,367,37711,1,2,0:0:0:0:
251,241,37890,5,2,0:0:0:0:
391,286,38070,1,2,0:0:0:0:
113,359,38249,5,2,0:0:0:0:
257,215,38428,1,2,1:2:0:0:
130,47,38608,1,4,3:2:0:0:
130,47,38698,1,0,0:0:0:0:
130,47,38787,1,0,1:2:0:0:
130,47,38877,1,0,1:2:0:0:
130,47,38967,5,6,3:2:0:0:
130,47,41299,5,2,0:0:0:0:
30,95,41479,1,2,1:2:0:0:
3,144,41568,1,0,1:2:0:0:
28,168,41658,1,2,1:2:0:0:
23,189,41748,1,0,1:2:0:0:
26,198,41838,5,2,3:2:0:0:
26,198,43273,1,2,3:2:0:0:
26,198,43632,1,2,3:2:0:0:
26,198,43991,5,2,3:2:0:0:
141,254,44170,1,2,1:2:0:0:
8,357,44350,1,2,3:2:0:0:
50,327,44439,1,0,0:0:0:0:
77,352,44529,1,2,0:0:0:0:
98,339,44619,1,0,0:0:0:0:
113,347,44708,6,0,B|207:371|190:235|353:301,1,252,6|0,3:2|0:0,0:0:0:0:
343,297,45426,1,2,0:0:0:0:
410,353,45606,1,2,0:0:0:0:
435,273,45785,5,2,0:0:0:0:
412,365,45964,1,2,0:0:0:0:
356,20,46503,5,2,0:0:0:0:
265,60,46682,1,2,0:0:0:0:
311,141,46861,1,2,0:0:0:0:
374,97,47041,1,2,0:0:0:0:
323,81,47220,5,2,1:2:0:0:
311,141,47310,1,0,1:2:0:0:
300,201,47400,1,0,1:2:0:0:
289,260,47489,1,0,1:2:0:0:
279,320,47579,6,0,P|258:298|230:288,1,60,2|2,3:2|0:0,0:0:0:0:
140,278,47818,1,2,0:0:0:0:
119,357,47938,6,0,P|178:352|214:285,1,120,2|2,0:0|0:0,0:0:0:0:
269,201,48297,5,2,0:0:0:0:
273,178,48417,1,2,0:0:0:0:
277,155,48536,1,2,0:0:0:0:
184,167,48656,5,2,0:0:0:0:
175,144,48776,1,2,0:0:0:0:
168,122,48895,1,2,0:0:0:0:
93,198,49015,5,2,1:2:0:0:
93,198,49373,1,0,1:2:0:0:
93,198,49732,5,2,0:0:0:0:
281,69,49912,1,2,0:0:0:0:
112,208,50091,5,2,1:2:0:0:
182,198,50181,1,0,1:2:0:0:
235,245,50271,1,2,1:2:0:0:
294,291,50360,1,0,1:2:0:0:
366,273,50450,6,0,B|289:260|285:364|200:351,1,188.999994232178,6|0,3:2|0:0,0:0:0:0:
196,366,50809,2,0,P|148:322|79:323,1,125.999996154785,2|2,0:2|0:0,0:0:0:0:
103,107,51168,5,2,0:2:0:0:
64,189,51347,1,2,0:2:0:0:
193,251,51527,5,2,0:0:0:0:
182,137,51706,1,2,0:0:0:0:
300,18,51885,6,0,P|354:100|441:82,1,188.999994232178,2|0,0:2|0:0,0:0:0:0:
433,88,52244,1,2,0:2:0:0:
409,201,52424,1,2,0:2:0:0:
327,347,52603,5,2,0:0:0:0:
305,176,52783,1,0,0:0:0:0:
187,357,52962,5,0,1:2:0:0:
150,314,53052,1,0,1:2:0:0:
113,341,53141,1,0,1:2:0:0:
88,319,53231,1,0,1:2:0:0:
72,329,53321,6,0,B|26:211|100:213|68:139,1,188.999994232178,2|0,3:2|0:0,0:0:0:0:
59,117,53680,2,0,P|107:156|177:142,1,125.999996154785,2|2,0:0|0:0,0:0:0:0:
305,9,54039,5,2,0:0:0:0:
238,102,54218,1,2,0:0:0:0:
281,258,54397,1,2,0:0:0:0:
233,80,54577,1,2,0:0:0:0:
72,329,54756,6,0,B|118:320|118:320|134:291|134:291|181:281,1,125.999996154785,2|2,3:2|0:0,0:0:0:0:
464,134,55115,2,0,B|418:125|418:125|402:96|402:96|357:86,1,125.999996154785,2|2,3:2|0:0,0:0:0:0:
137,62,55474,5,2,3:2:0:0:
340,183,55653,1,2,0:0:0:0:
140,342,55833,5,2,0:0:0:0:
159,326,55952,1,2,0:0:0:0:
172,305,56072,1,2,0:0:0:0:
178,281,56192,6,0,P|244:349|347:338,1,188.999994232178,2|0,3:2|0:0,0:0:0:0:
349,337,56550,2,0,P|391:287|393:213,1,125.999996154785,2|2,0:0|0:0,0:0:0:0:
321,34,56909,5,2,0:0:0:0:
283,219,57089,1,2,0:0:0:0:
386,105,57268,5,2,0:0:0:0:
283,219,57448,1,2,0:0:0:0:
49,73,57627,6,0,B|113:85|167:34|167:34|181:62|226:74,1,188.999994232178,2|0,0:0|0:0,0:0:0:0:
212,69,57986,1,2,0:0:0:0:
283,219,58165,1,2,0:0:0:0:
139,201,58345,5,2,0:0:0:0:
296,123,58524,1,2,0:0:0:0:
238,373,58704,1,2,1:2:0:0:
233,328,58793,1,2,1:2:0:0:
229,283,58883,1,2,1:2:0:0:
224,238,58973,1,2,1:2:0:0:
221,194,59062,6,0,B|85:229|156:287|54:307,1,188.999994232178,2|0,3:2|0:0,0:0:0:0:
51,317,59421,2,0,P|112:326|160:382,1,125.999996154785,2|2,0:0|0:0,0:0:0:0:
306,225,59780,5,2,0:0:0:0:
238,373,59960,1,2,0:0:0:0:
259,116,60139,5,2,0:0:0:0:
296,122,60229,1,2,0:0:0:0:
329,105,60318,1,2,0:0:0:0:
353,75,60408,1,2,0:0:0:0:
360,37,60498,6,0,B|403:53|403:53|412:87|412:87|456:102,1,125.999996154785,2|2,3:2|0:0,0:0:0:0:
174,163,60857,2,0,B|131:179|131:179|122:213|122:213|78:228,1,125.999996154785,2|2,3:2|0:0,0:0:0:0:
252,344,61216,5,2,3:2:0:0:
201,246,61395,1,2,3:2:0:0:
392,168,61574,1,2,0:0:0:0:
140,59,61754,1,2,0:0:0:0:
252,344,61933,5,2,3:2:0:0:
201,246,62113,1,2,0:0:0:0:
260,364,62292,2,0,P|334:313|429:342,1,188.999994232178,2|0,0:0|0:0,0:0:0:0:
423,337,62651,5,2,0:0:0:0:
414,201,62830,1,2,0:0:0:0:
499,90,63010,5,2,0:0:0:0:
404,219,63189,1,2,0:0:0:0:
356,40,63369,6,0,B|287:46|242:16|242:16|207:23|177:70,1,188.999994232178,2|0,0:0|0:0,0:0:0:0:
186,56,63728,1,2,0:0:0:0:
36,164,63907,5,2,0:0:0:0:
77,179,63997,1,2,0:0:0:0:
100,163,64086,1,2,0:0:0:0:
209,141,64266,1,2,0:0:0:0:
76,309,64445,5,0,1:2:0:0:
219,256,64625,1,0,1:2:0:0:
258,280,64714,1,0,1:2:0:0:
300,262,64804,6,0,B|404:245|358:346|460:332,1,188.999994232178,2|0,3:2|0:0,0:0:0:0:
460,331,65163,1,2,0:0:0:0:
512,185,65342,1,2,0:0:0:0:
382,60,65522,6,0,B|404:119|404:119|383:181,1,125.999996154785,2|2,0:0|0:0,0:0:0:0:
154,354,65881,2,0,B|132:295|132:295|153:233,1,125.999996154785,2|2,0:0|0:0,0:0:0:0:
313,122,66239,5,0,3:2:0:0:
226,290,66419,1,2,0:0:0:0:
209,146,66598,5,2,3:2:0:0:
328,273,66778,1,2,0:0:0:0:
433,116,66957,5,2,3:2:0:0:
152,235,67137,1,2,1:2:0:0:
451,137,67316,5,2,3:2:0:0:
127,26,67495,1,2,1:2:0:0:
354,0,67675,5,6,3:2:0:0:
256,192,68393,12,0,72699,0:0:0:0:
