osu file format v14

[General]
AudioFilename: audio.mp3
AudioLeadIn: 0
PreviewTime: 31434
Countdown: 0
SampleSet: Soft
StackLeniency: 0.4
Mode: 0
LetterboxInBreaks: 0
WidescreenStoryboard: 0

[Editor]
Bookmarks: 309,7509,17109,24309,31509,41109,51309,53709
DistanceSpacing: 1.4
BeatDivisor: 2
GridSize: 4
TimelineZoom: 3.799999

[Metadata]
Title:Nimble as Lightning
TitleUnicode:霆霓快雨
Artist:Yu-Peng Chen @HOYO-MiX
ArtistUnicode:陈致逸 @HOYO-MiX
Creator:lit120
Version:Trulla Cementarii
Source:Genshin Impact
Tags:疾雷 刻晴 Kèqíng Keqing Theme The Stellar Moments inaugural character album Mihoyo OST Liyue Qixing instrumental video games gacha electro eri kitamura 喜多村英梨 RPG action open world 原神 Yuánshén yuanshen Yuheng Driving Thunder kokusei electronic -Hakurei- Deppyforce -_Frontier_- sahuang Acyl Acylica Touhou
BeatmapID:2826914
BeatmapSetID:1366894

[Difficulty]
HPDrainRate:5
CircleSize:4.5
OverallDifficulty:9
ApproachRate:9.6
SliderMultiplier:1.8
SliderTickRate:1

[Events]
//Background and Video events
0,0,"keqing.jpg",0,0
//Break Periods
//Storyboard Layer 0 (Background)
//Storyboard Layer 1 (Fail)
//Storyboard Layer 2 (Pass)
//Storyboard Layer 3 (Foreground)
//Storyboard Layer 4 (Overlay)
//Storyboard Sound Samples

[TimingPoints]
309,300,4,2,2,20,1,0
309,-133.333333333333,4,2,2,20,0,0
2709,-133.333333333333,4,2,2,25,0,0
5109,-133.333333333333,4,2,2,30,0,0
6009,-100,4,2,1,35,0,0
6084,-100,4,2,1,5,0,0
6159,-100,4,2,1,30,0,0
6534,-100,4,2,1,5,0,0
6609,-100,4,2,1,30,0,0
6909,-66.6666666666667,4,2,1,40,0,0
6984,-66.6666666666667,4,2,1,5,0,0
7059,-66.6666666666667,4,2,1,40,0,0
7134,-66.6666666666667,4,2,1,5,0,0
7209,-66.6666666666667,4,2,1,40,0,0
7284,-66.6666666666667,4,2,1,5,0,0
7359,-66.6666666666667,4,2,1,40,0,0
7434,-66.6666666666667,4,2,1,5,0,0
7509,-133.333333333333,4,2,1,60,0,0
7659,-133.333333333333,4,2,1,40,0,0
14559,-83.3333333333333,4,2,1,50,0,0
15909,-133.333333333333,4,2,1,50,0,0
17109,-100,4,2,2,50,0,0
18609,-133.333333333333,4,2,1,50,0,0
18984,-133.333333333333,4,2,1,5,0,0
19059,-100,4,2,1,50,0,0
19134,-100,4,2,1,50,0,0
19209,-80,4,2,1,50,0,0
19284,-80,4,2,1,5,0,0
19359,-80,4,2,1,50,0,0
19509,-133.333333333333,4,2,1,50,0,0
21309,-71.4285714285714,4,2,1,60,0,0
21384,-71.4285714285714,4,2,1,5,0,0
21459,-71.4285714285714,4,2,1,60,0,0
21534,-71.4285714285714,4,2,1,5,0,0
21609,-71.4285714285714,4,2,1,60,0,0
21684,-71.4285714285714,4,2,1,5,0,0
21759,-71.4285714285714,4,2,1,60,0,0
21909,-62.5,4,2,1,60,0,0
22509,-83.3333333333333,4,2,1,60,0,0
23109,-55.5555555555556,4,2,1,60,0,0
23634,-55.5555555555556,4,2,1,5,0,0
23709,-66.6666666666667,4,2,1,60,0,0
23934,-66.6666666666667,4,2,1,5,0,0
24009,-83.3333333333333,4,2,1,60,0,0
24234,-83.3333333333333,4,2,1,5,0,0
24309,-100,4,2,2,60,0,0
24609,-100,4,2,2,25,0,0
24759,-100,4,2,2,20,0,0
24909,-100,4,2,1,50,0,0
25209,-100,4,2,2,30,0,0
25359,-100,4,2,1,50,0,0
25809,-100,4,2,2,35,0,0
25959,-100,4,2,1,50,0,0
26409,-100,4,2,2,35,0,0
26709,-100,4,2,2,70,0,0
26859,-100,4,2,2,35,0,0
27159,-100,4,2,2,70,0,0
27459,-100,4,2,2,35,0,0
27759,-100,4,2,2,70,0,0
28209,-100,4,2,2,40,0,0
28359,-100,4,2,2,70,0,0
28809,-100,4,2,2,40,0,0
29109,-100,4,2,2,50,0,0
29409,-100,4,2,2,55,0,0
29709,-100,4,2,2,60,0,0
30009,-100,4,2,2,65,0,0
30309,-55.5555555555556,4,2,1,80,0,0
30384,-55.5555555555556,4,2,1,5,0,0
30459,-55.5555555555556,4,2,1,80,0,0
30684,-55.5555555555556,4,2,1,5,0,0
30759,-55.5555555555556,4,2,1,80,0,0
30984,-55.5555555555556,4,2,1,5,0,0
31509,-71.4285714285714,4,2,3,60,0,0
31584,-71.4285714285714,4,2,3,5,0,0
31659,-71.4285714285714,4,2,3,60,0,0
31884,-71.4285714285714,4,2,3,5,0,0
31959,-71.4285714285714,4,2,3,60,0,0
32184,-71.4285714285714,4,2,3,60,0,0
32259,-71.4285714285714,4,2,3,60,0,0
32334,-71.4285714285714,4,2,3,5,0,0
32409,-71.4285714285714,4,2,3,60,0,0
32484,-71.4285714285714,4,2,3,5,0,0
32559,-71.4285714285714,4,2,3,60,0,0
32634,-71.4285714285714,4,2,3,5,0,0
32709,-200,4,2,1,80,0,0
33834,-166.666666666667,4,2,1,5,0,0
33909,-62.5,4,2,2,80,0,0
34434,-62.5,4,2,3,5,0,0
34509,-100,4,2,3,80,0,0
35634,-100,4,2,3,5,0,0
35709,-100,4,2,3,80,0,0
36084,-100,4,2,3,5,0,0
36159,-100,4,2,3,80,0,0
36309,-71.4285714285714,4,2,3,60,0,0
36384,-71.4285714285714,4,2,3,5,0,0
36459,-71.4285714285714,4,2,3,60,0,0
36834,-71.4285714285714,4,2,3,5,0,0
36909,-71.4285714285714,4,2,3,60,0,0
37509,-133.333333333333,4,2,3,60,0,0
37809,-55.5555555555556,4,2,3,60,0,0
38034,-55.5555555555556,4,2,3,5,0,0
38109,-200,4,2,3,60,0,0
38709,-62.5,4,2,1,80,0,0
39234,-62.5,4,2,1,5,0,0
39309,-100,4,2,1,80,0,0
40584,-100,4,2,1,5,0,0
40659,-100,4,2,1,80,0,0
41109,-55.5555555555556,4,2,2,80,0,0
41334,-55.5555555555556,4,2,1,5,0,0
41409,-83.3333333333333,4,2,1,80,0,0
43509,-83.3333333333333,4,2,3,80,0,0
44109,-71.4285714285714,4,2,3,80,0,0
44709,-62.5,4,2,3,80,0,0
45309,-55.5555555555556,4,2,3,80,0,0
45834,-55.5555555555556,4,2,1,5,0,0
45909,-50,4,2,2,80,0,0
47109,-62.5,4,2,3,80,0,0
47209,-62.5,4,2,3,5,0,0
47309,-62.5,4,2,3,80,0,0
47409,-62.5,4,2,3,5,0,0
47509,-62.5,4,2,3,80,0,0
47609,-62.5,4,2,3,5,0,0
47709,-62.5,4,2,3,80,0,0
48309,-62.5,4,2,3,60,0,0
48909,-62.5,4,2,2,65,0,0
49509,-62.5,4,2,3,70,0,0
49584,-62.5,4,2,1,5,0,0
49659,-62.5,4,2,1,80,0,0
49734,-62.5,4,2,1,5,0,0
49809,-62.5,4,2,1,80,0,0
49884,-62.5,4,2,1,5,0,0
49959,-62.5,4,2,1,80,0,0
50034,-62.5,4,2,1,5,0,0
50109,-50,4,2,1,90,0,0
50184,-50,4,2,1,5,0,0
50259,-50,4,2,1,90,0,0
50334,-50,4,2,1,5,0,0
50409,-50,4,2,1,90,0,0
50484,-50,4,2,1,5,0,0
50559,-50,4,2,1,90,0,0
51309,-125,4,2,2,80,0,0
53709,-125,4,2,1,10,0,0

[Colours]
Combo1 : 132,156,95
Combo2 : 131,98,164
Combo3 : 179,145,98
Combo4 : 185,77,77

[HitObjects]
105,162,309,6,0,L|81:78,2,67.5000025749208,6|0|0,3:2|0:0|0:0,0:0:0:0:
125,234,759,1,0,0:0:0:0:
262,269,909,6,0,L|196:252,1,67.5000025749208,2|0,3:2|0:0,0:0:0:0:
125,234,1209,1,0,0:0:0:0:
24,334,1359,6,0,L|71:285,1,67.5000025749208,2|0,3:2|0:0,0:0:0:0:
125,234,1659,1,0,0:0:0:0:
87,96,1809,6,0,L|104:161,1,67.5000025749208,2|0,3:2|0:0,0:0:0:0:
24,334,2109,2,0,L|71:285,1,67.5000025749208,2|0,3:2|0:0,0:0:0:0:
262,269,2409,2,0,L|196:252,1,67.5000025749208,2|0,3:2|0:0,0:0:0:0:
323,64,2709,5,6,3:2:0:0:
390,94,2859,1,0,0:0:0:0:
360,162,3009,1,0,0:0:0:0:
292,131,3159,1,0,0:0:0:0:
383,21,3309,5,2,3:2:0:0:
250,71,3459,1,0,0:0:0:0:
299,204,3609,1,0,0:0:0:0:
433,156,3759,6,0,P|471:160|507:169,2,67.5000025749208,2|0|0,3:2|0:0|0:0,0:0:0:0:
428,295,4209,2,0,P|435:262|438:228,1,67.5000025749208,2|0,3:2|0:0,0:0:0:0:
299,223,4509,2,0,P|331:230|365:233,1,67.5000025749208,2|0,3:2|0:0,0:0:0:0:
370,95,4809,2,0,P|363:128|360:162,1,67.5000025749208,2|0,3:2|0:0,0:0:0:0:
132,156,5109,5,6,3:2:0:0:
156,72,5259,1,0,0:0:0:0:
216,134,5409,1,0,0:0:0:0:
24,218,5559,5,0,0:0:0:0:
48,302,5709,1,2,3:2:0:0:
108,240,5859,1,0,0:0:0:0:
292,340,6009,6,0,L|238:334,1,45
131,322,6159,2,0,L|237:333,1,90,2|0,3:2|0:0,0:0:0:0:
412,183,6459,6,0,L|358:188,1,45
251,201,6609,2,0,L|357:189,1,90,2|0,3:2|0:0,0:0:0:0:
147,7,6909,6,0,B|136:38|136:38|152:67,1,67.5000025749208,2|0,3:2|0:0,0:0:0:0:
251,201,7059,2,0,B|261:169|261:169|245:140,1,67.5000025749208
102,156,7209,2,0,B|133:166|133:166|162:150,1,67.5000025749208,2|0,3:2|0:0,0:0:0:0:
296,52,7359,2,0,B|264:41|264:41|235:57,1,67.5000025749208
367,187,7509,6,0,P|405:180|437:176,1,67.5000025749208,6|2,0:2|0:0,0:0:0:0:
289,281,7809,2,0,P|256:274|223:270,1,67.5000025749208,2|2,0:0|0:0,0:0:0:0:
418,379,8109,1,2,0:0:0:0:
381,293,8259,1,2,0:0:0:0:
259,356,8409,2,0,P|292:362|326:367,1,67.5000025749208,2|0,0:0|0:0,0:0:0:0:
223,270,8709,2,0,B|172:277|172:277|152:298|152:298|99:309,1,135.000005149842
8,182,9159,5,2,0:0:0:0:
8,182,9234,1,2,0:0:0:0:
8,182,9309,1,2,0:0:0:0:
135,139,9459,1,2,0:0:0:0:
50,97,9609,1,2,0:0:0:0:
93,224,9759,1,2,0:0:0:0:
93,224,9834,1,2,0:0:0:0:
93,224,9909,5,6,0:2:0:0:
8,182,10059,1,2,0:0:0:0:
207,70,10209,5,2,0:0:0:0:
122,112,10359,1,2,0:0:0:0:
321,224,10509,6,0,P|374:210|467:203,1,135.000005149842,2|0,0:0|0:0,0:0:0:0:
506,140,10959,1,2,0:0:0:0:
412,60,11109,2,0,P|423:92|426:126,1,67.5000025749208,2|0,0:0|0:0,0:0:0:0:
321,224,11409,2,0,P|343:199|371:179,1,67.5000025749208,2|0,0:0|0:0,0:0:0:0:
231,63,11709,2,0,P|253:88|281:108,1,67.5000025749208,2|0,0:0|0:0,0:0:0:0:
207,260,12009,1,2,0:0:0:0:
204,284,12084,1,2,0:0:0:0:
208,309,12159,1,2,0:0:0:0:
211,333,12234,1,2,0:0:0:0:
218,358,12309,5,6,0:2:0:0:
366,292,12459,1,2,0:0:0:0:
316,378,12609,5,2,0:0:0:0:
207,260,12759,1,2,0:0:0:0:
297,218,12909,5,2,0:0:0:0:
280,301,13059,1,2,0:0:0:0:
297,218,13209,2,0,L|310:151,1,67.5000025749208,2|0,0:0|0:0,0:0:0:0:
261,58,13509,2,0,B|186:53|217:110|142:105,1,135.000005149842,2|2,0:0|0:0,0:0:0:0:
12,221,13959,5,2,0:0:0:0:
12,221,14034,1,2,0:0:0:0:
12,221,14109,1,2,0:0:0:0:
24,136,14259,1,2,0:0:0:0:
91,189,14409,1,0,0:0:0:0:
52,363,14559,6,0,L|69:307,1,53.9999983520508,2|2,0:0|0:0,0:0:0:0:
134,258,14709,2,0,B|273:133|472:177|548:235|521:375|469:447|332:397|373:282,1,647.99998022461,6|0,0:2|0:0,0:0:0:0:
427,172,15759,5,2,0:0:0:0:
433,134,15834,1,2,0:0:0:0:
430,96,15909,2,0,P|426:62|426:28,1,67.5000025749208,2|0,0:0|0:0,0:0:0:0:
310,155,16209,2,0,P|313:121|313:87,1,67.5000025749208,2|0,0:0|0:0,0:0:0:0:
168,12,16509,2,0,P|195:31|225:48,1,67.5000025749208,2|0,0:0|0:0,0:0:0:0:
93,178,16809,5,2,0:0:0:0:
107,155,16884,1,2,0:0:0:0:
134,134,16959,1,2,0:0:0:0:
174,129,17034,1,2,0:0:0:0:
216,150,17109,6,0,B|199:239|199:378|199:378|221:317|282:298|282:298|187:267|91:306,1,540,6|0,0:2|0:0,0:0:0:0:
16,153,18159,5,2,0:0:0:0:
16,153,18234,1,2,0:0:0:0:
16,153,18309,1,2,0:0:0:0:
72,218,18459,1,2,0:0:0:0:
101,135,18609,2,0,P|103:87|101:56,1,67.5000025749208,2|0,0:0|0:0,0:0:0:0:
212,14,18909,6,0,P|220:28|229:43,1,33.7500012874604,2|0,0:0|0:0,0:0:0:0:
367,112,19059,2,0,P|355:130|344:149,1,45,2|2,0:0|0:0,0:0:0:0:
171,199,19209,2,0,P|184:222|199:246,1,56.25,2|0,0:0|0:0,0:0:0:0:
408,297,19359,1,2,0:0:0:0:
390,326,19434,1,0,0:0:0:0:
373,355,19509,6,0,P|328:346|295:341,1,67.5000025749208,6|0,0:2|0:0,0:0:0:0:
409,223,19809,2,0,P|442:217|475:210,1,67.5000025749208,2|0,0:0|0:0,0:0:0:0:
348,100,20109,2,0,B|242:108|242:108|198:149|198:149|88:167|88:167|115:94|115:94|164:154,1,405.000015449525,2|0,0:0|0:0,0:0:0:0:
174,238,21159,1,2,0:0:0:0:
168,262,21234,1,2,0:0:0:0:
160,285,21309,6,0,P|131:298|100:299,1,62.9999980773926,2|0,0:0|0:0,0:0:0:0:
13,369,21459,2,0,P|15:337|30:310,1,62.9999980773926,2|0,0:0|0:0,0:0:0:0:
13,201,21609,2,0,P|38:218|55:245,1,62.9999980773926,2|0,0:0|0:0,0:0:0:0:
215,360,21759,1,2,0:0:0:0:
263,372,21834,1,2,0:0:0:0:
294,332,21909,6,0,B|336:200|314:47|314:47|309:91|291:114|259:137|216:136,1,432,6|2,0:2|0:0,0:0:0:0:
98,65,22434,1,2,0:0:0:0:
121,37,22509,6,0,B|172:23|172:23|223:44,1,107.999996704102,2|0,0:0|0:0,0:0:0:0:
422,186,22809,2,0,B|371:200|371:200|320:179,1,107.999996704102,2|0,0:0|0:0,0:0:0:0:
0,281,23109,6,0,B|88:253|136:261|122:465|243:471|345:368|358:264|298:210|205:189|155:227|160:294|220:306,1,566.999982696534,6|0,0:2|0:0,0:0:0:0:
366,372,23709,6,0,B|375:296|375:296|406:265|406:265|422:186,1,202.500007724762,2|0,0:0|0:0,0:0:0:0:
382,67,24009,6,0,P|440:62|388:80,1,161.999995056153,2|0,0:0|0:0,0:0:0:0:
308,169,24309,6,0,B|208:180|245:102|146:114,1,180,6|8,3:2|0:0,0:0:0:0:
78,175,24759,1,2,3:2:0:0:
30,1,24909,2,0,P|45:43|60:85,1,90,2|0,3:2|0:0,0:0:0:0:
215,157,25209,2,0,P|199:199|184:241,1,90,10|0,0:2|0:0,0:0:0:0:
17,349,25509,5,2,3:2:0:0:
47,264,25659,1,10,0:2:0:0:
132,295,25809,1,2,0:0:0:0:
101,379,25959,1,2,0:2:0:0:
279,380,26109,2,0,B|301:371|315:344|315:344|241:375|190:364,1,180,2|0,3:2|0:0,0:0:0:0:
340,73,26709,5,2,3:2:0:0:
323,236,26859,2,0,L|332:146,2,90,10|0|0,0:0|0:0|0:0,0:0:0:0:
465,380,27309,5,2,3:2:0:0:
448,217,27459,2,0,L|457:306,2,90,10|8|8,0:0|0:0|0:0,0:0:0:0:
340,73,27909,5,2,3:2:0:0:
456,49,28059,1,10,0:2:0:0:
316,53,28209,1,10,0:2:0:0:
480,69,28359,1,10,0:2:0:0:
296,77,28509,2,0,B|238:84|186:49|186:49|210:68|217:103,1,180,2|8,3:2|0:0,0:0:0:0:
13,318,29109,6,0,B|81:312|81:312|109:285|109:285|186:275,1,180,10|10,3:2|3:2,0:0:0:0:
217,358,29559,1,0,3:2:0:0:
258,172,29709,5,10,3:2:0:0:
294,342,29859,1,0,3:2:0:0:
377,121,30009,5,10,3:2:0:0:
368,366,30159,1,0,3:2:0:0:
505,136,30309,6,0,B|512:95|512:95|488:63,1,80.9999975280763,10|0,3:2|0:0,0:0:0:0:
297,145,30459,1,4,3:3:0:0:
252,202,30534,1,4,3:3:0:0:
288,265,30609,2,0,B|320:291|320:291|359:286,1,80.9999975280763,10|0,3:2|0:0,0:0:0:0:
384,80,30759,1,4,3:3:0:0:
357,12,30834,1,4,3:3:0:0:
284,12,30909,2,0,B|244:26|244:26|229:62,1,80.9999975280763,10|0,3:2|0:0,0:0:0:0:
67,355,31509,6,0,L|58:273,1,62.9999980773926,4|0,3:2|0:0,0:0:0:0:
37,89,31659,1,8,0:0:0:0:
37,89,31734,1,8,0:0:0:0:
37,89,31809,2,0,L|45:170,1,62.9999980773926,8|0,0:0|0:0,0:0:0:0:
192,250,31959,5,4,3:2:0:0:
206,117,32109,2,0,L|197:198,1,62.9999980773926,8|8,0:0|0:0,0:0:0:0:
177,383,32259,2,0,L|185:301,1,62.9999980773926,8|0,0:0|0:0,0:0:0:0:
375,171,32409,6,0,L|381:239,1,62.9999980773926,10|0,3:2|0:0,0:0:0:0:
390,315,32560,2,0,L|383:246,1,62.9999980773926,2|0,0:0|0:0,0:0:0:0:
510,14,32709,6,0,B|322:-6|392:139|206:117,1,337.5,12|0,0:2|0:0,0:0:0:0:
80,126,33909,6,0,B|-8:90|19:-31|140:-34|253:-14|197:169|106:323,1,504,6|0,3:2|0:0,0:0:0:0:
123,384,34509,6,0,P|112:334|106:285,1,90,10|0,0:0|0:0,0:0:0:0:
210,216,34809,2,0,B|278:225|278:225|302:260|302:260|379:269,1,180,2|2,3:2|0:0,0:0:0:0:
248,95,35259,2,0,P|197:116|142:134,1,90,2|2,3:2|0:0,0:0:0:0:
23,66,35559,6,0,L|29:127,1,45,2|0,3:2|0:0,0:0:0:0:
44,268,35709,2,0,L|33:161,1,90,10|0,0:0|0:0,0:0:0:0:
172,4,36009,2,0,L|167:48,1,45,10|0,0:0|0:0,0:0:0:0:
234,254,36159,1,10,0:0:0:0:
301,289,36234,1,10,0:0:0:0:
340,223,36309,6,0,L|346:160,1,62.9999980773926,6|0,3:2|0:0,0:0:0:0:
362,3,36459,2,0,L|349:128,1,125.999996154785,10|0,0:2|0:0,0:0:0:0:
497,357,36759,6,0,L|490:294,1,62.9999980773926,2|0,3:2|0:0,0:0:0:0:
475,137,36909,2,0,L|487:262,1,125.999996154785,10|0,0:2|0:0,0:0:0:0:
234,183,37209,2,0,B|285:146|285:146|347:160,1,125.999996154785,2|0,3:2|0:0,0:0:0:0:
135,347,37509,6,0,P|126:315|118:256,1,67.5000025749208,10|2,0:0|0:2,0:0:0:0:
116,361,37809,6,0,P|94:264|132:73,1,242.999992584229,4|0,3:2|0:0,0:0:0:0:
80,8,38109,6,0,P|91:51|101:95,1,90,2|2,0:2|0:2,0:0:0:0:
508,374,38709,6,0,B|412:278|431:144|431:144|396:275|270:325,1,504,6|0,3:2|0:0,0:0:0:0:
174,220,39309,6,0,P|191:287|200:325,1,90,10|0,0:0|0:0,0:0:0:0:
289,152,39609,1,2,3:2:0:0:
289,152,39684,1,2,0:0:0:0:
289,152,39759,2,0,P|299:108|310:64,1,90,2|0,0:0|0:0,0:0:0:0:
122,26,40059,2,0,P|172:48|210:58,1,90,0|0,3:2|0:0,0:0:0:0:
42,196,40359,1,2,0:0:0:0:
42,196,40434,1,2,0:0:0:0:
42,196,40509,6,0,L|36:131,1,45,10|0,0:0|0:0,0:0:0:0:
23,25,40659,2,0,L|32:115,2,90,10|8|4,3:3|2:3|0:3,0:0:0:0:
221,223,41109,6,0,B|303:339|204:416|140:368|143:303,1,242.999992584229,6|0,3:2|0:0,0:0:0:0:
106,257,41409,5,8,0:0:0:0:
276,350,41559,2,0,P|325:339|410:324,1,107.999996704102,2|0,0:0|3:2,0:0:0:0:
485,341,41859,1,0,0:0:0:0:
464,140,42009,2,0,B|430:91|430:91|444:245,1,215.999993408203,10|0,0:0|3:2,0:0:0:0:
381,328,42459,1,0,0:0:0:0:
258,172,42609,6,0,B|311:165|311:165|354:202,1,107.999996704102,10|0,0:0|0:0,0:0:0:0:
153,147,42909,2,0,B|120:103|120:103|129:50,1,107.999996704102,2|0,3:2|0:0,0:0:0:0:
185,250,43209,2,0,B|163:300|163:300|110:318,1,107.999996704102,10|0,0:0|0:0,0:0:0:0:
1,35,43509,6,0,B|80:25|80:25|129:51|129:51|209:40,1,215.999993408203,6|0,3:2|0:0,0:0:0:0:
303,18,43959,1,0,3:2:0:0:
493,171,44109,6,0,B|401:159|401:159|344:189|344:189|250:177,1,251.999992309571,14|0,0:2|3:2,0:0:0:0:
167,129,44559,1,0,0:0:0:0:
8,342,44709,6,0,B|113:328|113:328|178:363|178:363|285:349,1,288,6|0,0:2|0:0,0:0:0:0:
375,382,45159,1,0,3:2:0:0:
326,71,45309,6,0,B|334:11|383:-17|450:-2|501:42|512:142|447:192|335:218|226:206|167:129,1,566.999982696534,14|0,3:2|0:0,0:0:0:0:
1,102,45909,6,0,B|18:16|110:18|110:18|-68:182|224:262|44:383|44:383|41:278|122:227|207:227|289:281,1,900,6|0,3:2|0:0,0:0:0:0:
454,382,46809,1,2,0:0:0:0:
480,338,46884,1,2,0:0:0:0:
478,296,46959,1,2,0:0:0:0:
459,265,47034,1,2,0:0:0:0:
416,233,47109,6,0,B|393:190|393:190|408:145,1,96,12|0,0:0|0:0,0:0:0:0:
160,246,47309,2,0,B|208:247|208:247|239:283,1,96,12|0,0:0|0:0,0:0:0:0:
277,17,47509,2,0,B|251:58|251:58|204:67,1,96,12|0,0:0|0:0,0:0:0:0:
284,165,47709,1,12,0:0:0:0:
61,377,48309,5,10,3:2:0:0:
127,254,48459,1,8,0:0:0:0:
32,281,48609,1,8,3:2:0:0:
155,348,48759,1,8,0:0:0:0:
269,124,48909,5,10,3:2:0:0:
223,277,49059,1,8,0:0:0:0:
419,171,49209,1,8,3:2:0:0:
374,320,49359,1,8,0:0:0:0:
169,177,49509,6,0,B|196:201|196:201|231:202,1,72,10|0,3:2|0:0,0:0:0:0:
475,269,49659,2,0,B|447:244|447:244|412:243,1,72,8|0,3:2|0:0,0:0:0:0:
368,70,49809,2,0,B|343:97|343:97|342:132,1,72,8|0,3:2|0:0,0:0:0:0:
276,376,49959,2,0,B|300:348|300:348|301:313,1,72,8|0,3:2|0:0,0:0:0:0:
70,20,50109,6,0,B|55:62|55:62|86:96,1,90,10|0,3:2|0:0,0:0:0:0:
9,327,50259,2,0,B|52:318|52:318|66:274,1,90,8|0,3:2|0:0,0:0:0:0:
305,227,50409,2,0,B|276:193|276:193|232:203,1,90,8|0,3:2|0:0,0:0:0:0:
127,192,50559,1,10,3:2:0:0:
127,192,50634,1,2,3:2:0:0:
127,192,50709,5,6,3:2:0:0:
459,24,51309,6,0,B|514:63|540:134|490:219|418:211|418:211|412:255|443:294|499:309|499:309|439:338|363:326|315:240|357:182|357:182|324:155|275:161|232:203|232:203|238:136|287:77|385:78|414:143|414:143|454:127|473:81|459:24,1,1152,4|0,3:2|0:0,0:0:0:0:
