osu file format v14

[General]
AudioFilename: audio.mp3
AudioLeadIn: 0
PreviewTime: 31434
Countdown: 0
SampleSet: Soft
StackLeniency: 0.4
Mode: 0
LetterboxInBreaks: 0
WidescreenStoryboard: 0

[Editor]
Bookmarks: 309,7509,17109,24309,31509,41109,51309,53709
DistanceSpacing: 1.4
BeatDivisor: 2
GridSize: 4
TimelineZoom: 1.5

[Metadata]
Title:Nimble as Lightning
TitleUnicode:霆霓快雨
Artist:Yu-Peng Chen @HOYO-MiX
ArtistUnicode:陈致逸 @HOYO-MiX
Creator:lit120
Version:Normal
Source:Genshin Impact
Tags:疾雷 刻晴 Kèqíng Keqing Theme The Stellar Moments inaugural character album Mihoyo OST Liyue Qixing instrumental video games gacha electro eri kitamura 喜多村英梨 RPG action open world 原神 Yuánshén yuanshen Yuheng Driving Thunder kokusei electronic -Hakurei- Deppyforce -_Frontier_- sahuang Acyl Acylica Touhou
BeatmapID:2826913
BeatmapSetID:1366894

[Difficulty]
HPDrainRate:5
CircleSize:3.5
OverallDifficulty:5
ApproachRate:5
SliderMultiplier:0.999999999999999
SliderTickRate:1

[Events]
//Background and Video events
0,0,"keqing.jpg",0,0
//Break Periods
//Storyboard Layer 0 (Background)
//Storyboard Layer 1 (Fail)
//Storyboard Layer 2 (Pass)
//Storyboard Layer 3 (Foreground)
//Storyboard Layer 4 (Overlay)
//Storyboard Sound Samples

[TimingPoints]
309,300,4,2,2,20,1,0
2709,-100,4,2,2,25,0,0
5109,-100,4,2,2,30,0,0
6009,-100,4,2,1,35,0,0
6159,-100,4,2,1,30,0,0
6909,-100,4,2,1,40,0,0
7509,-100,4,2,1,60,0,0
7659,-100,4,2,1,40,0,0
14559,-100,4,2,1,50,0,0
17109,-100,4,2,2,50,0,0
18609,-100,4,2,1,50,0,0
21309,-100,4,2,1,60,0,0
24309,-100,4,2,2,60,0,0
24609,-100,4,2,2,25,0,0
24909,-100,4,2,1,50,0,0
25209,-100,4,2,2,30,0,0
25359,-100,4,2,1,50,0,0
25809,-100,4,2,2,35,0,0
25959,-100,4,2,1,50,0,0
26409,-100,4,2,2,35,0,0
26709,-100,4,2,2,70,0,0
26859,-100,4,2,2,35,0,0
27159,-100,4,2,2,70,0,0
27459,-100,4,2,2,35,0,0
27759,-100,4,2,2,70,0,0
28209,-100,4,2,2,40,0,0
28359,-100,4,2,2,70,0,0
28809,-100,4,2,2,40,0,0
29109,-100,4,2,2,50,0,0
29409,-100,4,2,2,55,0,0
29709,-100,4,2,2,60,0,0
30009,-100,4,2,2,65,0,0
30309,-100,4,2,1,80,0,0
31509,-100,4,2,3,60,0,0
32709,-100,4,2,1,80,0,0
36309,-100,4,2,3,60,0,0
38709,-100,4,2,1,80,0,0
41109,-100,4,2,2,80,0,0
41409,-100,4,2,1,80,0,0
43509,-100,4,2,3,80,0,0
45909,-100,4,2,2,80,0,0
47109,-100,4,2,3,80,0,0
48309,-100,4,2,3,60,0,0
48909,-100,4,2,2,65,0,0
49509,-100,4,2,3,70,0,0
49809,-100,4,2,1,80,0,0
50109,-100,4,2,1,90,0,0
51309,-100,4,2,2,80,0,0
53709,-100,4,2,1,10,0,0

[Colours]
Combo1 : 132,156,95
Combo2 : 131,98,164
Combo3 : 179,145,98
Combo4 : 185,77,77

[HitObjects]
52,273,309,6,0,L|30:210,2,50,6|0|0,3:2|0:0|0:0,0:0:0:0:
83,311,759,1,0,0:0:0:0:
83,311,909,2,0,P|148:292|206:293,1,99.9999999999999,2|0,3:2|0:0,0:0:0:0:
225,312,1359,2,0,P|205:255|260:176,1,150,2|2,3:2|3:2,0:0:0:0:
339,143,2109,2,0,L|457:157,1,99.9999999999999,2|2,3:2|3:2,0:0:0:0:
500,76,2709,5,6,3:2:0:0:
414,23,3009,2,0,L|362:39,1,50
323,64,3309,2,0,P|277:30|195:25,1,99.9999999999999,2|0,3:2|0:0,0:0:0:0:
186,30,3759,1,2,3:2:0:0:
104,88,4059,1,0,0:0:0:0:
104,88,4209,2,0,P|112:144|126:198,1,99.9999999999999,2|2,3:2|3:2,0:0:0:0:
186,263,4809,2,0,P|183:300|175:327,1,50,2|0,3:2|0:0,0:0:0:0:
152,354,5109,5,6,3:2:0:0:
55,327,5409,2,0,L|50:276,1,50
47,226,5709,2,0,P|18:185|0:138,1,99.9999999999999,2|0,3:2|0:0,0:0:0:0:
0,88,6159,1,2,3:2:0:0:
72,18,6459,1,0,0:0:0:0:
72,18,6609,2,0,L|130:27,1,50,2|0,3:2|0:0,0:0:0:0:
155,62,6909,2,0,L|213:53,1,50,2|0,3:2|0:0,0:0:0:0:
243,22,7209,1,2,3:2:0:0:
328,74,7509,6,0,P|396:95|441:103,1,99.9999999999999,6|2,0:2|0:0,0:0:0:0:
490,175,8109,2,0,L|483:235,1,50,2|2,0:0|0:0,0:0:0:0:
482,274,8409,2,0,P|431:248|369:248,1,99.9999999999999,2|0,0:0|0:0,0:0:0:0:
306,300,9009,1,0,0:0:0:0:
249,217,9309,2,0,L|242:162,2,50,2|2|2,0:0|0:0|0:0,0:0:0:0:
159,261,9909,6,0,P|151:310|147:360,1,99.9999999999999,6|2,0:0|0:0,0:0:0:0:
51,336,10509,2,0,P|48:296|36:217,1,99.9999999999999,2|0,0:0|0:0,0:0:0:0:
2,143,11109,2,0,P|68:122|98:95,1,99.9999999999999,2|2,0:0|0:0,0:0:0:0:
127,9,11709,2,0,P|167:37|215:49,1,99.9999999999999,2|2,0:0|0:0,0:0:0:0:
265,40,12159,1,2,0:0:0:0:
265,40,12309,6,0,P|246:104|239:178,1,99.9999999999999,6|2,0:2|0:0,0:0:0:0:
277,229,12909,2,0,P|286:269|286:291,1,50,2|2,0:0|0:0,0:0:0:0:
273,326,13209,2,0,P|324:314|389:313,1,99.9999999999999,2|2,0:0|0:0,0:0:0:0:
463,351,13809,1,2,0:0:0:0:
499,257,14109,2,0,L|491:196,1,50,2|2,0:0|0:0,0:0:0:0:
452,177,14409,2,0,L|460:116,1,50,0|2,0:0|0:0,0:0:0:0:
478,81,14709,6,0,P|416:78|362:38,1,99.9999999999999,6|0,0:2|0:0,0:0:0:0:
296,11,15309,2,0,P|244:20|139:45,1,150,2|2,0:0|0:0,0:0:0:0:
146,92,15909,2,0,P|158:141|184:184,1,99.9999999999999,2|2,0:0|0:0,0:0:0:0:
269,238,16509,2,0,P|255:292|243:355,1,99.9999999999999,2|2,0:0|0:0,0:0:0:0:
203,361,16959,1,2,0:0:0:0:
203,361,17109,6,0,P|123:338|84:333,1,99.9999999999999,6|0,0:2|0:0,0:0:0:0:
56,249,17709,2,0,P|105:239|152:223,1,99.9999999999999
184,184,18159,1,2,0:0:0:0:
184,184,18309,2,0,P|177:143|171:122,2,50,2|2|2,0:0|0:0|0:0,0:0:0:0:
279,215,18909,2,0,P|374:208|397:197,1,99.9999999999999,2|2,0:0|0:0,0:0:0:0:
424,222,19359,1,2,0:0:0:0:
424,222,19509,6,0,P|414:245|410:269,2,50,6|0|2,0:2|0:0|0:0,0:0:0:0:
486,143,20109,2,0,P|397:138|362:37,1,200,2|0,0:0|0:0,0:0:0:0:
162,12,21309,2,0,L|47:43,1,99.9999999999999,2|2,0:0|0:0,0:0:0:0:
16,33,21759,1,0,0:0:0:0:
16,33,21909,6,0,P|31:101|39:170,1,99.9999999999999,6|0,0:2|0:0,0:0:0:0:
69,167,22359,1,2,0:0:0:0:
69,167,22509,2,0,P|54:235|46:304,1,99.9999999999999,2|2,0:0|0:0,0:0:0:0:
112,342,23109,2,0,P|171:329|226:324,1,99.9999999999999,6|0,0:2|0:0,0:0:0:0:
302,364,23709,1,2,0:0:0:0:
341,272,24009,1,2,0:0:0:0:
249,232,24309,6,0,P|236:173|259:120,1,99.9999999999999,6|8,3:2|0:0,0:0:0:0:
317,66,24909,2,0,L|422:78,1,99.9999999999999,2|10,3:2|0:2,0:0:0:0:
462,165,25509,1,2,3:2:0:0:
462,165,25659,2,0,L|511:159,2,50,10|2|2,0:2|0:0|0:2,0:0:0:0:
430,204,26109,2,0,L|330:192,1,99.9999999999999,2|0,3:2|0:0,0:0:0:0:
247,137,26709,6,0,P|194:134|141:170,1,99.9999999999999,2|0,3:2|0:0,0:0:0:0:
116,248,27309,2,0,L|129:357,1,99.9999999999999,2|8,3:2|0:0,0:0:0:0:
34,383,27909,2,0,L|28:333,1,50,2|10,3:2|0:2,0:0:0:0:
1,290,28209,2,0,L|6:240,1,50,10|10,0:2|0:2,0:0:0:0:
31,196,28509,2,0,P|18:145|18:86,1,99.9999999999999,2|8,3:2|0:0,0:0:0:0:
90,30,29109,6,0,P|147:49|200:55,1,99.9999999999999,10|10,3:2|3:2,0:0:0:0:
278,15,29709,1,10,3:2:0:0:
318,106,30009,1,10,3:2:0:0:
226,145,30309,2,0,L|240:208,1,50,10|4,3:2|3:3,0:0:0:0:
280,219,30609,2,0,L|266:281,1,50,10|4,3:2|3:3,0:0:0:0:
233,302,30909,1,10,3:2:0:0:
415,382,31509,6,0,P|433:326|438:270,1,99.9999999999999,4|8,3:2|0:0,0:0:0:0:
477,254,31959,2,0,P|459:198|454:142,1,99.9999999999999,4|8,3:2|0:0,0:0:0:0:
418,122,32409,2,0,P|431:96|438:70,1,50,10|2,3:2|0:0,0:0:0:0:
423,27,32709,2,0,B|233:-9|333:154|147:97,1,300,12|0,0:2|0:0,0:0:0:0:
60,68,33909,6,0,P|79:155|87:194,1,99.9999999999999,6|0,3:2|0:0,0:0:0:0:
47,260,34509,1,10,0:0:0:0:
121,327,34809,2,0,P|176:308|239:301,1,99.9999999999999,2|2,3:2|0:0,0:0:0:0:
267,303,35259,1,2,3:2:0:0:
318,217,35559,1,2,3:2:0:0:
318,217,35709,2,0,P|311:153|305:79,1,99.9999999999999,10|10,0:0|0:0,0:0:0:0:
328,71,36159,1,10,0:0:0:0:
328,71,36309,6,0,P|389:91|431:90,1,99.9999999999999,6|0,3:2|0:0,0:0:0:0:
472,76,36759,2,0,P|452:137|453:179,1,99.9999999999999,2|0,3:2|0:0,0:0:0:0:
467,220,37209,1,2,3:2:0:0:
469,319,37509,1,10,0:0:0:0:
380,364,37809,2,0,P|316:325|147:323,1,200,4|2,3:2|0:2,0:0:0:0:
97,280,38709,6,0,P|107:341|113:392,2,99.9999999999999,6|0|10,3:2|0:0|0:0,0:0:0:0:
36,199,39609,2,0,P|102:185|134:157,1,99.9999999999999,2|0,3:2|0:0,0:0:0:0:
151,121,40059,2,0,P|196:171|236:184,1,99.9999999999999,0|2,3:2|0:0,0:0:0:0:
274,192,40509,1,10,0:0:0:0:
274,192,40659,2,0,L|389:181,1,99.9999999999999,10|4,3:3|0:3,0:0:0:0:
422,192,41109,6,0,P|414:135|429:87,1,99.9999999999999,6|8,3:2|0:0,0:0:0:0:
358,19,41709,2,0,P|301:49|237:61,1,99.9999999999999,0|10,3:2|0:0,0:0:0:0:
173,20,42309,1,0,3:2:0:0:
93,82,42609,1,10,0:0:0:0:
107,182,42909,2,0,P|111:259|110:315,1,99.9999999999999,2|10,3:2|0:0,0:0:0:0:
176,357,43509,6,0,P|231:330|285:334,1,99.9999999999999,6|0,3:2|0:0,0:0:0:0:
316,346,43959,1,0,3:2:0:0:
316,346,44109,2,0,L|433:338,1,99.9999999999999,14|0,0:2|3:2,0:0:0:0:
464,251,44709,1,6,0:2:0:0:
464,251,44859,2,0,L|347:243,1,99.9999999999999,0|0,3:2|3:2,0:0:0:0:
326,211,45309,2,0,P|310:146|319:108,1,99.9999999999999,14|0,3:2|0:0,0:0:0:0:
395,52,45909,6,0,B|295:65|295:65|223:133|223:133|91:152,1,300,6|2,3:2|0:0,0:0:0:0:
39,94,47109,2,0,P|106:151|50:232,1,200,12|12,0:0|0:0,0:0:0:0:
206,361,48309,6,0,P|262:347|345:342,1,99.9999999999999,10|8,3:2|3:2,0:0:0:0:
401,366,48909,2,0,P|387:310|382:227,1,99.9999999999999,10|8,3:2|3:2,0:0:0:0:
406,171,49509,1,10,3:2:0:0:
308,189,49809,1,8,3:2:0:0:
211,166,50109,2,0,L|223:107,1,50,10|8,3:2|3:2,0:0:0:0:
259,84,50409,2,0,L|247:25,1,50,8|10,3:2|3:2,0:0:0:0:
210,3,50709,5,6,3:2:0:0:
85,159,51309,1,4,3:2:0:0:
256,192,51459,12,0,53709,0:0:0:0:
