osu file format v14

[General]
AudioFilename: audio.mp3
AudioLeadIn: 0
PreviewTime: 31434
Countdown: 0
SampleSet: Soft
StackLeniency: 0.4
Mode: 0
LetterboxInBreaks: 0
WidescreenStoryboard: 0

[Editor]
Bookmarks: 309,7509,17109,24309,31509,41109,51309,53709
DistanceSpacing: 1.4
BeatDivisor: 4
GridSize: 4
TimelineZoom: 2

[Metadata]
Title:Nimble as Lightning
TitleUnicode:霆霓快雨
Artist:Yu-Peng Chen @HOYO-MiX
ArtistUnicode:陈致逸 @HOYO-MiX
Creator:lit120
Version:Hard
Source:Genshin Impact
Tags:疾雷 刻晴 Kèqíng Keqing Theme The Stellar Moments inaugural character album Mihoyo OST Liyue Qixing instrumental video games gacha electro eri kitamura 喜多村英梨 RPG action open world 原神 Yuánshén yuanshen Yuheng Driving Thunder kokusei electronic -Hakurei- Deppyforce -_Frontier_- sahuang Acyl Acylica Touhou
BeatmapID:2826912
BeatmapSetID:1366894

[Difficulty]
HPDrainRate:6
CircleSize:4
OverallDifficulty:6
ApproachRate:8
SliderMultiplier:1.5
SliderTickRate:1

[Events]
//Background and Video events
0,0,"keqing.jpg",0,0
//Break Periods
//Storyboard Layer 0 (Background)
//Storyboard Layer 1 (Fail)
//Storyboard Layer 2 (Pass)
//Storyboard Layer 3 (Foreground)
//Storyboard Layer 4 (Overlay)
//Storyboard Sound Samples

[TimingPoints]
309,300,4,2,2,20,1,0
309,-133.333333333333,4,2,2,20,0,0
2709,-133.333333333333,4,2,2,25,0,0
5109,-133.333333333333,4,2,2,30,0,0
6009,-133.333333333333,4,2,1,35,0,0
6159,-133.333333333333,4,2,1,30,0,0
6909,-133.333333333333,4,2,1,40,0,0
7509,-133.333333333333,4,2,1,60,0,0
7659,-133.333333333333,4,2,1,40,0,0
14559,-133.333333333333,4,2,1,50,0,0
17109,-133.333333333333,4,2,2,50,0,0
18609,-133.333333333333,4,2,1,50,0,0
21309,-133.333333333333,4,2,1,60,0,0
24309,-100,4,2,2,60,0,0
24609,-100,4,2,2,25,0,0
24909,-100,4,2,1,50,0,0
25209,-100,4,2,2,30,0,0
25359,-100,4,2,1,50,0,0
25809,-100,4,2,2,35,0,0
25959,-100,4,2,1,50,0,0
26409,-100,4,2,2,35,0,0
26709,-100,4,2,2,70,0,0
26859,-100,4,2,2,35,0,0
27159,-100,4,2,2,70,0,0
27459,-100,4,2,2,35,0,0
27759,-100,4,2,2,70,0,0
28209,-100,4,2,2,40,0,0
28359,-100,4,2,2,70,0,0
28809,-100,4,2,2,40,0,0
29109,-100,4,2,2,50,0,0
29409,-100,4,2,2,55,0,0
29709,-100,4,2,2,60,0,0
30009,-100,4,2,2,65,0,0
30309,-100,4,2,1,80,0,0
31509,-100,4,2,3,60,0,0
32709,-100,4,2,1,80,0,0
33909,-100,4,2,2,80,0,0
34509,-100,4,2,3,80,0,0
36309,-100,4,2,3,60,0,0
38709,-100,4,2,1,80,0,0
41109,-100,4,2,2,80,0,0
41409,-100,4,2,1,80,0,0
43509,-100,4,2,3,80,0,0
45909,-100,4,2,2,80,0,0
47109,-100,4,2,3,80,0,0
48309,-100,4,2,3,60,0,0
48909,-100,4,2,2,65,0,0
49509,-100,4,2,3,70,0,0
49659,-100,4,2,1,80,0,0
50109,-100,4,2,1,90,0,0
51309,-133.333333333333,4,2,2,80,0,0
53709,-133.333333333333,4,2,1,10,0,0

[Colours]
Combo1 : 132,156,95
Combo2 : 131,98,164
Combo3 : 179,145,98
Combo4 : 185,77,77

[HitObjects]
66,321,309,6,0,L|88:194,1,112.500004291535,6|0,3:2|0:0,0:0:0:0:
54,137,759,1,0,0:0:0:0:
54,137,909,2,0,P|116:162|172:96,1,112.500004291535,2|0,3:2|0:0,0:0:0:0:
201,79,1359,6,0,P|210:145|295:160,1,112.500004291535,2|0,3:2|0:0,0:0:0:0:
325,177,1809,2,0,P|352:172|379:165,1,56.2500021457673,2|0,3:2|0:0,0:0:0:0:
443,119,2109,2,0,P|424:97|404:78,1,56.2500021457673,2|0,3:2|0:0,0:0:0:0:
333,46,2409,2,0,P|323:72|316:99,1,56.2500021457673,2|0,3:2|0:0,0:0:0:0:
325,177,2709,6,0,P|338:245|350:302,1,112.500004291535,6|0,3:2|0:0,0:0:0:0:
405,339,3159,1,0,0:0:0:0:
405,339,3309,2,0,P|466:311|480:256,1,112.500004291535,2|0,3:2|0:0,0:0:0:0:
476,193,3759,6,0,P|488:125|502:37,1,112.500004291535,2|0,3:2|0:0,0:0:0:0:
441,23,4209,2,0,P|413:22|386:29,1,56.2500021457673,2|0,3:2|0:0,0:0:0:0:
338,91,4509,2,0,P|309:92|282:85,1,56.2500021457673,2|0,3:2|0:0,0:0:0:0:
222,35,4809,2,0,P|209:59|189:80,1,56.2500021457673,2|0,3:2|0:0,0:0:0:0:
115,107,5109,6,0,P|130:130|143:223,1,112.500004291535,6|0,3:2|0:0,0:0:0:0:
112,284,5559,2,0,P|135:268|228:256,1,112.500004291535,2|2,0:0|0:0,0:0:0:0:
284,295,6009,1,2,0:0:0:0:
284,295,6159,2,0,L|276:362,1,56.2500021457673,2|0,3:2|0:0,0:0:0:0:
354,365,6459,1,2,0:0:0:0:
354,365,6609,2,0,L|360:309,1,56.2500021457673,2|0,3:2|0:0,0:0:0:0:
439,306,6909,5,2,3:2:0:0:
461,230,7059,1,0,0:0:0:0:
395,187,7209,1,2,3:2:0:0:
333,235,7359,1,0,0:0:0:0:
323,158,7509,6,0,P|321:111|331:37,1,112.500004291535,6|2,0:2|0:0,0:0:0:0:
175,7,8109,2,0,P|135:32|105:44,1,56.2500021457673,2|2,0:0|0:0,0:0:0:0:
89,105,8409,2,0,P|78:50|38:12,2,112.500004291535,2|0|0,0:0|0:0|0:0,0:0:0:0:
42,168,9159,1,2,0:0:0:0:
42,168,9234,1,2,0:0:0:0:
42,168,9309,2,0,P|52:204|66:230,1,56.2500021457673,2|2,0:0|0:0,0:0:0:0:
134,245,9609,2,0,P|124:281|110:307,1,56.2500021457673,2|2,0:0|0:0,0:0:0:0:
56,349,9909,6,0,P|29:341|1:336,2,56.2500021457673,6|2|2,0:2|0:0|0:0,0:0:0:0:
131,375,10359,1,2,0:0:0:0:
190,323,10509,2,0,P|249:339|332:352,1,112.500004291535,2|0,0:0|0:0,0:0:0:0:
391,220,11109,2,0,P|335:230|281:245,1,112.500004291535,2|2,0:0|0:0,0:0:0:0:
190,116,11709,2,0,P|244:130|299:141,1,112.500004291535,2|2,0:0|0:0,0:0:0:0:
363,94,12159,1,2,0:0:0:0:
363,94,12234,1,2,0:0:0:0:
363,94,12309,6,0,L|374:34,1,56.2500021457673,6|2,0:2|0:0,0:0:0:0:
449,18,12609,2,0,L|459:73,1,56.2500021457673,2|2,0:0|0:0,0:0:0:0:
511,132,12909,2,0,L|500:187,1,56.2500021457673,2|2,0:0|0:0,0:0:0:0:
440,237,13209,6,0,P|481:288|472:356,2,112.500004291535,2|2|2,0:0|0:0|0:0,0:0:0:0:
361,227,13959,1,2,0:0:0:0:
361,227,14034,1,2,0:0:0:0:
361,227,14109,2,0,L|296:237,1,56.2500021457673,2|2,0:0|0:0,0:0:0:0:
253,295,14409,2,0,L|188:285,1,56.2500021457673,0|2,0:0|0:0,0:0:0:0:
153,221,14709,6,0,P|149:160|142:97,2,112.500004291535,6|0|0,0:2|0:0|0:0,0:0:0:0:
118,292,15459,2,0,P|76:293|51:283,1,56.2500021457673
14,227,15759,1,2,0:0:0:0:
14,227,15834,1,2,0:0:0:0:
14,227,15909,6,0,L|27:101,1,112.500004291535,2|2,0:0|0:0,0:0:0:0:
1,39,16359,1,0,0:0:0:0:
1,39,16509,2,0,P|64:35|105:20,1,56.2500021457673,2|0,0:0|0:0,0:0:0:0:
134,18,16809,2,0,L|156:1,3,28.1250010728836,2|2|2|2,0:0|0:0|0:0|0:0,0:0:0:0:
145,55,17109,6,0,P|217:67|281:40,1,112.500004291535,6|0,0:2|0:0,0:0:0:0:
377,154,17709,2,0,P|322:142|268:155,1,112.500004291535
219,218,18159,1,2,0:0:0:0:
219,218,18234,1,2,0:0:0:0:
219,218,18309,6,0,L|212:291,1,56.2500021457673,2|2,0:0|0:0,0:0:0:0:
241,347,18609,2,0,P|286:358|317:353,1,56.2500021457673,2|0,0:0|0:0,0:0:0:0:
346,296,18909,2,0,P|391:285|422:290,1,56.2500021457673,2|2,0:0|0:0,0:0:0:0:
470,323,19209,1,2,0:0:0:0:
497,249,19359,1,2,0:0:0:0:
497,249,19434,1,0,0:0:0:0:
497,249,19509,6,0,L|484:194,1,56.2500021457673,6|0,0:2|0:0,0:0:0:0:
421,146,19809,2,0,L|433:91,1,56.2500021457673,2|0,0:0|0:0,0:0:0:0:
372,40,20109,2,0,P|316:64|256:71,1,112.500004291535,2|0,0:0|0:0,0:0:0:0:
119,10,20709,2,0,P|143:66|150:126,1,112.500004291535
97,175,21159,1,2,0:0:0:0:
97,175,21234,1,2,0:0:0:0:
97,175,21309,2,0,P|93:216|105:244,1,56.2500021457673,2|2,0:0|0:0,0:0:0:0:
168,264,21609,1,2,0:0:0:0:
149,341,21759,1,2,0:0:0:0:
149,341,21834,1,2,0:0:0:0:
149,341,21909,6,0,P|211:328|289:328,1,112.500004291535,6|0,0:2|0:0,0:0:0:0:
306,262,22359,1,2,0:0:0:0:
306,262,22434,1,2,0:0:0:0:
306,262,22509,2,0,P|291:232|281:201,1,56.2500021457673,2|0,0:0|0:0,0:0:0:0:
220,162,22809,2,0,P|235:132|245:101,1,56.2500021457673,2|0,0:0|0:0,0:0:0:0:
297,54,23109,6,0,P|343:74|428:81,1,112.500004291535,6|0,0:2|0:0,0:0:0:0:
487,216,23709,2,0,P|479:263|476:282,1,56.2500021457673,2|0,0:0|0:0,0:0:0:0:
401,293,24009,2,0,P|409:340|412:359,1,56.2500021457673,2|0,0:0|0:0,0:0:0:0:
338,381,24309,6,0,P|285:357|189:372,1,150,6|8,3:2|0:0,0:0:0:0:
83,269,24909,2,0,P|155:282|224:256,1,150,2|10,3:2|0:2,0:0:0:0:
312,134,25509,5,2,3:2:0:0:
312,134,25659,2,0,L|321:212,2,75,10|2|2,0:2|0:0|0:2,0:0:0:0:
239,114,26109,2,0,B|186:124|186:124|166:148|166:148|100:160,1,150,2|0,3:2|0:0,0:0:0:0:
154,18,26709,5,2,3:2:0:0:
154,18,26859,2,0,P|233:33|329:33,1,150,10|0,0:0|0:0,0:0:0:0:
365,75,27309,1,2,3:2:0:0:
369,78,27459,2,0,P|420:60|453:50,2,75,10|8|0,0:0|0:0|0:0,0:0:0:0:
325,139,27909,6,0,P|329:187|341:215,1,75,2|10,3:2|0:2,0:0:0:0:
401,254,28209,2,0,P|397:302|385:330,1,75,10|10,0:2|0:2,0:0:0:0:
324,367,28509,2,0,P|246:351|175:347,1,150,2|8,3:2|0:0,0:0:0:0:
47,268,29109,6,0,P|116:256|116:168,1,150,10|10,3:2|3:2,0:0:0:0:
81,127,29559,1,0,3:2:0:0:
81,127,29709,2,0,P|81:79|92:47,1,75,10|0,3:2|3:2,0:0:0:0:
152,12,30009,2,0,L|231:24,1,75,10|0,3:2|3:2,0:0:0:0:
286,68,30309,5,10,3:2:0:0:
217,98,30459,2,0,L|165:112,2,37.5,4|4|10,3:3|3:3|3:2,0:0:0:0:
278,144,30759,2,0,L|329:158,2,37.5,4|4|10,3:3|3:3|3:2,0:0:0:0:
30,313,31509,5,4,3:2:0:0:
69,249,31659,1,8,0:0:0:0:
69,249,31734,1,8,0:0:0:0:
69,249,31809,1,8,0:0:0:0:
133,286,31959,2,0,P|196:293|231:293,1,75,4|8,3:2|0:0,0:0:0:0:
270,253,32259,1,8,0:0:0:0:
270,253,32409,2,0,P|295:311|312:341,1,75,10|2,3:2|0:0,0:0:0:0:
367,355,32709,6,0,B|426:314|503:334|503:334|451:290|430:256|430:256|478:212|467:148|413:110|365:124,1,450,12|0,0:2|0:0,0:0:0:0:
229,182,33909,6,0,P|166:172|69:171,1,150,6|0,3:2|0:0,0:0:0:0:
20,124,34359,1,0,0:0:0:0:
20,124,34509,2,0,P|43:94|69:54,1,75,10|0,0:0|0:0,0:0:0:0:
123,17,34809,6,0,P|197:47|298:63,1,150,2|2,3:2|0:0,0:0:0:0:
335,31,35259,2,0,P|289:100|327:140,1,150,2|2,3:2|3:2,0:0:0:0:
392,174,35709,2,0,L|473:165,1,75,10|0,0:0|0:0,0:0:0:0:
507,228,36009,1,10,0:0:0:0:
471,294,36159,1,10,0:0:0:0:
471,294,36234,1,10,0:0:0:0:
471,294,36309,5,6,3:2:0:0:
435,360,36459,2,0,P|385:363|351:359,1,75,10|0,0:2|0:0,0:0:0:0:
336,289,36759,1,2,3:2:0:0:
336,289,36909,2,0,P|286:286|252:290,1,75,10|0,0:2|0:0,0:0:0:0:
237,360,37209,2,0,P|187:363|153:359,1,75,2|0,3:2|0:0,0:0:0:0:
100,328,37509,1,10,0:0:0:0:
100,328,37809,6,0,B|73:104|73:104|86:140|118:162,1,300,4|2,3:2|0:2,0:0:0:0:
267,174,38709,6,0,P|352:162|437:157,2,150,6|0|10,3:2|0:0|0:0,0:0:0:0:
189,45,39609,2,0,P|125:42|38:3,1,150,2|0,3:2|0:0,0:0:0:0:
3,70,40059,2,0,P|32:126|42:221,1,150,0|2,3:2|0:0,0:0:0:0:
118,219,40509,1,10,0:0:0:0:
118,219,40659,2,0,P|152:165|229:109,1,150,10|4,3:3|0:3,0:0:0:0:
271,58,41109,6,0,P|228:114|267:174,1,150,6|8,3:2|0:0,0:0:0:0:
339,194,41559,2,0,P|413:176|504:173,1,150,2|0,0:0|0:0,0:0:0:0:
511,243,42009,2,0,P|437:261|346:264,1,150,10|0,0:0|3:2,0:0:0:0:
314,322,42459,5,0,0:0:0:0:
264,265,42609,2,0,P|198:270|175:278,1,75,10|0,0:0|0:0,0:0:0:0:
156,339,42909,2,0,P|90:334|67:326,1,75,2|0,3:2|0:0,0:0:0:0:
50,263,43209,2,0,P|51:208|66:183,1,75,10|0,0:0|0:0,0:0:0:0:
128,161,43509,6,0,P|55:102|82:41,1,150,6|0,3:2|0:0,0:0:0:0:
121,7,43959,1,0,3:2:0:0:
188,39,44109,2,0,P|273:29|346:27,1,150,14|0,0:2|3:2,0:0:0:0:
462,109,44709,5,6,0:2:0:0:
462,109,44859,2,0,L|446:198,1,75,0|0,3:2|0:0,0:0:0:0:
388,227,45159,1,0,3:2:0:0:
388,227,45309,2,0,P|460:222|450:309,1,150,14|0,3:2|0:0,0:0:0:0:
349,370,45909,6,0,B|247:362|247:362|171:302|171:302|56:293,1,300,6|0,3:2|0:0,0:0:0:0:
23,151,46809,2,0,L|17:113,3,37.5,2|2|2|2,0:0|0:0|0:0|0:0,0:0:0:0:
52,175,47109,6,0,P|113:174|164:149,1,100,12|12,0:0|0:0,0:0:0:0:
193,69,47509,2,0,P|254:70|305:95,1,100,12|12,0:0|0:0,0:0:0:0:
401,362,48309,6,0,P|416:327|423:291,1,75,10|8,3:2|0:0,0:0:0:0:
489,254,48609,2,0,P|473:219|466:183,1,75,8|8,3:2|0:0,0:0:0:0:
403,141,48909,2,0,P|418:106|425:70,1,75,10|8,3:2|0:0,0:0:0:0:
368,20,49209,2,0,P|330:23|295:35,1,75,8|8,3:2|0:0,0:0:0:0:
248,94,49509,6,0,L|270:178,1,75,10|8,3:2|3:2,0:0:0:0:
317,221,49809,2,0,L|295:305,1,75,8|8,3:2|3:2,0:0:0:0:
250,351,50109,1,10,3:2:0:0:
181,324,50259,1,8,3:2:0:0:
185,250,50409,1,8,3:2:0:0:
116,223,50559,1,10,3:2:0:0:
116,223,50634,1,2,3:2:0:0:
116,223,50709,5,6,3:2:0:0:
253,118,51309,2,0,B|268:66|315:27|392:43|405:100|405:100|440:93|461:59|458:13|458:13|496:51|507:111|454:170|399:154|399:154|387:186|404:221|448:243|448:243|395:256|338:234|313:160|354:121|354:121|332:94|292:92|253:118,1,900.000034332277,4|0,3:2|0:0,0:0:0:0:
