osu file format v14

[General]
AudioFilename: audio.mp3
AudioLeadIn: 0
PreviewTime: 31500
Countdown: 0
SampleSet: Soft
StackLeniency: 0.7
Mode: 3
LetterboxInBreaks: 0
SpecialStyle: 0
WidescreenStoryboard: 0

[Editor]
DistanceSpacing: 0.8
BeatDivisor: 4
GridSize: 32
TimelineZoom: 2.6

[Metadata]
Title:Nimble as Lightning
TitleUnicode:霆霓快雨
Artist:Yu-Peng Chen @HOYO-MiX
ArtistUnicode:陈致逸 @HOYO-MiX
Creator:Seiran-
Version:7K Alioth
Source:Genshin Impact
Tags:Critical_Star ML-ysg -Timerains- MiHOYO Original Soundtrack ost 刻晴 Kèqíng keqing keching Theme the stellar moments electronic instrumental video game chinese folk Zhiyi RPG action open world 原神 Yuánshén yuanshen fantasy hoyoverse
BeatmapID:3393992
BeatmapSetID:1662562

[Difficulty]
HPDrainRate:8.2
CircleSize:7
OverallDifficulty:8.2
ApproachRate:5
SliderMultiplier:1.4
SliderTickRate:1

[Events]
//Background and Video events
0,0,"37C9B2CD79F03025465F02E042D3AF7C.jpg",0,0
//Break Periods
//Storyboard Layer 0 (Background)
//Storyboard Layer 1 (Fail)
//Storyboard Layer 2 (Pass)
//Storyboard Layer 3 (Foreground)
//Storyboard Layer 4 (Overlay)
//Storyboard Sound Samples

[TimingPoints]
300,300,4,2,1,60,1,0

[HitObjects]
109,192,300,5,0,0:0:0:0:
329,192,300,128,0,900:0:0:0:0:
182,192,450,1,0,0:0:0:0:
256,192,600,1,0,0:0:0:0:
109,192,750,1,0,0:0:0:0:
36,192,900,1,0,0:0:0:0:
402,192,900,128,0,1350:0:0:0:0:
182,192,1050,1,0,0:0:0:0:
256,192,1200,1,0,0:0:0:0:
36,192,1350,1,0,0:0:0:0:
475,192,1350,128,0,1800:0:0:0:0:
109,192,1500,1,0,0:0:0:0:
182,192,1650,1,0,0:0:0:0:
36,192,1800,1,0,0:0:0:0:
329,192,1800,128,0,2100:0:0:0:0:
182,192,1950,1,0,0:0:0:0:
256,192,2100,1,0,0:0:0:0:
402,192,2100,128,0,2400:0:0:0:0:
109,192,2250,1,0,0:0:0:0:
182,192,2400,1,0,0:0:0:0:
475,192,2400,128,0,2700:0:0:0:0:
36,192,2550,1,0,0:0:0:0:
182,192,2700,128,0,3300:0:0:0:0:
402,192,2700,1,0,0:0:0:0:
329,192,2850,1,0,0:0:0:0:
256,192,3000,1,0,0:0:0:0:
402,192,3150,1,0,0:0:0:0:
109,192,3300,128,0,3750:0:0:0:0:
475,192,3300,1,0,0:0:0:0:
329,192,3450,1,0,0:0:0:0:
256,192,3600,1,0,0:0:0:0:
36,192,3750,128,0,4200:0:0:0:0:
475,192,3750,1,0,0:0:0:0:
402,192,3900,1,0,0:0:0:0:
329,192,4050,1,0,0:0:0:0:
182,192,4200,128,0,4500:0:0:0:0:
475,192,4200,1,0,0:0:0:0:
329,192,4350,1,0,0:0:0:0:
109,192,4500,128,0,4800:0:0:0:0:
256,192,4500,1,0,0:0:0:0:
402,192,4650,1,0,0:0:0:0:
36,192,4800,128,0,5100:0:0:0:0:
329,192,4800,1,0,0:0:0:0:
475,192,4950,1,0,0:0:0:0:
182,192,5100,1,0,0:0:0:0:
329,192,5100,128,0,5700:0:0:0:0:
109,192,5250,1,0,0:0:0:0:
36,192,5400,1,0,0:0:0:0:
182,192,5550,128,0,5700:0:0:0:0:
256,192,5550,1,0,0:0:0:0:
109,192,5700,1,0,0:0:0:0:
402,192,5700,128,0,6150:0:0:0:0:
182,192,5850,1,0,0:0:0:0:
256,192,6000,1,0,0:0:0:0:
329,192,6000,128,0,6150:0:0:0:0:
109,192,6150,1,0,0:0:0:0:
182,192,6150,128,0,6300:0:0:0:0:
475,192,6150,128,0,6600:0:0:0:0:
36,192,6300,1,0,0:0:0:0:
182,192,6450,128,0,6600:0:0:0:0:
402,192,6450,128,0,6600:0:0:0:0:
36,192,6600,128,0,6900:0:0:0:0:
109,192,6600,128,0,6750:0:0:0:0:
329,192,6600,128,0,6900:0:0:0:0:
256,192,6750,128,0,6900:0:0:0:0:
109,192,6900,128,0,7200:0:0:0:0:
182,192,6900,128,0,7050:0:0:0:0:
402,192,6900,128,0,7200:0:0:0:0:
329,192,7050,128,0,7200:0:0:0:0:
182,192,7200,128,0,7500:0:0:0:0:
256,192,7200,128,0,7350:0:0:0:0:
475,192,7200,128,0,7500:0:0:0:0:
402,192,7350,128,0,7500:0:0:0:0:
36,192,7500,128,0,7800:0:0:0:0:
329,192,7500,128,4,7575:0:0:0:0:
256,192,7650,128,0,7725:0:0:0:0:
109,192,7800,128,0,7875:0:0:0:0:
329,192,7950,128,0,8025:0:0:0:0:
256,192,8100,128,0,8175:0:0:0:0:
402,192,8250,128,0,8325:0:0:0:0:
109,192,8400,128,0,8475:0:0:0:0:
329,192,8550,1,0,0:0:0:0:
256,192,8700,1,0,0:0:0:0:
182,192,8850,1,0,0:0:0:0:
402,192,9000,1,0,0:0:0:0:
36,192,9150,128,0,9225:0:0:0:0:
182,192,9225,128,0,9300:0:0:0:0:
329,192,9300,128,0,9375:0:0:0:0:
475,192,9450,128,0,9525:0:0:0:0:
256,192,9600,128,0,9675:0:0:0:0:
402,192,9750,128,0,9825:0:0:0:0:
36,192,9900,128,0,10200:0:0:0:0:
182,192,9900,128,0,9975:0:0:0:0:
329,192,10050,128,0,10125:0:0:0:0:
109,192,10200,128,0,10275:0:0:0:0:
182,192,10350,128,0,10425:0:0:0:0:
475,192,10500,128,0,10575:0:0:0:0:
329,192,10550,128,0,10625:0:0:0:0:
36,192,10650,1,0,0:0:0:0:
182,192,10800,1,0,0:0:0:0:
329,192,10950,1,0,0:0:0:0:
256,192,11100,1,0,0:0:0:0:
109,192,11250,1,0,0:0:0:0:
329,192,11400,1,0,0:0:0:0:
256,192,11550,1,0,0:0:0:0:
36,192,11700,128,0,11775:0:0:0:0:
182,192,11750,128,0,11825:0:0:0:0:
329,192,11850,1,0,0:0:0:0:
182,192,12000,128,0,12075:0:0:0:0:
256,192,12075,128,0,12150:0:0:0:0:
329,192,12150,128,0,12225:0:0:0:0:
475,192,12225,128,0,12300:0:0:0:0:
36,192,12300,128,0,12600:0:0:0:0:
182,192,12300,128,0,12375:0:0:0:0:
402,192,12450,128,0,12525:0:0:0:0:
256,192,12600,128,0,12675:0:0:0:0:
475,192,12750,128,0,12825:0:0:0:0:
36,192,12900,128,0,12975:0:0:0:0:
256,192,13050,128,0,13125:0:0:0:0:
109,192,13200,128,0,13275:0:0:0:0:
402,192,13350,1,0,0:0:0:0:
256,192,13500,1,0,0:0:0:0:
109,192,13650,1,0,0:0:0:0:
329,192,13800,1,0,0:0:0:0:
182,192,13950,128,0,14025:0:0:0:0:
329,192,14025,128,0,14100:0:0:0:0:
475,192,14100,128,0,14175:0:0:0:0:
402,192,14250,128,0,14325:0:0:0:0:
329,192,14400,128,0,14475:0:0:0:0:
256,192,14550,128,0,14625:0:0:0:0:
36,192,14700,1,0,0:0:0:0:
475,192,14700,128,0,15825:0:0:0:0:
182,192,14850,1,0,0:0:0:0:
329,192,15000,1,0,0:0:0:0:
109,192,15150,1,0,0:0:0:0:
256,192,15300,1,0,0:0:0:0:
402,192,15450,1,0,0:0:0:0:
109,192,15600,1,0,0:0:0:0:
329,192,15750,128,0,15900:0:0:0:0:
182,192,15825,128,0,15975:0:0:0:0:
36,192,15900,128,0,16500:0:0:0:0:
475,192,15900,1,0,0:0:0:0:
402,192,16050,1,0,0:0:0:0:
256,192,16200,1,0,0:0:0:0:
329,192,16350,1,0,0:0:0:0:
402,192,16500,1,0,0:0:0:0:
475,192,16500,128,0,16800:0:0:0:0:
329,192,16650,1,0,0:0:0:0:
36,192,16800,1,0,0:0:0:0:
109,192,16800,128,0,16950:0:0:0:0:
182,192,16875,128,0,17025:0:0:0:0:
256,192,16950,128,0,17100:0:0:0:0:
329,192,17025,128,0,17175:0:0:0:0:
36,192,17100,1,0,0:0:0:0:
402,192,17100,128,0,18000:0:0:0:0:
475,192,17100,128,0,18000:0:0:0:0:
36,192,18150,128,0,18300:0:0:0:0:
109,192,18225,128,0,18375:0:0:0:0:
182,192,18300,128,0,18450:0:0:0:0:
475,192,18300,128,0,18750:0:0:0:0:
402,192,18450,128,0,18750:0:0:0:0:
329,192,18600,128,0,18750:0:0:0:0:
256,192,18900,1,0,0:0:0:0:
182,192,18975,128,0,19125:0:0:0:0:
109,192,19050,128,0,19200:0:0:0:0:
36,192,19125,128,0,19275:0:0:0:0:
329,192,19200,128,0,19300:0:0:0:0:
256,192,19250,128,0,19350:0:0:0:0:
182,192,19300,128,0,19400:0:0:0:0:
475,192,19350,128,0,19500:0:0:0:0:
402,192,19425,128,0,19575:0:0:0:0:
36,192,19500,128,0,19950:0:0:0:0:
329,192,19500,128,0,19650:0:0:0:0:
109,192,19650,128,0,19950:0:0:0:0:
182,192,19800,128,0,19950:0:0:0:0:
36,192,20100,128,0,21000:0:0:0:0:
182,192,20100,128,0,20550:0:0:0:0:
402,192,20550,128,0,21300:0:0:0:0:
182,192,21075,128,0,21150:0:0:0:0:
109,192,21150,128,0,21225:0:0:0:0:
36,192,21225,128,0,21300:0:0:0:0:
329,192,21300,128,0,21600:0:0:0:0:
182,192,21450,128,0,21750:0:0:0:0:
475,192,21600,128,0,21900:0:0:0:0:
402,192,21750,128,0,21900:0:0:0:0:
36,192,21900,128,0,22350:0:0:0:0:
109,192,21900,128,0,22350:0:0:0:0:
256,192,21900,128,0,22350:0:0:0:0:
329,192,21900,128,0,22350:0:0:0:0:
182,192,22350,128,0,22500:0:0:0:0:
475,192,22350,128,0,22500:0:0:0:0:
109,192,22425,128,0,22575:0:0:0:0:
402,192,22425,128,0,22575:0:0:0:0:
36,192,22500,128,0,22800:0:0:0:0:
329,192,22500,128,0,22800:0:0:0:0:
109,192,22800,128,0,23100:0:0:0:0:
402,192,22800,128,0,23100:0:0:0:0:
36,192,23100,128,0,24000:0:0:0:0:
182,192,23100,128,0,23700:0:0:0:0:
329,192,23100,128,0,23700:0:0:0:0:
475,192,23100,128,0,24000:0:0:0:0:
109,192,23700,128,0,24300:0:0:0:0:
402,192,23700,128,0,24300:0:0:0:0:
182,192,24000,128,0,24300:0:0:0:0:
329,192,24000,128,0,24300:0:0:0:0:
36,192,24300,1,2,0:0:0:0:
256,192,24300,1,0,0:0:0:0:
475,192,24300,1,0,0:0:0:0:
329,192,24600,1,0,0:0:0:0:
475,192,24600,1,0,0:0:0:0:
329,192,24750,1,0,0:0:0:0:
475,192,24750,1,0,0:0:0:0:
36,192,24900,1,2,0:0:0:0:
109,192,24900,1,0,0:0:0:0:
256,192,24900,1,0,0:0:0:0:
329,192,25050,1,0,0:0:0:0:
475,192,25050,1,0,0:0:0:0:
36,192,25200,128,0,25350:0:0:0:0:
256,192,25200,128,0,25350:0:0:0:0:
36,192,25500,1,2,0:0:0:0:
182,192,25500,1,0,0:0:0:0:
402,192,25500,1,0,0:0:0:0:
36,192,25650,1,0,0:0:0:50:LR3_Tom BD1.wav
182,192,25650,1,0,0:0:0:0:
329,192,25800,1,0,0:0:0:50:LR3_Tom BD2.wav
475,192,25800,1,0,0:0:0:0:
182,192,25950,1,0,0:0:0:0:
329,192,25950,1,0,0:0:0:0:
36,192,26100,1,2,0:0:0:0:
256,192,26100,128,0,26250:0:0:0:0:
475,192,26100,128,0,26250:0:0:0:0:
109,192,26400,1,0,0:0:0:50:LR3_Tom BD3.wav
402,192,26400,1,0,0:0:0:0:
182,192,26550,1,0,0:0:0:0:
329,192,26550,1,0,0:0:0:0:
36,192,26700,1,2,0:0:0:0:
256,192,26700,1,0,0:0:0:0:
475,192,26700,1,0,0:0:0:0:
36,192,26850,1,0,0:0:0:50:LR3_Tom BD1.wav
256,192,26850,1,0,0:0:0:0:
109,192,27000,1,0,0:0:0:0:
402,192,27000,1,0,0:0:0:0:
109,192,27150,1,0,0:0:0:0:
402,192,27150,1,0,0:0:0:0:
329,192,27225,1,0,0:0:0:0:
36,192,27300,1,2,0:0:0:0:
256,192,27300,1,0,0:0:0:0:
475,192,27300,1,0,0:0:0:0:
256,192,27450,1,0,0:0:0:50:LR3_Tom BD2.wav
475,192,27450,1,0,0:0:0:0:
109,192,27600,128,0,27750:0:0:0:50:LR3_Tom BD3.wav
402,192,27600,128,0,27750:0:0:0:0:
36,192,27900,1,2,0:0:0:0:
256,192,27900,1,0,0:0:0:0:
475,192,27900,1,0,0:0:0:0:
182,192,28050,1,0,0:0:0:50:LR3_Tom BD3.wav
329,192,28050,1,0,0:0:0:0:
109,192,28200,1,0,0:0:0:50:LR3_Tom BD1.wav
402,192,28200,1,0,0:0:0:0:
182,192,28350,1,0,0:0:0:50:LR3_Tom BD3.wav
329,192,28350,1,0,0:0:0:0:
36,192,28500,1,2,0:0:0:0:
256,192,28500,128,0,28650:0:0:0:0:
475,192,28500,1,0,0:0:0:0:
36,192,28800,1,0,0:0:0:50:LR3_Tom BD2.wav
329,192,28800,1,0,0:0:0:0:
109,192,28950,1,0,0:0:0:70:LR3_Tom BD3.wav
402,192,28950,1,0,0:0:0:0:
182,192,29100,1,2,0:0:0:0:
256,192,29100,128,0,29400:0:0:0:0:
475,192,29100,1,0,0:0:0:0:
109,192,29250,1,0,0:0:0:0:
36,192,29400,128,0,29625:0:0:0:50:LR3_Tom BD3.wav
402,192,29400,1,0,0:0:0:0:
475,192,29400,1,0,0:0:0:0:
182,192,29550,128,0,29775:0:0:0:70:LR3_Tom BD2.wav
329,192,29550,1,0,0:0:0:0:
36,192,29700,1,2,0:0:0:0:
329,192,29700,128,0,29925:0:0:0:0:
475,192,29700,1,0,0:0:0:0:
109,192,29850,128,0,30075:0:0:0:50:LR3_Tom BD2.wav
182,192,29850,1,0,0:0:0:0:
36,192,30000,1,2,0:0:0:0:
256,192,30000,128,0,30225:0:0:0:0:
329,192,30000,1,0,0:0:0:0:
402,192,30150,128,0,30375:0:0:0:50:LR3_Tom BD3.wav
475,192,30150,1,0,0:0:0:0:
36,192,30300,1,2,0:0:0:0:
109,192,30300,1,0,0:0:0:0:
182,192,30300,128,0,30525:0:0:0:0:
36,192,30450,1,0,0:0:0:50:LR3_Tom BD2.wav
329,192,30450,128,0,30675:0:0:0:0:
109,192,30525,1,0,0:0:0:50:LR3_Tom BD2.wav
182,192,30600,1,2,0:0:0:0:
402,192,30600,1,0,0:0:0:0:
475,192,30600,128,0,31050:0:0:0:0:
36,192,30750,128,0,31050:0:0:0:50:LR3_Tom BD3.wav
329,192,30750,1,0,0:0:0:0:
256,192,30825,1,0,0:0:0:0:
109,192,30900,128,2,31050:0:0:0:0:
182,192,30900,128,0,31050:0:0:0:0:
329,192,30900,128,0,31050:0:0:0:0:
36,192,31500,1,2,0:0:0:0:
256,192,31500,1,4,0:0:0:0:
402,192,31500,128,0,31725:0:0:0:0:
475,192,31500,128,0,31725:0:0:0:0:
36,192,31650,1,8,0:0:0:0:
256,192,31650,1,0,0:0:0:0:
109,192,31725,1,8,0:0:0:0:
329,192,31725,1,0,0:0:0:0:
182,192,31800,1,8,0:0:0:0:
402,192,31800,1,0,0:0:0:0:
475,192,31800,1,0,0:0:0:0:
36,192,31950,1,2,0:0:0:0:
402,192,31950,128,0,32175:0:0:0:0:
475,192,31950,128,0,32175:0:0:0:0:
109,192,32100,1,8,0:0:0:0:
182,192,32100,1,0,0:0:0:0:
329,192,32100,1,0,0:0:0:0:
109,192,32250,1,8,0:0:0:0:
182,192,32250,1,0,0:0:0:0:
329,192,32250,1,0,0:0:0:0:
36,192,32400,1,2,0:0:0:0:
256,192,32400,1,0,0:0:0:60:Splash.wav
402,192,32400,128,0,32625:0:0:0:0:
475,192,32400,128,0,32625:0:0:0:0:
182,192,32550,1,0,0:0:0:0:
36,192,32700,128,8,33000:0:0:0:50:Snare.wav
402,192,32700,128,0,33900:0:0:0:0:
475,192,32700,128,0,33900:0:0:0:0:
109,192,32850,128,0,33150:0:0:0:0:
182,192,33000,128,0,33300:0:0:0:0:
36,192,33300,128,0,33600:0:0:0:0:
182,192,33450,128,0,33750:0:0:0:0:
329,192,33600,128,0,33900:0:0:0:0:
36,192,33900,128,2,34500:0:0:0:0:
109,192,33900,1,4,0:0:0:0:
182,192,33900,1,0,0:0:0:0:
256,192,33900,1,0,0:0:0:0:
329,192,34200,1,0,0:0:0:0:
475,192,34200,1,0,0:0:0:0:
109,192,34350,1,0,0:0:0:0:
256,192,34350,1,0,0:0:0:0:
182,192,34500,1,8,0:0:0:0:
329,192,34500,1,0,0:0:0:0:
475,192,34500,1,0,0:0:0:0:
109,192,34650,1,0,0:0:0:0:
36,192,34800,1,2,0:0:0:0:
329,192,34800,1,0,0:0:0:0:
475,192,34800,128,0,35400:0:0:0:0:
182,192,34950,1,0,0:0:0:0:
256,192,35100,1,0,0:0:0:0:
36,192,35250,1,2,0:0:0:0:
329,192,35250,1,0,0:0:0:0:
402,192,35250,1,0,0:0:0:0:
109,192,35400,1,0,0:0:0:0:
182,192,35400,1,0,0:0:0:0:
36,192,35550,1,2,0:0:0:0:
329,192,35550,1,0,0:0:0:0:
402,192,35550,1,0,0:0:0:0:
182,192,35700,1,8,0:0:0:0:
256,192,35700,1,0,0:0:0:0:
475,192,35700,1,0,0:0:0:0:
36,192,35850,1,0,0:0:0:0:
182,192,36000,1,8,0:0:0:0:
256,192,36000,1,0,0:0:0:0:
475,192,36000,1,0,0:0:0:0:
109,192,36150,1,8,0:0:0:0:
329,192,36150,1,0,0:0:0:0:
182,192,36225,1,8,0:0:0:0:
402,192,36225,1,0,0:0:0:0:
36,192,36300,128,2,36525:0:0:0:0:
109,192,36300,128,4,36525:0:0:0:0:
256,192,36300,1,0,0:0:0:0:
475,192,36300,128,0,36450:0:0:0:0:
182,192,36450,1,8,0:0:0:0:
256,192,36450,1,0,0:0:0:0:
402,192,36450,128,0,36600:0:0:0:0:
329,192,36600,128,0,36750:0:0:0:0:
36,192,36750,128,2,36975:0:0:0:0:
109,192,36750,128,0,36975:0:0:0:0:
475,192,36750,128,0,36900:0:0:0:0:
182,192,36900,1,8,0:0:0:0:
256,192,36900,1,0,0:0:0:0:
329,192,36900,128,0,37050:0:0:0:0:
402,192,37050,128,0,37200:0:0:0:0:
36,192,37200,128,2,37425:0:0:0:0:
109,192,37200,128,0,37425:0:0:0:0:
475,192,37200,128,0,37350:0:0:0:0:
109,192,37500,128,0,37800:0:0:0:70:Snare.wav
329,192,37500,1,0,0:0:0:0:
402,192,37500,1,0,0:0:0:0:
182,192,37650,128,0,37950:0:0:0:0:
36,192,37800,128,2,37950:0:0:0:0:
256,192,37800,128,4,38100:0:0:0:35:soft-hitfinish.wav
329,192,37800,128,0,38250:0:0:0:0:
475,192,37800,128,0,38700:0:0:0:0:
36,192,38100,128,0,38400:0:0:0:0:
182,192,38250,128,0,38550:0:0:0:0:
329,192,38400,128,0,38700:0:0:0:0:
36,192,38700,128,2,39300:0:0:0:0:
182,192,38700,1,4,0:0:0:0:
256,192,38700,1,0,0:0:0:0:
402,192,38700,1,0,0:0:0:0:
182,192,39000,1,0,0:0:0:0:
402,192,39000,128,0,39150:0:0:0:0:
256,192,39150,1,0,0:0:0:0:
329,192,39300,1,8,0:0:0:0:
402,192,39300,1,0,0:0:0:0:
475,192,39300,1,0,0:0:0:0:
109,192,39450,128,0,39600:0:0:0:0:
256,192,39450,1,0,0:0:0:0:
36,192,39600,1,2,0:0:0:0:
182,192,39600,1,0,0:0:0:0:
475,192,39600,128,0,40500:0:0:0:0:
329,192,39750,1,0,0:0:0:0:
256,192,39900,1,0,0:0:0:0:
36,192,40050,1,2,0:0:0:0:
109,192,40050,1,0,0:0:0:0:
402,192,40050,1,0,0:0:0:0:
182,192,40200,1,0,0:0:0:0:
402,192,40350,128,0,40500:0:0:0:0:
329,192,40400,128,0,40550:0:0:0:0:
256,192,40450,128,0,40600:0:0:0:0:
36,192,40500,128,8,41100:0:0:0:0:
109,192,40500,1,0,0:0:0:0:
182,192,40500,1,0,0:0:0:0:
109,192,40650,128,2,41100:0:0:0:0:
329,192,40650,1,0,0:0:0:0:
402,192,40650,128,0,41100:0:0:0:0:
256,192,40800,1,0,0:0:0:0:
182,192,40950,1,0,0:0:0:0:
182,192,41100,128,2,41550:0:0:0:0:
256,192,41100,1,4,0:0:0:0:
329,192,41100,128,0,41550:0:0:0:0:
475,192,41100,1,0,0:0:0:0:
36,192,41400,1,8,0:0:0:0:
109,192,41400,1,0,0:0:0:0:
475,192,41400,1,0,0:0:0:0:
36,192,41550,128,0,42000:0:0:0:0:
402,192,41550,128,0,42000:0:0:0:0:
182,192,41700,1,2,0:0:0:0:
329,192,41700,1,0,0:0:0:0:
256,192,41850,1,0,0:0:0:0:
182,192,42000,128,8,42600:0:0:0:0:
329,192,42000,1,0,0:0:0:0:
475,192,42000,128,0,42600:0:0:0:0:
36,192,42150,1,0,0:0:0:0:
256,192,42300,1,2,0:0:0:0:
402,192,42300,1,0,0:0:0:0:
109,192,42450,1,0,0:0:0:0:
36,192,42600,128,8,42900:0:0:0:0:
329,192,42600,128,0,42900:0:0:0:0:
402,192,42600,1,0,0:0:0:0:
182,192,42750,1,0,0:0:0:0:
109,192,42900,128,2,43200:0:0:0:0:
402,192,42900,128,0,43200:0:0:0:0:
256,192,43050,1,0,0:0:0:0:
36,192,43200,1,8,0:0:0:0:
182,192,43200,128,0,43500:0:0:0:0:
475,192,43200,128,0,43500:0:0:0:0:
329,192,43350,1,0,0:0:0:0:
36,192,43500,128,2,44400:0:0:0:0:
109,192,43500,128,4,43800:0:0:0:0:
256,192,43500,128,0,43800:0:0:0:0:
402,192,43500,128,0,43800:0:0:0:0:
329,192,43950,1,2,0:0:0:0:
475,192,43950,1,0,0:0:0:0:
109,192,44100,128,8,44400:0:0:0:0:
182,192,44100,128,4,45000:0:0:0:0:
256,192,44100,128,0,44400:0:0:0:0:
402,192,44100,128,0,44400:0:0:0:0:
329,192,44400,1,2,0:0:0:0:
475,192,44400,1,0,0:0:0:0:
36,192,44700,128,4,45000:0:0:0:35:soft-hitfinish.wav
256,192,44700,128,0,45000:0:0:0:0:
329,192,44700,128,0,45600:0:0:0:0:
475,192,44700,128,0,45000:0:0:0:0:
109,192,44850,1,2,0:0:0:0:
109,192,45150,1,2,0:0:0:0:
402,192,45150,1,0,0:0:0:0:
36,192,45300,128,8,45600:0:0:0:0:
182,192,45300,128,4,45600:0:0:0:0:
256,192,45300,128,0,45600:0:0:0:0:
475,192,45300,128,0,45900:0:0:0:0:
256,192,45750,128,0,45900:0:0:0:0:
36,192,45900,128,2,46950:0:0:0:0:
109,192,45900,1,4,0:0:0:0:
402,192,45900,1,0,0:0:0:70:soft-hitfinish.wav
182,192,45950,128,0,46875:0:0:0:0:
329,192,46000,128,0,46800:0:0:0:0:
475,192,46800,128,0,47100:0:0:0:0:
329,192,46875,128,0,47100:0:0:0:0:
182,192,46950,128,0,47100:0:0:0:0:
36,192,47100,1,8,0:0:0:0:
109,192,47100,128,4,47200:0:0:0:0:
256,192,47100,1,0,0:0:0:0:
402,192,47100,128,0,47200:0:0:0:0:
36,192,47300,1,8,0:0:0:0:
109,192,47300,128,4,47400:0:0:0:0:
256,192,47300,1,0,0:0:0:0:
402,192,47300,128,0,47400:0:0:0:0:
109,192,47500,128,8,47600:0:0:0:0:
256,192,47500,1,4,0:0:0:0:
402,192,47500,128,0,47600:0:0:0:0:
475,192,47500,1,0,0:0:0:0:
109,192,47700,128,8,48000:0:0:0:0:
256,192,47700,1,4,0:0:0:0:
402,192,47700,128,0,48000:0:0:0:0:
475,192,47700,1,0,0:0:0:0:
36,192,48300,1,2,0:0:0:0:
182,192,48300,1,8,0:0:0:0:
256,192,48300,128,0,48375:0:0:0:0:
182,192,48450,1,8,0:0:0:0:
329,192,48450,128,0,48525:0:0:0:0:
36,192,48600,1,8,0:0:0:0:
182,192,48600,1,2,0:0:0:0:
402,192,48600,128,0,48675:0:0:0:0:
182,192,48750,1,8,0:0:0:0:
475,192,48750,128,0,48825:0:0:0:0:
36,192,48900,128,8,48975:0:0:0:0:
329,192,48900,1,2,0:0:0:0:
475,192,48900,1,0,0:0:0:0:
109,192,49050,128,8,49125:0:0:0:0:
329,192,49050,1,0,0:0:0:0:
182,192,49200,128,8,49275:0:0:0:0:
329,192,49200,1,2,0:0:0:0:
475,192,49200,1,0,0:0:0:0:
256,192,49350,128,8,49425:0:0:0:0:
329,192,49350,1,0,0:0:0:0:
109,192,49500,128,8,49575:0:0:0:0:
402,192,49500,1,2,0:0:0:0:
475,192,49500,1,0,0:0:0:0:
182,192,49650,128,8,49725:0:0:0:0:
402,192,49650,1,2,0:0:0:0:
475,192,49650,1,0,0:0:0:0:
256,192,49800,128,8,49875:0:0:0:0:
402,192,49800,1,2,0:0:0:0:
475,192,49800,1,0,0:0:0:0:
329,192,49950,128,8,50025:0:0:0:0:
402,192,49950,1,2,0:0:0:0:
475,192,49950,1,0,0:0:0:0:
36,192,50100,1,2,0:0:0:0:
109,192,50100,1,8,0:0:0:0:
182,192,50100,128,0,50175:0:0:0:0:
36,192,50250,1,2,0:0:0:0:
109,192,50250,1,8,0:0:0:0:
256,192,50250,128,0,50325:0:0:0:0:
36,192,50400,1,8,0:0:0:0:
109,192,50400,1,2,0:0:0:0:
329,192,50400,128,0,50475:0:0:0:0:
36,192,50550,1,8,0:0:0:0:
109,192,50550,1,2,0:0:0:0:
402,192,50550,128,0,50625:0:0:0:0:
182,192,50625,1,2,0:0:0:0:
329,192,50625,1,0,0:0:0:0:
256,192,50700,128,0,51300:0:0:0:0:
36,192,51300,128,2,51750:0:0:0:0:
182,192,51300,128,4,52200:0:0:0:0:
329,192,51300,128,0,52650:0:0:0:0:
475,192,51300,128,0,54000:0:0:0:0:
36,192,51900,128,0,53100:0:0:0:0:
182,192,52350,128,0,53100:0:0:0:0:
329,192,52800,128,0,53100:0:0:0:0:
402,192,53100,128,0,54000:0:0:0:0:
329,192,53400,128,0,54000:0:0:0:0:
256,192,53550,128,0,54000:0:0:0:0:
182,192,53700,128,0,54000:0:0:0:0:
