osu file format v14

[General]
AudioFilename: audio.mp3
AudioLeadIn: 0
PreviewTime: 31500
Countdown: 0
SampleSet: Soft
StackLeniency: 0.7
Mode: 3
LetterboxInBreaks: 0
SpecialStyle: 0
WidescreenStoryboard: 1

[Editor]
DistanceSpacing: 0.8
BeatDivisor: 4
GridSize: 32
TimelineZoom: 2.3

[Metadata]
Title:Nimble as Lightning
TitleUnicode:霆霓快雨
Artist:Yu-Peng Chen @HOYO-MiX
ArtistUnicode:陈致逸 @HOYO-MiX
Creator:Seiran-
Version:4K Normal
Source:Genshin Impact
Tags:Critical_Star ML-ysg -Timerains- MiHOYO Original Soundtrack ost 刻晴 Kèqíng keqing keching Theme the stellar moments electronic instrumental video game chinese folk Zhiyi RPG action open world 原神 Yuánshén yuanshen fantasy hoyoverse
BeatmapID:3396295
BeatmapSetID:1662562

[Difficulty]
HPDrainRate:7
CircleSize:4
OverallDifficulty:7
ApproachRate:5
SliderMultiplier:1.4
SliderTickRate:1

[Events]
//Background and Video events
0,0,"7E083F52D1F3FBA9A3B48500F3AFC289.jpg",0,0
//Break Periods
//Storyboard Layer 0 (Background)
//Storyboard Layer 1 (Fail)
//Storyboard Layer 2 (Pass)
//Storyboard Layer 3 (Foreground)
//Storyboard Layer 4 (Overlay)
//Storyboard Sound Samples

[TimingPoints]
300,300,4,2,1,60,1,0

[HitObjects]
64,192,300,5,0,0:0:0:0:
448,192,300,128,0,900:0:0:0:0:
64,192,900,128,0,1350:0:0:0:0:
320,192,900,1,0,0:0:0:0:
192,192,1350,1,0,0:0:0:0:
448,192,1350,128,0,1800:0:0:0:0:
64,192,1800,1,0,0:0:0:0:
192,192,1800,128,0,2100:0:0:0:0:
320,192,2100,128,0,2400:0:0:0:0:
448,192,2100,1,0,0:0:0:0:
64,192,2400,1,0,0:0:0:0:
448,192,2400,128,0,2700:0:0:0:0:
64,192,2700,128,0,3300:0:0:0:0:
192,192,2700,1,0,0:0:0:0:
192,192,3300,1,0,0:0:0:0:
448,192,3300,128,0,3750:0:0:0:0:
64,192,3750,128,0,4200:0:0:0:0:
320,192,3750,1,0,0:0:0:0:
192,192,4200,1,0,0:0:0:0:
320,192,4200,128,0,4500:0:0:0:0:
192,192,4500,128,0,4800:0:0:0:0:
448,192,4500,1,0,0:0:0:0:
64,192,4800,1,0,0:0:0:0:
448,192,4800,1,0,0:0:0:0:
320,192,4950,1,0,0:0:0:0:
64,192,5100,128,0,5700:0:0:0:0:
192,192,5100,1,0,0:0:0:0:
320,192,5700,1,0,0:0:0:0:
448,192,5700,128,0,6150:0:0:0:0:
64,192,6150,1,0,0:0:0:0:
192,192,6150,128,0,6600:0:0:0:0:
320,192,6600,128,0,6900:0:0:0:0:
448,192,6600,1,0,0:0:0:0:
64,192,6900,128,0,7200:0:0:0:0:
192,192,6900,1,0,0:0:0:0:
320,192,7200,1,0,0:0:0:0:
448,192,7200,128,0,7500:0:0:0:0:
64,192,7500,1,0,0:0:0:0:
192,192,7500,1,4,0:0:0:0:
320,192,7650,1,0,0:0:0:0:
448,192,7800,1,0,0:0:0:0:
64,192,7950,1,0,0:0:0:0:
320,192,8100,1,0,0:0:0:0:
192,192,8250,1,0,0:0:0:0:
448,192,8400,1,0,0:0:0:0:
448,192,9150,1,0,0:0:0:0:
192,192,9225,1,0,0:0:0:0:
64,192,9300,1,0,0:0:0:0:
320,192,9450,1,0,0:0:0:0:
192,192,9600,1,0,0:0:0:0:
448,192,9750,1,0,0:0:0:0:
64,192,9900,1,0,0:0:0:0:
320,192,9900,1,0,0:0:0:0:
192,192,10050,1,0,0:0:0:0:
448,192,10200,1,0,0:0:0:0:
320,192,10350,1,0,0:0:0:0:
64,192,10500,1,0,0:0:0:0:
320,192,11700,1,0,0:0:0:0:
192,192,12000,128,0,12300:0:0:0:0:
64,192,12300,1,0,0:0:0:0:
448,192,12300,1,0,0:0:0:0:
320,192,12450,1,0,0:0:0:0:
192,192,12600,1,0,0:0:0:0:
448,192,12750,1,0,0:0:0:0:
192,192,12900,1,0,0:0:0:0:
320,192,13050,1,0,0:0:0:0:
64,192,13200,1,0,0:0:0:0:
448,192,13950,1,0,0:0:0:0:
192,192,14025,1,0,0:0:0:0:
64,192,14100,1,0,0:0:0:0:
320,192,14250,1,0,0:0:0:0:
192,192,14400,1,0,0:0:0:0:
448,192,14550,1,0,0:0:0:0:
64,192,14700,128,0,15750:0:0:0:0:
192,192,15750,128,0,15900:0:0:0:0:
448,192,15900,128,0,16500:0:0:0:0:
320,192,16500,128,0,16800:0:0:0:0:
192,192,16800,128,0,17100:0:0:0:0:
64,192,17100,128,0,18000:0:0:0:0:
448,192,17100,1,0,0:0:0:0:
192,192,18150,1,0,0:0:0:0:
320,192,18225,1,0,0:0:0:0:
448,192,18300,1,0,0:0:0:0:
64,192,18450,1,0,0:0:0:0:
192,192,18600,1,0,0:0:0:0:
448,192,18900,128,0,19200:0:0:0:0:
320,192,19200,128,0,19500:0:0:0:0:
64,192,19500,1,0,0:0:0:0:
448,192,19500,1,0,0:0:0:0:
192,192,19650,1,0,0:0:0:0:
320,192,19800,1,0,0:0:0:0:
320,192,20100,128,0,21075:0:0:0:0:
64,192,21075,128,0,21300:0:0:0:0:
448,192,21300,128,0,21450:0:0:0:0:
320,192,21450,128,0,21600:0:0:0:0:
192,192,21600,128,0,21750:0:0:0:0:
64,192,21750,128,0,21900:0:0:0:0:
320,192,21900,1,0,0:0:0:0:
448,192,21900,128,0,22350:0:0:0:0:
192,192,22350,128,0,22500:0:0:0:0:
64,192,22500,128,0,22800:0:0:0:0:
320,192,22800,128,0,23100:0:0:0:0:
64,192,23100,1,0,0:0:0:0:
448,192,23100,128,0,23700:0:0:0:0:
64,192,23700,128,0,24000:0:0:0:0:
192,192,24000,128,0,24300:0:0:0:0:
320,192,24300,1,2,0:0:0:0:
448,192,24300,1,0,0:0:0:0:
192,192,24600,1,0,0:0:0:0:
448,192,24750,1,0,0:0:0:0:
64,192,24900,1,2,0:0:0:0:
192,192,24900,1,0,0:0:0:0:
320,192,25050,1,0,0:0:0:0:
448,192,25200,1,0,0:0:0:0:
64,192,25500,1,2,0:0:0:0:
320,192,25500,1,0,0:0:0:0:
192,192,25650,1,0,0:0:0:50:LR3_Tom BD1.wav
448,192,25800,1,0,0:0:0:50:LR3_Tom BD2.wav
192,192,25950,1,0,0:0:0:0:
64,192,26100,1,2,0:0:0:0:
320,192,26100,1,0,0:0:0:0:
448,192,26400,1,0,0:0:0:50:LR3_Tom BD3.wav
320,192,26550,1,0,0:0:0:0:
64,192,26700,1,2,0:0:0:0:
192,192,26700,1,0,0:0:0:0:
448,192,26850,1,0,0:0:0:50:LR3_Tom BD1.wav
64,192,27000,1,0,0:0:0:0:
192,192,27150,1,0,0:0:0:0:
320,192,27300,1,2,0:0:0:0:
448,192,27300,1,0,0:0:0:0:
64,192,27450,1,0,0:0:0:50:LR3_Tom BD2.wav
192,192,27600,1,0,0:0:0:50:LR3_Tom BD3.wav
192,192,27900,1,2,0:0:0:0:
448,192,27900,1,0,0:0:0:0:
320,192,28050,1,0,0:0:0:50:LR3_Tom BD3.wav
64,192,28200,1,0,0:0:0:50:LR3_Tom BD1.wav
320,192,28350,1,0,0:0:0:50:LR3_Tom BD3.wav
192,192,28500,1,2,0:0:0:0:
448,192,28500,1,0,0:0:0:0:
64,192,28800,1,0,0:0:0:50:LR3_Tom BD2.wav
192,192,28950,1,0,0:0:0:70:LR3_Tom BD3.wav
320,192,29100,1,2,0:0:0:0:
448,192,29100,1,0,0:0:0:0:
64,192,29400,1,0,0:0:0:50:LR3_Tom BD3.wav
192,192,29550,1,0,0:0:0:70:LR3_Tom BD2.wav
320,192,29700,1,2,0:0:0:0:
448,192,29700,1,0,0:0:0:0:
192,192,29850,1,0,0:0:0:50:LR3_Tom BD2.wav
64,192,30000,1,2,0:0:0:0:
448,192,30000,1,0,0:0:0:0:
320,192,30150,1,0,0:0:0:50:LR3_Tom BD3.wav
64,192,30300,1,2,0:0:0:0:
192,192,30300,1,0,0:0:0:0:
320,192,30450,1,0,0:0:0:50:LR3_Tom BD2.wav
64,192,30600,1,2,0:0:0:0:
448,192,30600,1,0,0:0:0:0:
192,192,30750,1,0,0:0:0:50:LR3_Tom BD3.wav
320,192,30900,1,2,0:0:0:0:
448,192,30900,128,0,31050:0:0:0:0:
64,192,31500,1,2,0:0:0:0:
320,192,31500,1,4,0:0:0:0:
448,192,31650,1,8,0:0:0:0:
192,192,31725,1,8,0:0:0:0:
320,192,31800,1,8,0:0:0:0:
64,192,31950,1,2,0:0:0:0:
448,192,31950,1,0,0:0:0:0:
192,192,32100,1,8,0:0:0:0:
320,192,32250,1,8,0:0:0:0:
64,192,32400,1,2,0:0:0:0:
448,192,32400,1,0,0:0:0:60:Splash.wav
192,192,32700,1,8,0:0:0:50:Snare.wav
320,192,32700,1,0,0:0:0:0:
64,192,32850,1,0,0:0:0:0:
448,192,33000,1,0,0:0:0:0:
64,192,33300,1,0,0:0:0:0:
192,192,33450,1,0,0:0:0:0:
320,192,33600,1,0,0:0:0:0:
64,192,33900,1,2,0:0:0:0:
448,192,33900,128,4,34500:0:0:0:0:
64,192,34200,1,0,0:0:0:0:
320,192,34350,1,0,0:0:0:0:
64,192,34500,1,8,0:0:0:0:
192,192,34500,1,0,0:0:0:0:
192,192,34800,1,2,0:0:0:0:
448,192,34800,128,0,35250:0:0:0:0:
64,192,35250,1,2,0:0:0:0:
192,192,35400,1,0,0:0:0:0:
64,192,35550,1,2,0:0:0:0:
320,192,35700,1,8,0:0:0:0:
448,192,35700,1,0,0:0:0:0:
192,192,35850,1,0,0:0:0:0:
320,192,36000,1,8,0:0:0:0:
448,192,36000,1,0,0:0:0:0:
192,192,36150,1,8,0:0:0:0:
64,192,36225,1,8,0:0:0:0:
320,192,36300,1,2,0:0:0:0:
448,192,36300,1,4,0:0:0:0:
64,192,36450,1,8,0:0:0:0:
192,192,36450,1,0,0:0:0:0:
64,192,36750,1,2,0:0:0:0:
192,192,36750,1,0,0:0:0:0:
320,192,36900,1,8,0:0:0:0:
448,192,36900,1,0,0:0:0:0:
64,192,37200,1,2,0:0:0:0:
448,192,37200,1,0,0:0:0:0:
192,192,37500,1,0,0:0:0:70:Snare.wav
320,192,37500,1,0,0:0:0:0:
64,192,37650,1,0,0:0:0:0:
320,192,37800,1,2,0:0:0:0:
448,192,37800,128,4,38700:0:0:0:35:soft-hitfinish.wav
64,192,38100,1,0,0:0:0:0:
192,192,38250,1,0,0:0:0:0:
320,192,38400,1,0,0:0:0:0:
64,192,38700,128,2,39300:0:0:0:0:
320,192,38700,1,4,0:0:0:0:
448,192,39000,1,0,0:0:0:0:
192,192,39300,1,8,0:0:0:0:
320,192,39300,1,0,0:0:0:0:
64,192,39600,1,2,0:0:0:0:
448,192,39600,128,0,40350:0:0:0:0:
64,192,40050,1,2,0:0:0:0:
192,192,40050,1,0,0:0:0:0:
64,192,40350,128,0,40500:0:0:0:0:
320,192,40500,128,8,41100:0:0:0:0:
448,192,40500,1,0,0:0:0:0:
64,192,40650,1,2,0:0:0:0:
192,192,40650,1,0,0:0:0:0:
64,192,41100,1,2,0:0:0:0:
448,192,41100,128,4,41550:0:0:0:0:
192,192,41400,1,8,0:0:0:0:
64,192,41400,1,0,0:0:0:0:
320,192,41550,128,0,42000:0:0:0:0:
192,192,41700,1,2,0:0:0:0:
448,192,42000,1,8,0:0:0:0:
64,192,42000,128,0,42600:0:0:0:0:
320,192,42300,1,2,0:0:0:0:
320,192,42600,128,8,42900:0:0:0:0:
448,192,42600,1,0,0:0:0:0:
192,192,42900,128,2,43200:0:0:0:0:
64,192,43200,128,8,43500:0:0:0:0:
320,192,43200,1,0,0:0:0:0:
192,192,43500,1,2,0:0:0:0:
448,192,43500,128,4,43950:0:0:0:0:
64,192,43950,1,2,0:0:0:0:
320,192,44100,128,8,44550:0:0:0:0:
448,192,44100,1,4,0:0:0:0:
64,192,44400,1,2,0:0:0:0:
64,192,44700,128,4,45150:0:0:0:35:soft-hitfinish.wav
192,192,44700,1,0,0:0:0:0:
448,192,44850,1,2,0:0:0:0:
448,192,45150,1,2,0:0:0:0:
64,192,45300,1,8,0:0:0:0:
192,192,45300,128,4,45600:0:0:0:0:
320,192,45600,128,0,45900:0:0:0:0:
64,192,45900,1,6,0:0:0:0:
448,192,45900,128,0,46800:0:0:0:70:soft-hitfinish.wav
192,192,46800,128,0,47100:0:0:0:0:
320,192,47100,1,8,0:0:0:0:
448,192,47100,1,4,0:0:0:0:
320,192,47300,1,8,0:0:0:0:
448,192,47300,1,4,0:0:0:0:
64,192,47500,1,8,0:0:0:0:
192,192,47500,1,4,0:0:0:0:
64,192,47700,1,8,0:0:0:0:
192,192,47700,1,4,0:0:0:0:
64,192,48300,1,2,0:0:0:0:
448,192,48300,1,8,0:0:0:0:
192,192,48450,1,8,0:0:0:0:
320,192,48600,1,10,0:0:0:0:
448,192,48750,1,8,0:0:0:0:
64,192,48900,1,8,0:0:0:0:
192,192,48900,1,2,0:0:0:0:
320,192,49050,1,8,0:0:0:0:
448,192,49200,1,10,0:0:0:0:
192,192,49350,1,8,0:0:0:0:
64,192,49500,1,8,0:0:0:0:
448,192,49500,1,2,0:0:0:0:
320,192,49650,1,10,0:0:0:0:
64,192,49800,1,8,0:0:0:0:
448,192,49800,1,2,0:0:0:0:
192,192,49950,1,10,0:0:0:0:
64,192,50100,1,2,0:0:0:0:
448,192,50100,1,8,0:0:0:0:
320,192,50250,1,10,0:0:0:0:
64,192,50400,1,8,0:0:0:0:
192,192,50400,1,2,0:0:0:0:
320,192,50550,1,10,0:0:0:0:
192,192,50625,1,2,0:0:0:0:
448,192,50700,128,0,51300:0:0:0:0:
64,192,51300,128,2,53700:0:0:0:0:
320,192,51300,1,4,0:0:0:0:
