osu file format v14

[General]
AudioFilename: audio.mp3
AudioLeadIn: 0
PreviewTime: 31428
Countdown: 0
SampleSet: Normal
StackLeniency: 0.7
Mode: 1
LetterboxInBreaks: 0
WidescreenStoryboard: 1

[Editor]
DistanceSpacing: 0.3
BeatDivisor: 4
GridSize: 32
TimelineZoom: 1.2

[Metadata]
Title:Nimble as Lightning
TitleUnicode:霆霓快雨
Artist:Yu-Peng Chen @HOYO-MiX
ArtistUnicode:陈致逸 @HOYO-MiX
Creator:BlackBq
Version:Muzukashii
Source:Genshin Impact
Tags:tingnikuaiyu tingnikuaiyv tingnikuaiyü hoyomix shitsuraikaiu 疾雷快雨 jilloekwaeu 질뢰쾌우 原神 げんしん 원신 kagayaku hoshiboshi 闪耀的群星 閃耀的群星 輝く星々 The Stellar Moments 빛나는 뭇별 Video game Electronic Instrumental 陳致逸 ChenZhiyi kokusei 刻晴 keqing 각청 theme thema キャラクターテーマ Character ost 角色主題曲 角色主题曲 캐릭터 테마 PV photon of fluctuation
BeatmapID:2982722
BeatmapSetID:1450783

[Difficulty]
HPDrainRate:6.5
CircleSize:2
OverallDifficulty:5
ApproachRate:10
SliderMultiplier:1.4
SliderTickRate:1

[Events]
//Background and Video events
0,0,"kq.jpg",0,110
//Break Periods
//Storyboard Layer 0 (Background)
//Storyboard Layer 1 (Fail)
//Storyboard Layer 2 (Pass)
//Storyboard Layer 3 (Foreground)
//Storyboard Layer 4 (Overlay)
//Storyboard Sound Samples

[TimingPoints]
303,300,4,1,0,60,1,0
3903,-100,4,1,0,65,0,0
6303,-100,4,1,0,70,0,0
7428,-100,4,1,0,60,0,0
21528,-100,4,1,0,65,0,0
21828,-100,4,1,0,70,0,0
29928,-100,4,1,0,75,0,0
30828,-100,4,1,0,80,0,0
51303,-100,4,1,0,70,0,0
51753,-100,4,1,0,60,0,0
52053,-100,4,1,0,50,0,0
52353,-100,4,1,0,40,0,0
52653,-100,4,1,0,30,0,0
52953,-100,4,1,0,20,0,0

[HitObjects]
256,192,303,5,0,0:0:0:0:
256,192,903,1,8,0:0:0:0:
256,192,1353,1,8,0:0:0:0:
256,192,1803,1,0,0:0:0:0:
256,192,2103,1,8,0:0:0:0:
256,192,2703,1,0,0:0:0:0:
256,192,3303,1,8,0:0:0:0:
256,192,3753,1,8,0:0:0:0:
256,192,4203,1,0,0:0:0:0:
256,192,4503,1,0,0:0:0:0:
256,192,4803,1,8,0:0:0:0:
256,192,5103,1,0,0:0:0:0:
256,192,5703,1,8,0:0:0:0:
256,192,6153,1,0,0:0:0:0:
256,192,6603,1,0,0:0:0:0:
256,192,6903,1,8,0:0:0:0:
256,192,7053,1,0,0:0:0:0:
256,192,7203,1,8,0:0:0:0:
352,96,7503,1,12,0:0:0:0:
256,192,7803,1,8,0:0:0:0:
256,192,8103,1,0,0:0:0:0:
256,192,8253,1,8,0:0:0:0:
256,192,8403,1,0,0:0:0:0:
256,192,9153,1,0,0:0:0:0:
256,192,9303,1,8,0:0:0:0:
256,192,9453,1,0,0:0:0:0:
256,192,9603,1,8,0:0:0:0:
256,192,9903,1,8,0:0:0:0:
256,192,10203,1,0,0:0:0:0:
256,192,10353,1,0,0:0:0:0:
256,192,10503,1,8,0:0:0:0:
256,192,11703,1,0,0:0:0:0:
256,192,12003,1,0,0:0:0:0:
256,192,12153,1,0,0:0:0:0:
256,192,12303,1,8,0:0:0:0:
256,192,12603,1,8,0:0:0:0:
256,192,12903,1,0,0:0:0:0:
256,192,13053,1,8,0:0:0:0:
256,192,13203,1,0,0:0:0:0:
256,192,13953,1,0,0:0:0:0:
256,192,14103,1,8,0:0:0:0:
256,192,14403,1,0,0:0:0:0:
256,192,14553,1,0,0:0:0:0:
256,192,14703,1,8,0:0:0:0:
256,192,15003,1,0,0:0:0:0:
256,192,15303,1,0,0:0:0:0:
256,192,15453,1,8,0:0:0:0:
256,192,15603,1,0,0:0:0:0:
256,192,15753,1,8,0:0:0:0:
256,192,15828,1,8,0:0:0:0:
256,192,15903,1,8,0:0:0:0:
256,192,16503,1,0,0:0:0:0:
256,192,16803,1,0,0:0:0:0:
256,192,16878,1,0,0:0:0:0:
256,192,16953,1,0,0:0:0:0:
256,192,17103,1,8,0:0:0:0:
256,192,17553,1,8,0:0:0:0:
256,192,17703,1,0,0:0:0:0:
256,192,18003,1,8,0:0:0:0:
256,192,18153,1,0,0:0:0:0:
256,192,18303,1,0,0:0:0:0:
256,192,18453,1,8,0:0:0:0:
256,192,18603,1,0,0:0:0:0:
256,192,18903,1,0,0:0:0:0:
256,192,19203,1,8,0:0:0:0:
256,192,19353,1,8,0:0:0:0:
256,192,19503,1,0,0:0:0:0:
256,192,19653,1,8,0:0:0:0:
256,192,19803,1,0,0:0:0:0:
256,192,20103,1,8,0:0:0:0:
256,192,21153,1,0,0:0:0:0:
256,192,21303,1,8,0:0:0:0:
256,192,21453,1,8,0:0:0:0:
256,192,21603,1,0,0:0:0:0:
256,192,21753,1,0,0:0:0:0:
256,192,21903,1,8,0:0:0:0:
256,192,22353,1,8,0:0:0:0:
256,192,22428,1,8,0:0:0:0:
256,192,22503,1,8,0:0:0:0:
256,192,22803,1,0,0:0:0:0:
256,192,23103,1,8,0:0:0:0:
256,192,23703,1,8,0:0:0:0:
256,192,24003,1,8,0:0:0:0:
256,192,24303,1,0,0:0:0:0:
256,192,24603,1,8,0:0:0:0:
256,192,24903,1,0,0:0:0:0:
256,192,25203,1,8,0:0:0:0:
256,192,25503,1,0,0:0:0:0:
256,192,25653,1,0,0:0:0:0:
256,192,25803,1,8,0:0:0:0:
256,192,26103,1,0,0:0:0:0:
256,192,26703,1,0,0:0:0:0:
256,192,27003,1,8,0:0:0:0:
256,192,27303,1,0,0:0:0:0:
256,192,27453,1,0,0:0:0:0:
256,192,27603,1,8,0:0:0:0:
256,192,27903,1,0,0:0:0:0:
256,192,28053,1,0,0:0:0:0:
256,192,28203,1,8,0:0:0:0:
256,192,28353,1,8,0:0:0:0:
256,192,28503,1,0,0:0:0:0:
256,192,29103,1,0,0:0:0:0:
256,192,29403,1,8,0:0:0:0:
256,192,29703,1,8,0:0:0:0:
256,192,29853,1,8,0:0:0:0:
256,192,30003,1,0,0:0:0:0:
256,192,30303,1,8,0:0:0:0:
256,192,30453,1,0,0:0:0:0:
256,192,30528,1,0,0:0:0:0:
256,192,30603,1,0,0:0:0:0:
256,192,30753,1,8,0:0:0:0:
256,192,30903,1,0,0:0:0:0:
352,64,31503,1,12,0:0:0:0:
256,192,31803,1,8,0:0:0:0:
256,192,31953,1,0,0:0:0:0:
256,192,32103,1,8,0:0:0:0:
256,192,32178,1,8,0:0:0:0:
256,192,32253,1,8,0:0:0:0:
256,192,32403,1,8,0:0:0:0:
256,192,32703,1,0,0:0:0:0:
256,192,32853,1,8,0:0:0:0:
256,192,33003,1,0,0:0:0:0:
256,192,33303,1,8,0:0:0:0:
256,192,33453,1,8,0:0:0:0:
256,192,33603,1,0,0:0:0:0:
320,96,33903,1,12,0:0:0:0:
256,192,34353,1,0,0:0:0:0:
256,192,34503,1,8,0:0:0:0:
256,192,34803,1,0,0:0:0:0:
256,192,35253,1,0,0:0:0:0:
256,192,35553,1,0,0:0:0:0:
256,192,35703,1,8,0:0:0:0:
256,192,36003,1,8,0:0:0:0:
352,96,36303,1,12,0:0:0:0:
256,192,36453,1,0,0:0:0:0:
256,192,36603,1,8,0:0:0:0:
256,192,36753,1,0,0:0:0:0:
256,192,37053,1,8,0:0:0:0:
256,192,37203,1,0,0:0:0:0:
256,192,37503,1,8,0:0:0:0:
384,64,37803,1,4,0:0:0:0:
256,192,38103,1,0,0:0:0:0:
256,192,38253,1,8,0:0:0:0:
256,192,38403,1,0,0:0:0:0:
352,64,38703,1,12,0:0:0:0:
256,192,39003,1,0,0:0:0:0:
256,192,39303,1,8,0:0:0:0:
256,192,39453,1,0,0:0:0:0:
256,192,39603,1,0,0:0:0:0:
256,192,39903,1,8,0:0:0:0:
256,192,40053,1,0,0:0:0:0:
256,192,40503,1,8,0:0:0:0:
256,192,40653,1,0,0:0:0:0:
352,64,41103,1,12,0:0:0:0:
256,192,41403,1,8,0:0:0:0:
256,192,41553,1,0,0:0:0:0:
256,192,41628,1,0,0:0:0:0:
256,192,41703,1,0,0:0:0:0:
256,192,41853,1,0,0:0:0:0:
256,192,42003,1,8,0:0:0:0:
256,192,42303,1,0,0:0:0:0:
256,192,42453,1,0,0:0:0:0:
256,192,42603,1,8,0:0:0:0:
256,192,42753,1,8,0:0:0:0:
256,192,42903,1,0,0:0:0:0:
256,192,43203,1,8,0:0:0:0:
352,64,43503,1,4,0:0:0:0:
256,192,43803,1,0,0:0:0:0:
352,96,44103,1,12,0:0:0:0:
256,192,44403,1,0,0:0:0:0:
352,96,44703,1,4,0:0:0:0:
256,192,45003,1,8,0:0:0:0:
352,96,45303,1,12,0:0:0:0:
352,96,45903,1,4,0:0:0:0:
384,128,47103,5,12,0:0:0:0:
384,128,47303,1,12,0:0:0:0:
384,128,47503,1,12,0:0:0:0:
384,128,47703,1,12,0:0:0:0:
256,192,48303,1,8,0:0:0:0:
256,192,48603,1,0,0:0:0:0:
256,192,48753,1,0,0:0:0:0:
256,192,48903,1,8,0:0:0:0:
256,192,49053,1,8,0:0:0:0:
256,192,49203,1,0,0:0:0:0:
256,192,49503,1,8,0:0:0:0:
256,192,49653,1,8,0:0:0:0:
256,192,49803,1,0,0:0:0:0:
256,192,50103,1,8,0:0:0:0:
256,192,50253,1,0,0:0:0:0:
256,192,50403,1,0,0:0:0:0:
256,192,50553,1,8,0:0:0:0:
256,192,50703,1,0,0:0:0:0:
256,192,51303,1,4,0:0:0:0:
256,192,51453,12,0,53103,0:0:0:0:
