osu file format v14

[General]
AudioFilename: audio.mp3
AudioLeadIn: 0
PreviewTime: 31388
Countdown: 0
SampleSet: Soft
StackLeniency: 0.7
Mode: 0
LetterboxInBreaks: 0
WidescreenStoryboard: 1

[Editor]
Bookmarks: 32813
DistanceSpacing: 0.3
BeatDivisor: 8
GridSize: 16
TimelineZoom: 1.4

[Metadata]
Title:Nimble as Lightning
TitleUnicode:霆霓快雨
Artist:Yu-Peng Chen @HOYO-MiX
ArtistUnicode:陈致逸 @HOYO-MiX
Creator:[Keqing]
Version:Shurelia's Normal
Source:Genshin Impact
Tags:刻晴 Kèqíng Keqing Theme The Stellar Moments inaugural character album Mihoyo OST Liyue Qixing instrumental electronic chinese folk dubstep video games gacha electro eri kitamura 喜多村英梨 kalibe 3376777 natsume shiki jungkyuyoung anime girl scubdomino 8972308 lcfc lowcombofc 7322726 haroderm13 -[H13]- 3807986 shurelia haruto -haruto aizawa haruto_aizawa 3772301 Tradless AJiSAI- 8636583 iljaaz 8501291 Zhiyi RPG action open world 原神 Yuánshén yuanshen fantasy Trulla Cementarii Yuheng Driving Thunder Yukizawa雪泽 kokusei Yukizawa_Inkiz Yukizawa 疾雷快雨
BeatmapID:2826386
BeatmapSetID:1366534

[Difficulty]
HPDrainRate:4
CircleSize:3.5
OverallDifficulty:5
ApproachRate:6
SliderMultiplier:0.999999999999999
SliderTickRate:1

[Events]
//Background and Video events
0,0,"85499466_p0.jpg",0,0
//Break Periods
//Storyboard Layer 0 (Background)
//Storyboard Layer 1 (Fail)
//Storyboard Layer 2 (Pass)
//Storyboard Layer 3 (Foreground)
//Storyboard Layer 4 (Overlay)
//Storyboard Sound Samples

[TimingPoints]
300,300,4,2,1,60,1,0
300,-100,4,2,1,60,0,0
900,-100,4,2,2,60,0,0
5700,-100,4,2,2,60,0,0
7500,-100,4,2,1,70,0,0
7650,-100,4,2,1,50,0,0
7800,-100,4,2,2,50,0,0
8100,-100,4,2,2,50,0,0
9900,-100,4,2,2,50,0,0
12300,-100,4,2,1,50,0,0
12600,-100,4,2,2,50,0,0
12900,-100,4,2,2,50,0,0
14700,-100,4,2,2,50,0,0
15900,-100,4,2,2,50,0,0
17100,-100,4,2,1,50,0,0
17400,-100,4,2,2,50,0,0
18525,-100,4,2,2,50,0,0
19500,-100,4,2,2,50,0,0
21900,-100,4,2,1,70,0,0
22050,-100,4,2,1,50,0,0
22200,-100,4,2,2,50,0,0
24300,-100,4,2,1,70,0,0
24375,-100,4,2,1,60,0,0
24380,-100,4,2,1,60,0,0
24900,-100,4,2,1,60,0,0
25350,-100,4,2,1,60,0,0
27750,-100,4,2,1,60,0,0
28500,-100,4,2,1,60,0,0
29100,-100,4,2,1,70,0,0
32400,-100,4,2,1,80,0,0
32700,-100,4,2,1,50,0,0
33900,-100,4,2,1,80,0,0
34200,-100,4,2,1,80,0,0
34500,-100,4,2,1,80,0,0
34800,-100,4,2,1,80,0,0
35250,-100,4,2,1,80,0,0
37800,-100,4,2,1,80,0,0
38100,-100,4,2,1,80,0,0
38550,-100,4,2,1,80,0,0
39000,-100,4,2,1,80,0,0
39300,-100,4,2,1,80,0,0
39600,-100,4,2,1,80,0,0
40050,-100,4,2,1,80,0,0
40800,-100,4,2,1,80,0,0
41100,-100,4,2,1,80,0,0
41400,-100,4,2,1,80,0,0
43500,-100,4,2,1,80,0,0
44100,-100,4,2,1,80,0,0
44700,-100,4,2,1,80,0,0
45300,-100,4,2,1,80,0,0
45750,-100,4,2,1,80,0,0
45900,-100,4,2,1,80,0,0
47100,-100,4,2,1,80,0,0
49500,-100,4,2,1,80,0,0
50550,-100,4,2,1,80,0,0

[Colours]
Combo1 : 228,225,220
Combo2 : 180,130,213
Combo3 : 235,146,208
Combo4 : 238,194,140

[HitObjects]
126,358,300,6,0,P|128:262|213:219,1,200,0|2,3:0|2:0,0:0:0:0:
312,332,1350,1,2,2:0:0:0:
433,243,1800,2,0,P|437:193|443:143,1,99.9999999999999,2|0,2:0|3:0,0:0:0:0:
455,44,2400,1,0,3:0:0:0:
454,44,2700,6,0,P|361:79|262:89,1,200,0|2,3:0|2:0,0:0:0:0:
127,23,3750,1,2,2:0:0:0:
81,165,4200,2,0,P|98:211|111:260,1,99.9999999999999,2|0,2:0|3:0,0:0:0:0:
88,357,4800,1,0,3:0:0:0:
88,357,5100,6,0,B|150:381|204:300|280:328,1,200,0|2,3:0|2:0,0:0:0:0:
425,374,6150,1,0,2:0:0:0:
411,225,6600,2,0,P|362:211|313:210,2,99.9999999999999,2|0|0,2:0|3:0|3:0,0:0:0:0:
486,180,7500,5,12,3:0:0:0:
486,180,9900,1,0,3:0:0:0:
486,180,12300,1,2,2:1:0:0:
486,180,14700,6,0,B|371:162|292:180|292:180|336:137|351:94,1,300,0|0,3:0|3:0,0:0:0:0:
251,92,15900,2,0,B|258:92|178:135|166:214|166:214|231:283|285:296,1,300,0|0,3:0|3:0,0:0:0:0:
369,349,17100,6,0,B|255:305|158:329|158:329|124:363|93:384,1,300,2|0,2:1|3:0,0:0:0:0:
40,297,18300,2,0,B|69:231|33:142|33:142|92:197|162:169,1,300,0|0,3:0|3:0,0:0:0:0:
117,79,19500,1,0,3:0:0:0:
117,79,21300,6,0,P|165:66|215:61,1,99.9999999999999,0|0,3:0|3:0,0:0:0:0:
280,135,21900,2,0,P|375:137|412:50,1,200,2|0,2:1|3:0,0:0:0:0:
505,13,22800,1,0,3:0:0:0:
495,112,23100,2,0,L|481:311,1,200,4|0,3:0|3:0,0:0:0:0:
387,278,24000,1,0,3:0:0:0:
314,346,24300,5,10,1:0:0:0:
115,324,24900,1,0,1:0:0:0:
133,124,25500,1,0,1:0:0:0:
332,135,26100,1,0,1:0:0:0:
312,334,26700,1,0,1:0:0:0:
113,309,27300,2,0,B|84:302|84:302|72:318,2,50,0|0|2,1:0|0:0|3:2,0:0:0:0:
198,257,27900,1,0,1:0:0:0:
75,98,28500,1,0,1:0:0:0:
265,40,29100,6,0,P|315:50|364:56,1,99.9999999999999,0|0,1:0|1:0,0:0:0:0:
429,133,29700,2,0,P|379:142|330:148,1,99.9999999999999,0|0,1:0|1:0,0:0:0:0:
269,228,30300,2,0,P|318:237|367:243,1,99.9999999999999,0|0,1:0|1:0,0:0:0:0:
416,331,30900,1,0,1:0:0:0:
416,331,31500,6,0,B|342:357|342:357|294:322|294:322|236:346,1,200,4|8,1:2|2:0,0:0:0:0:
139,370,32400,1,2,1:2:0:0:
59,309,32700,2,0,B|119:274|184:278|184:278|82:235|43:186,1,300,2|0,2:1|0:0,0:0:0:0:
24,87,33900,1,6,1:2:0:0:
208,10,34500,5,10,3:2:0:0:
208,10,34800,2,0,B|251:54|296:26|346:64,1,150,0|0,1:0|1:0,0:0:0:0:
276,135,35550,2,0,L|283:184,1,50,0|10,1:0|3:2,0:0:0:0:
371,232,36000,1,8,3:2:0:0:
298,300,36300,6,0,B|232:262|232:262|158:266,1,150,4|0,1:0|1:2,0:0:0:0:
25,195,37200,2,0,B|91:157|91:157|164:161,1,150,0|0,1:2|0:0,0:0:0:0:
271,55,38100,1,0,3:0:0:0:
172,37,38400,1,0,3:0:0:0:
72,49,38700,6,0,P|88:147|94:247,1,200,4|10,1:0|3:2,0:0:0:0:
100,346,39600,2,0,P|164:308|238:303,1,150,0|0,1:0|1:0,0:0:0:0:
378,359,40500,1,10,3:2:0:0:
472,182,41100,6,0,B|481:132|481:132|451:92,1,99.9999999999999,4|10,1:2|2:0,0:0:0:0:
369,35,41700,2,0,B|339:74|339:74|348:124,1,99.9999999999999,0|10,1:2|2:0,0:0:0:0:
253,153,42300,2,0,B|262:102|262:102|232:63,1,99.9999999999999,0|10,1:2|2:0,0:0:0:0:
150,13,42900,2,0,B|120:52|120:52|129:102,1,99.9999999999999,0|10,1:2|2:0,0:0:0:0:
30,111,43500,6,0,P|51:208|68:307,1,200,6|12,1:1|2:0,0:0:0:0:
267,325,44700,2,0,P|364:304|463:287,1,200,4|12,2:1|2:0,0:0:0:0:
453,87,45900,1,4,1:0:0:0:
162,42,46800,1,0,3:0:0:0:
162,42,47100,6,0,L|168:108,3,66.6666666666666,8|8|8|8,1:2|1:2|1:2|1:2,0:0:0:0:
71,283,48300,6,0,P|117:263|164:249,1,99.9999999999999,8|8,1:2|1:2,0:0:0:0:
134,154,48900,2,0,P|183:160|232:171,1,99.9999999999999,8|8,1:2|1:2,0:0:0:0:
243,72,49500,2,0,P|289:90|333:114,1,99.9999999999999,8|8,1:2|1:2,0:0:0:0:
374,23,50100,2,0,P|413:53|450:87,1,99.9999999999999,8|8,1:2|1:2,0:0:0:0:
476,184,50700,1,0,2:0:0:0:
192,178,51300,6,0,B|216:150|199:106|199:106|263:86|294:131|294:131|294:130|294:130|310:176|356:184|356:184|341:248|287:253|287:253|287:253|287:253|238:245|209:281|209:281|167:246|177:209,1,524.999999999999,2|0,1:0|0:0,0:0:0:0:
