osu file format v14

[General]
AudioFilename: audio.mp3
AudioLeadIn: 0
PreviewTime: 31388
Countdown: 0
SampleSet: Soft
StackLeniency: 0.7
Mode: 0
LetterboxInBreaks: 0
WidescreenStoryboard: 1

[Editor]
Bookmarks: 32813
DistanceSpacing: 0.3
BeatDivisor: 4
GridSize: 16
TimelineZoom: 2.6

[Metadata]
Title:Nimble as Lightning
TitleUnicode:霆霓快雨
Artist:Yu-Peng Chen @HOYO-MiX
ArtistUnicode:陈致逸 @HOYO-MiX
Creator:[Keqing]
Version:Keqing's Yunlai
Source:Genshin Impact
Tags:刻晴 Kèqíng Keqing Theme The Stellar Moments inaugural character album Mihoyo OST Liyue Qixing instrumental electronic chinese folk dubstep video games gacha electro eri kitamura 喜多村英梨 kalibe 3376777 natsume shiki jungkyuyoung anime girl scubdomino 8972308 lcfc lowcombofc 7322726 haroderm13 -[H13]- 3807986 shurelia haruto -haruto aizawa haruto_aizawa 3772301 Tradless AJiSAI- 8636583 iljaaz 8501291 Zhiyi RPG action open world 原神 Yuánshén yuanshen fantasy Trulla Cementarii Yuheng Driving Thunder Yukizawa雪泽 kokusei Yukizawa_Inkiz Yukizawa 疾雷快雨
BeatmapID:2833708
BeatmapSetID:1366534

[Difficulty]
HPDrainRate:5
CircleSize:4
OverallDifficulty:8
ApproachRate:9
SliderMultiplier:1.74
SliderTickRate:1

[Events]
//Background and Video events
0,0,"85499466_p0.jpg",0,0
//Break Periods
//Storyboard Layer 0 (Background)
//Storyboard Layer 1 (Fail)
//Storyboard Layer 2 (Pass)
//Storyboard Layer 3 (Foreground)
//Storyboard Layer 4 (Overlay)
//Storyboard Sound Samples

[TimingPoints]
300,300,4,2,1,60,1,0
300,-119.047619047619,4,2,1,60,0,0
900,-119.047619047619,4,2,2,60,0,0
7500,-185.185185185185,4,2,1,70,0,0
7650,-185.185185185185,4,2,1,50,0,0
7800,-185.185185185185,4,2,2,50,0,0
12300,-185.185185185185,4,2,1,50,0,0
12600,-185.185185185185,4,2,2,50,0,0
17100,-135.135135135135,4,2,1,50,0,0
17400,-135.135135135135,4,2,2,50,0,0
21900,-135.135135135135,4,2,1,70,0,0
22050,-135.135135135135,4,2,1,50,0,0
22200,-135.135135135135,4,2,2,50,0,0
24300,-106.382978723404,4,2,1,70,0,0
24375,-106.382978723404,4,2,1,60,0,0
29100,-106.382978723404,4,2,1,70,0,0
31500,-80.6451612903224,4,2,1,70,0,0
32400,-80.6451612903224,4,2,1,80,0,0
32700,-135.135135135135,4,2,1,50,0,0
33900,-74.6268656716417,4,2,1,80,0,0
34950,-135.135135135135,4,2,1,80,0,0
35400,-74.6268656716417,4,2,1,80,0,0
38250,-135.135135135135,4,2,1,80,0,0
38700,-74.6268656716417,4,2,1,80,0,0
39750,-135.135135135135,4,2,1,80,0,0
41100,-74.6268656716417,4,2,1,80,0,0
43500,-135.135135135135,4,2,1,80,0,0
44100,-74.6268656716417,4,2,1,80,0,0
45900,-135.135135135135,4,2,1,80,0,0
47100,-57.4712643678161,4,2,1,80,0,0
48900,-74.6268656716417,4,2,1,80,0,0
51300,-64.9350649350649,4,2,1,80,0,0

[Colours]
Combo1 : 228,225,220
Combo2 : 180,130,213
Combo3 : 235,146,208
Combo4 : 238,194,140

[HitObjects]
415,320,300,6,0,L|404:240,1,73.0799977697755,0|0,3:0|2:0,0:0:0:0:
405,247,600,1,0,2:0:0:0:
272,147,750,5,0,3:0:0:0:
336,104,900,2,0,P|360:134|349:182,1,73.0799977697755,2|0,2:0|2:0,0:0:0:0:
214,291,1200,5,0,3:0:0:0:
288,274,1350,2,0,L|120:234,1,146.159995539551,2|0,2:0|3:0,0:0:0:0:
31,343,1800,6,0,P|68:338|89:311,1,73.0799977697755,2|0,2:0|2:0,0:0:0:0:
188,162,2100,2,0,L|173:75,1,73.0799977697755,0|0,3:0|2:0,0:0:0:0:
112,44,2400,1,0,3:0:0:0:
288,274,2700,6,0,P|331:219|400:236,1,146.159995539551,0|0,3:0|2:0,0:0:0:0:
512,71,3150,1,0,3:0:0:0:
455,23,3300,2,0,P|416:82|425:171,1,146.159995539551,2|0,2:0|3:0,0:0:0:0:
496,262,3750,2,0,P|511:230|509:179,2,73.0799977697755,2|0|0,2:0|2:0|3:0,0:0:0:0:
309,374,4200,6,0,P|276:358|222:346,1,73.0799977697755,2|0,2:0|2:0,0:0:0:0:
94,187,4500,2,0,P|63:199|19:209,1,73.0799977697755,0|0,3:0|2:0,0:0:0:0:
196,55,4800,1,0,3:0:0:0:
165,123,4950,1,0,2:0:0:0:
288,274,5100,6,0,P|309:241|250:165,1,146.159995539551,0|0,3:0|2:0,0:0:0:0:
104,0,5550,1,0,3:0:0:0:
36,40,5700,2,0,P|29:78|16:116,1,73.0799977697755,2|0,2:0|2:0,0:0:0:0:
141,259,6000,1,0,3:0:0:0:
76,299,6150,6,0,P|98:358|178:351,1,146.159995539551,2|0,2:0|3:0,0:0:0:0:
345,206,6600,2,0,P|380:191|421:183,1,73.0799977697755,2|0,2:0|2:0,0:0:0:0:
188,55,6900,1,0,3:0:0:0:
263,76,7050,1,0,2:0:0:0:
287,149,7200,1,0,3:0:0:0:
268,222,7350,1,0,2:0:0:0:
391,338,7500,6,0,P|388:317|378:279,1,46.9800011469727,12|0,3:0|2:0,0:0:0:0:
424,229,7800,2,0,P|421:203|411:170,2,46.9800011469727,0|0|0,3:0|2:0|3:0,0:0:0:0:
489,276,8250,1,0,2:0:0:0:
489,276,8400,2,0,B|381:253|419:353|297:306,1,187.920004587891,0|0,3:0|3:0,0:0:0:0:
124,368,9150,5,0,2:0:0:0:
124,368,9225,1,0,2:0:0:0:
124,368,9300,2,0,P|133:343|140:311,1,46.9800011469727,0|0,3:0|2:0,0:0:0:0:
197,271,9600,2,0,P|191:248|189:209,1,46.9800011469727,0|0,3:0|2:0,0:0:0:0:
41,71,9900,5,0,3:0:0:0:
105,108,10050,2,0,L|163:91,2,46.9800011469727,0|0|0,2:0|3:0|2:0,0:0:0:0:
4,271,10500,2,0,P|-7:230|67:174,1,140.940003440918,0|0,3:0|2:0,0:0:0:0:
60,173,11700,5,0,3:0:0:0:
217,23,12000,1,0,3:0:0:0:
217,23,12075,1,0,2:0:0:0:
217,23,12150,1,0,2:0:0:0:
217,23,12225,1,0,2:0:0:0:
217,23,12300,6,0,L|205:86,1,46.9800011469727,2|0,2:1|2:0,0:0:0:0:
381,188,12600,2,0,L|371:127,1,46.9800011469727,0|0,3:0|2:0,0:0:0:0:
222,218,12900,1,0,3:0:0:0:
295,244,13050,1,0,2:0:0:0:
373,141,13200,6,0,B|324:126|290:168|290:168|274:229|212:216,1,187.920004587891,0|0,3:0|3:0,0:0:0:0:
84,380,13950,1,0,2:0:0:0:
84,380,14025,1,0,2:0:0:0:
84,380,14100,2,0,P|106:369|141:362,1,46.9800011469727,0|0,3:0|2:0,0:0:0:0:
0,217,14400,2,0,P|22:225|51:244,1,46.9800011469727,0|0,3:0|2:0,0:0:0:0:
209,138,14700,6,0,P|152:175|142:248,1,140.940003440918,0|0,3:0|2:0,0:0:0:0:
89,298,15300,1,0,3:0:0:0:
361,365,15750,5,0,2:0:0:0:
361,365,15825,1,0,0:0:0:0:
361,365,15900,2,0,B|372:321|372:321|352:278|352:278|368:225,1,140.940003440918,0|0,3:0|2:0,0:0:0:0:
393,160,16500,1,0,3:0:0:0:
458,46,16800,5,0,3:0:0:0:
443,41,16875,1,0,2:0:0:0:
423,47,16950,1,0,2:0:0:0:
414,63,17025,1,0,2:0:0:0:
409,78,17100,6,0,B|331:74|358:120|270:108,1,128.760003143555,2|0,2:1|3:0,0:0:0:0:
93,242,17550,2,0,B|143:245|177:199|177:199|124:262|152:300,1,193.140004715332,0|0,2:0|3:0,0:0:0:0:
257,375,18150,1,0,2:0:0:0:
257,375,18225,1,0,2:0:0:0:
257,375,18300,6,0,L|244:301,1,64.3800015717774,0|0,3:0|2:0,0:0:0:0:
107,159,18600,2,0,L|121:91,1,64.3800015717774,0|0,3:0|2:0,0:0:0:0:
264,3,18900,5,0,3:0:0:0:
289,74,19050,1,0,2:0:0:0:
289,83,19125,1,0,0:0:0:0:
287,94,19200,1,0,3:0:0:0:
223,143,19350,1,0,2:0:0:0:
18,311,19500,6,0,P|74:294|148:283,1,128.760003143555,0|0,3:0|3:0,0:0:0:0:
206,234,19950,1,0,2:0:0:0:
206,234,20100,2,0,P|265:253|324:290,1,128.760003143555,0|0,3:0|3:0,0:0:0:0:
358,357,20550,1,0,2:0:0:0:
495,83,21150,5,0,2:0:0:0:
495,83,21225,1,0,2:0:0:0:
495,83,21300,2,0,P|469:103|431:108,1,64.3800015717774,0|0,3:0|2:0,0:0:0:0:
289,198,21600,2,0,P|257:191|228:156,1,64.3800015717774,0|0,3:0|2:0,0:0:0:0:
384,272,21900,6,0,L|346:55,1,193.140004715332,2|0,2:1|2:0,0:0:0:0:
332,9,22425,1,0,0:0:0:0:
330,2,22500,1,0,3:0:0:0:
512,165,22800,1,0,3:0:0:0:
170,384,23100,6,0,P|204:337|274:340,1,128.760003143555,4|0,3:0|3:0,0:0:0:0:
386,273,23550,1,0,2:0:0:0:
469,319,23700,2,0,B|416:298|443:290|374:269,1,96.5700023576661,0|0,3:0|0:0,0:0:0:0:
335,214,24000,1,0,3:0:0:0:
73,18,24300,6,0,P|94:81|194:82,1,163.559997504273,10|2,1:0|2:0,0:0:0:0:
309,0,24750,1,0,3:0:0:0:
181,91,24900,2,0,L|163:179,1,81.7799987521363,0|0,1:0|0:0,0:0:0:0:
321,365,25200,6,0,B|398:343|398:343|429:286|375:268,1,163.559997504273,2|0,3:2|1:0,0:0:0:0:
256,187,25650,1,0,3:0:0:0:
330,156,25800,5,2,2:0:0:0:
192,277,25950,1,0,3:0:0:0:
320,366,26100,6,0,P|308:328|304:282,1,81.7799987521363,0|0,1:0|0:0,0:0:0:0:
161,169,26400,2,0,P|174:132|181:86,1,81.7799987521363,0|0,3:0|3:0,0:0:0:0:
293,0,26700,5,0,1:0:0:0:
166,78,26850,1,0,0:0:0:0:
257,183,27000,1,2,2:0:0:0:
384,94,27150,5,0,3:0:0:0:
495,204,27300,1,0,1:0:0:0:
376,282,27450,1,0,0:0:0:0:
342,169,27600,6,0,L|370:-14,1,163.559997504273,2|0,3:2|1:0,0:0:0:0:
257,183,28050,1,0,3:0:0:0:
451,32,28200,1,2,2:0:0:0:
274,90,28350,1,0,3:0:0:0:
470,222,28500,2,0,P|430:226|398:266,1,81.7799987521363,0|0,1:0|0:0,0:0:0:0:
245,372,28800,2,0,B|215:361|215:361|212:357|212:357|169:343,1,81.7799987521363,0|0,3:0|3:0,0:0:0:0:
16,215,29100,5,0,1:0:0:0:
62,154,29250,1,0,2:0:0:0:
139,170,29400,1,0,1:0:0:0:
280,298,29550,5,0,2:0:0:0:
332,356,29700,1,0,1:0:0:0:
405,327,29850,1,0,2:0:0:0:
487,223,30000,5,0,1:0:0:0:
280,298,30150,1,0,2:0:0:0:
489,384,30300,5,0,1:0:0:0:
322,209,30450,1,0,2:0:0:0:
330,183,30525,1,0,0:0:0:0:
339,155,30600,1,0,1:0:0:0:
468,48,30750,1,0,2:0:0:0:
223,191,30900,1,0,1:0:0:0:
223,191,31500,6,0,L|147:207,1,53.9399978600465,4|0,1:2|0:0,0:0:0:0:
79,33,31650,1,8,2:0:0:0:
35,59,31725,1,8,2:0:0:0:
40,103,31800,1,8,2:0:0:0:
170,202,31950,6,0,P|180:231|182:265,1,53.9399978600465,0|0,1:2|0:0,0:0:0:0:
0,379,32100,1,8,2:0:0:0:
87,256,32250,1,8,2:0:0:0:
229,338,32400,6,0,B|321:318|294:392|405:366,1,161.819993580139,2|0,1:2|0:0,0:0:0:0:
458,351,32700,6,0,B|505:331|505:264|505:264|493:315|435:332,1,193.140004715332,2|0,2:1|0:0,0:0:0:0:
391,242,33300,6,0,L|403:175,2,64.3800015717774
135,73,33900,6,0,B|125:45|90:36|90:36|164:31|190:100,1,174.869991728257,6|0,1:2|0:0,0:0:0:0:
258,84,34200,2,0,P|254:114|237:139,1,58.2899972427522,0|0,3:0|0:0,0:0:0:0:
103,233,34350,2,0,P|104:266|130:301,1,58.2899972427522,0|0,3:0|0:0,0:0:0:0:
256,384,34500,1,10,3:2:0:0:
256,384,34800,5,0,1:0:0:0:
110,296,34950,2,0,P|95:267|95:234,1,64.3800015717774,0|2,0:0|2:0,0:0:0:0:
238,136,35250,1,0,1:0:0:0:
134,56,35400,6,0,P|159:76|205:89,1,58.2899972427522
339,217,35550,2,0,P|369:207|397:184,1,58.2899972427522,0|0,1:0|0:0,0:0:0:0:
512,58,35700,6,0,B|491:10|421:22|421:22|386:69|439:93,1,174.869991728257,10|0,3:2|0:0,0:0:0:0:
433,90,36000,1,8,3:2:0:0:
241,273,36150,1,8,3:2:0:0:
241,273,36225,1,8,3:2:0:0:
241,273,36300,6,0,L|255:207,1,58.2899972427522,4|0,1:0|0:0,0:0:0:0:
196,135,36450,2,0,B|255:154|255:154|275:195|275:195|340:217,1,174.869991728257,8|0,2:0|0:0,0:0:0:0:
435,359,36750,6,0,L|420:291,1,58.2899972427522,0|0,1:2|0:0,0:0:0:0:
479,223,36900,2,0,B|420:242|420:242|400:283|400:283|335:305,1,174.869991728257,10|0,2:0|0:0,0:0:0:0:
283,359,37200,5,0,1:2:0:0:
223,311,37350,1,0,0:0:0:0:
438,358,37500,1,10,2:0:0:0:
29,176,37800,6,0,B|28:284|165:304|198:186|115:162|79:204,1,233.159988971009,4|0,1:2|3:0,0:0:0:0:
113,188,38250,2,0,L|95:271,1,64.3800015717774,0|0,3:0|3:0,0:0:0:0:
271,112,38700,6,0,B|270:3|407:-16|440:101|357:125|321:83,1,233.159988971009,4|0,1:0|3:0,0:0:0:0:
202,0,39150,1,0,3:0:0:0:
355,99,39300,6,0,B|386:140|356:181|356:181|309:210|327:258,1,174.869991728257,10|0,3:2|0:0,0:0:0:0:
381,303,39600,2,0,B|394:305|411:315|411:315|399:299|376:295,1,58.2899972427522,0|0,1:0|0:0,0:0:0:0:
247,230,39750,2,0,P|192:235|144:312,1,128.760003143555,0|0,0:0|1:0,0:0:0:0:
15,383,40200,2,0,L|80:364,1,64.3800015717774,0|0,0:0|1:0,0:0:0:0:
247,230,40500,5,10,3:2:0:0:
17,96,40650,1,0,0:0:0:0:
167,173,40800,5,8,3:2:0:0:
99,205,40950,1,0,0:0:0:0:
112,87,41100,6,0,B|60:132|129:208|119:168|212:240|137:296,1,233.159988971009,4|10,1:2|2:0,0:0:0:0:
315,75,41550,1,0,0:0:0:0:
377,133,41700,2,0,B|333:143|333:143|310:58,1,116.579994485504,0|0,1:2|0:0,0:0:0:0:
512,250,42000,2,0,B|490:203|433:212|433:212|423:263|365:281,1,174.869991728257,10|0,2:0|0:0,0:0:0:0:
375,285,42300,2,0,P|308:274|308:216,1,116.579994485504,0|0,1:2|0:0,0:0:0:0:
454,56,42600,6,0,B|464:44|479:33|479:33|373:60,1,116.579994485504,10|0,2:0|0:0,0:0:0:0:
299,234,42900,2,0,B|214:258|214:258|152:228|181:187,1,174.869991728257,0|0,1:2|0:0,0:0:0:0:
174,118,43200,2,0,B|199:115|229:81|229:81|204:104|199:140,1,116.579994485504,10|0,2:0|0:0,0:0:0:0:
69,264,43500,6,0,B|19:270|-22:200|-22:200|6:244|-2:285,1,193.140004715332,6|0,1:1|1:2,0:0:0:0:
174,118,44100,2,0,P|181:62|129:40,1,116.579994485504,12|0,2:0|0:0,0:0:0:0:
299,234,44400,2,0,B|392:246|353:319|489:303,1,174.869991728257,0|0,1:2|0:0,0:0:0:0:
470,294,44700,1,4,2:1:0:0:
284,345,44850,6,0,B|259:358|232:342|232:342|264:349|301:323,1,116.579994485504,0|0,1:2|0:0,0:0:0:0:
445,199,45150,1,0,1:2:0:0:
357,156,45300,6,0,B|324:124|345:76|345:76|339:127|399:166,1,174.869991728257,12|0,2:0|0:0,0:0:0:0:
445,199,45600,1,0,0:0:0:0:
503,99,45750,6,0,P|472:104|439:130,1,58.2899972427522,0|0,3:0|0:0,0:0:0:0:
201,339,45900,6,0,B|155:332|118:362|118:362|41:355|-3:280|68:186|141:248|119:300,1,321.900007858887,4|0,1:0|0:0,0:0:0:0:
11,164,46800,5,0,3:0:0:0:
11,164,46875,1,0,3:0:0:0:
11,164,46950,2,0,L|-4:108,1,32.1900007858887,0|0,3:0|3:0,0:0:0:0:
140,45,47100,6,0,B|238:73|238:73|208:75|186:102,1,151.380001270432,8|0,1:2|0:0,0:0:0:0:
243,147,47300,2,0,B|294:193|338:147|338:147|317:90,1,151.380001270432,8|0,1:2|0:0,0:0:0:0:
351,37,47500,2,0,P|420:28|442:102,1,151.380001270432,8|0,1:2|0:0,0:0:0:0:
491,151,47700,2,0,B|500:174|413:226|341:127|390:136|317:76|200:108|249:154,1,302.760002540863,8|0,1:2|0:0,0:0:0:0:
243,147,48300,5,8,1:2:0:0:
325,279,48450,1,0,3:2:0:0:
260,321,48600,5,8,1:2:0:0:
366,184,48750,1,0,3:2:0:0:
104,214,48900,6,0,B|145:228|145:228|158:245|158:245|220:263,1,116.579994485504,8|0,1:2|3:2,0:0:0:0:
341,359,49200,2,0,B|382:345|382:345|395:328|395:328|457:310,1,116.579994485504,8|0,1:2|3:2,0:0:0:0:
263,110,49500,6,0,P|244:136|244:176,1,58.2899972427522,8|0,1:2|0:0,0:0:0:0:
444,313,49650,2,0,P|460:291|457:251,1,58.2899972427522,8|0,1:2|0:0,0:0:0:0:
474,117,49800,6,0,L|403:142,1,58.2899972427522,8|0,1:2|0:0,0:0:0:0:
239,309,49950,2,0,L|304:287,1,58.2899972427522,8|0,1:2|0:0,0:0:0:0:
356,221,50100,5,8,1:2:0:0:
174,98,50250,1,8,1:2:0:0:
158,282,50400,5,8,1:2:0:0:
293,160,50550,1,8,1:2:0:0:
301,131,50625,1,0,3:0:0:0:
286,116,50700,1,0,2:0:0:0:
286,116,51300,6,0,B|303:90|407:57|492:164|418:262|418:262|398:209|342:186|295:219|295:219|339:285|301:392|165:412|117:299|117:299|171:309|221:271|216:214|216:214|135:221|62:134|112:6|235:21|235:21|199:64|207:125|259:149,1,1406.78997209432,2|0,1:0|0:0,0:0:0:0:
