osu file format v14

[General]
AudioFilename: audio.mp3
AudioLeadIn: 0
PreviewTime: 31388
Countdown: 0
SampleSet: Soft
StackLeniency: 0.7
Mode: 0
LetterboxInBreaks: 0
WidescreenStoryboard: 1

[Editor]
Bookmarks: 32813
DistanceSpacing: 0.3
BeatDivisor: 8
GridSize: 4
TimelineZoom: 2.2

[Metadata]
Title:Nimble as Lightning
TitleUnicode:霆霓快雨
Artist:Yu-Peng Chen @HOYO-MiX
ArtistUnicode:陈致逸 @HOYO-MiX
Creator:[Keqing]
Version:Kalibe's Hard
Source:Genshin Impact
Tags:刻晴 Kèqíng Keqing Theme The Stellar Moments inaugural character album Mihoyo OST Liyue Qixing instrumental electronic chinese folk dubstep video games gacha electro eri kitamura 喜多村英梨 kalibe 3376777 natsume shiki jungkyuyoung anime girl scubdomino 8972308 lcfc lowcombofc 7322726 haroderm13 -[H13]- 3807986 shurelia haruto -haruto aizawa haruto_aizawa 3772301 Tradless AJiSAI- 8636583 iljaaz 8501291 Zhiyi RPG action open world 原神 Yuánshén yuanshen fantasy Trulla Cementarii Yuheng Driving Thunder Yukizawa雪泽 kokusei Yukizawa_Inkiz Yukizawa 疾雷快雨
BeatmapID:2830130
BeatmapSetID:1366534

[Difficulty]
HPDrainRate:5
CircleSize:4
OverallDifficulty:7
ApproachRate:8
SliderMultiplier:1.4
SliderTickRate:0.5

[Events]
//Background and Video events
0,0,"85499466_p0.jpg",0,0
//Break Periods
//Storyboard Layer 0 (Background)
//Storyboard Layer 1 (Fail)
//Storyboard Layer 2 (Pass)
//Storyboard Layer 3 (Foreground)
//Storyboard Layer 4 (Overlay)
//Storyboard Sound Samples

[TimingPoints]
300,300,4,2,1,60,1,0
300,-100,4,2,1,60,0,0
900,-142.857142857143,4,2,2,60,0,0
5700,-111.111111111111,4,2,2,60,0,0
7500,-125,4,2,1,70,0,0
7650,-125,4,2,1,50,0,0
7800,-125,4,2,2,50,0,0
8100,-125,4,2,2,50,0,0
9900,-125,4,2,2,50,0,0
12300,-125,4,2,1,50,0,0
12600,-125,4,2,2,50,0,0
12900,-125,4,2,2,50,0,0
14700,-125,4,2,2,50,0,0
15900,-125,4,2,2,50,0,0
17100,-111.111111111111,4,2,1,50,0,0
17400,-111.111111111111,4,2,2,50,0,0
18525,-111.111111111111,4,2,2,50,0,0
19500,-111.111111111111,4,2,2,50,0,0
21900,-111.111111111111,4,2,1,70,0,0
22050,-111.111111111111,4,2,1,50,0,0
22200,-111.111111111111,4,2,2,50,0,0
24300,-100,4,2,1,70,0,0
24375,-100,4,2,1,60,0,0
24380,-100,4,2,1,60,0,0
24900,-100,4,2,1,60,0,0
25350,-100,4,2,1,60,0,0
27750,-100,4,2,1,60,0,0
28500,-100,4,2,1,60,0,0
29100,-100,4,2,1,70,0,0
32400,-100,4,2,1,80,0,0
32700,-100,4,2,1,50,0,0
33900,-100,4,2,1,80,0,0
34200,-100,4,2,1,80,0,0
34500,-83.3333333333333,4,2,1,80,0,0
34800,-100,4,2,1,80,0,0
35250,-100,4,2,1,80,0,0
37800,-100,4,2,1,80,0,0
38100,-100,4,2,1,80,0,0
38550,-100,4,2,1,80,0,0
39000,-100,4,2,1,80,0,0
39300,-100,4,2,1,80,0,0
39600,-100,4,2,1,80,0,0
40050,-100,4,2,1,80,0,0
40800,-100,4,2,1,80,0,0
41100,-83.3333333333333,4,2,1,80,0,0
41400,-100,4,2,1,80,0,0
43500,-100,4,2,1,80,0,0
44100,-100,4,2,1,80,0,0
44700,-100,4,2,1,80,0,0
45300,-100,4,2,1,80,0,0
45750,-100,4,2,1,80,0,0
45900,-166.666666666667,4,2,1,80,0,0
47100,-80,4,2,1,80,0,0
48000,-100,4,2,1,80,0,0
49500,-100,4,2,1,80,0,0
50550,-83.3333333333333,4,2,1,80,0,0

[Colours]
Combo1 : 228,225,220
Combo2 : 180,130,213
Combo3 : 235,146,208
Combo4 : 238,194,140

[HitObjects]
304,2,300,5,0,3:0:0:0:
13,110,900,2,0,P|39:119|118:133,1,97.9999970092774,2|0,2:0|3:0,0:0:0:0:
176,150,1350,2,0,P|224:142|271:127,1,97.9999970092774,2|0,2:0|3:0,0:0:0:0:
334,84,1800,1,2,2:0:0:0:
334,84,2100,1,0,3:0:0:0:
334,83,2400,1,0,3:0:0:0:
200,48,2700,5,0,3:0:0:0:
460,216,3300,2,0,P|415:212|353:182,1,97.9999970092774,2|0,2:0|3:0,0:0:0:0:
300,157,3750,2,0,P|255:176|206:181,1,97.9999970092774,2|0,2:0|3:0,0:0:0:0:
104,234,4200,6,0,P|89:215|80:191,1,48.9999985046387,2|0,2:0|2:0,0:0:0:0:
113,323,4500,2,0,P|104:344|81:378,1,48.9999985046387,0|0,3:0|2:0,0:0:0:0:
197,284,4800,2,0,P|219:276|250:274,1,48.9999985046387,0|0,3:0|2:0,0:0:0:0:
308,317,5100,6,0,B|393:328|333:368|460:379,1,146.999995513916,0|0,3:0|3:0,0:0:0:0:
509,337,5700,6,0,B|491:313|491:313|514:210,1,125.999996154785,2|0,2:0|3:0,0:0:0:0:
451,132,6150,2,0,L|443:19,1,94.499997116089,2|0,2:0|0:0,0:0:0:0:
444,37,6450,2,0,L|358:53,1,62.9999980773926,0|2,3:0|2:0,0:0:0:0:
299,111,6750,2,0,L|293:148,2,31.4999990386963,0|0|0,2:0|0:0|3:0,0:0:0:0:
378,157,7050,1,0,2:0:0:0:
271,213,7200,5,0,3:0:0:0:
269,219,7350,1,0,2:0:0:0:
219,130,7500,6,0,P|213:97|227:7,1,112,12|0,3:0|3:0,0:0:0:0:
190,11,7950,1,0,2:0:0:0:
119,27,8100,1,0,3:0:0:0:
41,30,8250,1,0,2:0:0:0:
0,45,8400,1,0,3:0:0:0:
125,276,9150,6,0,L|116:318,2,28,0|0|0,2:0|2:0|3:0,0:0:0:0:
53,212,9450,2,0,L|-21:185,2,56,0|0|0,2:0|3:0|2:0,0:0:0:0:
0,297,9900,6,0,L|117:282,1,112,0|0,3:0|3:0,0:0:0:0:
189,266,10350,1,0,2:0:0:0:
131,352,10500,1,0,3:0:0:0:
426,226,11700,5,0,3:0:0:0:
426,226,12000,2,0,L|416:177,2,28,0|0|0,3:0|2:0|2:0,0:0:0:0:
337,165,12300,6,0,L|272:186,1,56,2|0,2:1|2:0,0:0:0:0:
214,258,12600,2,0,L|230:326,1,56,0|0,3:0|2:0,0:0:0:0:
78,242,12900,6,0,L|150:252,1,56,0|0,3:0|2:0,0:0:0:0:
235,284,13200,2,0,B|112:281|152:331|11:320,1,224,0|0,3:0|3:0,0:0:0:0:
20,247,13950,5,0,2:0:0:0:
20,247,14025,1,0,2:0:0:0:
20,247,14100,2,0,P|12:222|-4:185,1,56,0|0,3:0|2:0,0:0:0:0:
81,114,14400,2,0,P|106:102|140:79,1,56,0|0,3:0|2:0,0:0:0:0:
0,89,14700,6,0,P|85:130|273:6,1,336,0|0,3:0|3:0,0:0:0:0:
191,72,15750,1,0,2:0:0:0:
191,72,15825,1,0,0:0:0:0:
191,72,15900,2,0,P|299:157|379:122,1,224,0|0,3:0|3:0,0:0:0:0:
507,37,16800,2,0,L|499:-8,3,28,0|0|0|0,3:0|2:0|2:0|2:0,0:0:0:0:
427,30,17100,6,0,L|288:13,1,125.999996154785,2|0,2:1|3:0,0:0:0:0:
301,14,17550,2,0,L|152:41,1,125.999996154785,0|0,2:0|2:0,0:0:0:0:
104,64,18000,2,0,L|24:45,1,62.9999980773926,0|0,3:0|2:0,0:0:0:0:
22,76,18225,1,0,2:0:0:0:
22,76,18300,6,0,P|41:100|44:148,1,62.9999980773926,0|0,3:0|2:0,0:0:0:0:
116,144,18600,2,0,P|82:160|54:252,1,125.999996154785,0|0,3:0|3:0,0:0:0:0:
104,308,19050,2,0,L|91:352,2,31.4999990386963,0|0|0,2:0|0:0|3:0,0:0:0:0:
223,285,19350,5,0,2:0:0:0:
223,285,19425,1,0,2:0:0:0:
223,285,19500,2,0,P|343:276|475:337,2,251.999992309571,0|0|0,3:0|3:0|3:0,0:0:0:0:
0,202,21150,5,0,2:0:0:0:
0,202,21225,1,0,2:0:0:0:
0,202,21300,2,0,L|72:182,1,62.9999980773926,0|0,3:0|2:0,0:0:0:0:
176,104,21600,2,0,L|257:129,1,62.9999980773926,0|0,3:0|2:0,0:0:0:0:
272,210,21900,6,0,B|317:201|361:226|361:226|411:182|411:182|451:215|500:227,1,251.999992309571,2|0,2:1|3:0,0:0:0:0:
335,120,22800,1,0,3:0:0:0:
498,31,23100,2,0,B|444:82|374:48|374:48|433:92|408:153,1,251.999992309571,4|0,3:0|3:0,0:0:0:0:
409,150,24000,1,0,3:0:0:0:
211,190,24300,6,0,B|132:177|132:177|151:121,1,140,10|2,1:0|2:0,0:0:0:0:
9,229,24900,2,0,B|22:308|22:308|78:289,1,140,0|2,1:0|3:2,0:0:0:0:
241,375,25500,1,0,1:0:0:0:
275,311,25650,2,0,B|338:330|338:330|325:236,1,140,0|0,3:0|3:0,0:0:0:0:
421,205,26100,6,0,L|516:212,1,70,0|0,1:0|0:0,0:0:0:0:
406,280,26400,2,0,L|484:301,1,70,0|0,3:0|3:0,0:0:0:0:
319,229,26700,5,0,1:0:0:0:
359,148,26850,2,0,P|353:94|425:46,1,140,0|0,0:0|3:0,0:0:0:0:
493,66,27300,6,0,P|464:86|417:91,1,70,0|0,1:0|0:0,0:0:0:0:
314,140,27600,2,0,P|279:131|248:106,1,70,2|0,3:2|3:0,0:0:0:0:
214,51,27900,1,0,1:0:0:0:
214,51,28050,2,0,P|180:48|63:99,1,140,0|0,3:0|3:0,0:0:0:0:
21,159,28500,5,0,1:0:0:0:
63,357,28800,1,0,3:0:0:0:
63,357,28950,1,0,3:0:0:0:
122,199,29100,6,0,L|102:289,1,70,0|0,1:0|2:0,0:0:0:0:
106,267,29400,2,0,L|193:285,1,70,0|0,1:0|2:0,0:0:0:0:
281,184,29700,6,0,L|206:204,1,70,0|0,1:0|2:0,0:0:0:0:
133,298,30000,2,0,L|146:374,1,70,0|0,1:0|2:0,0:0:0:0:
291,287,30300,5,0,1:0:0:0:
212,263,30450,1,0,2:0:0:0:
272,358,30600,5,0,1:0:0:0:
364,333,30750,1,0,2:0:0:0:
364,333,30900,1,0,1:0:0:0:
466,220,31500,5,4,1:2:0:0:
383,141,31650,1,8,2:0:0:0:
387,127,31725,1,8,2:0:0:0:
390,116,31800,1,8,2:0:0:0:
401,45,31950,6,0,L|242:56,1,140,0|8,1:2|2:0,0:0:0:0:
223,161,32400,6,0,B|229:166|229:166|204:252|204:252|214:260,1,105,2|0,1:2|0:0,0:0:0:0:
236,251,32700,2,0,B|202:214|143:234|132:278|132:278|118:330|41:354|6:295,1,280,2|0,2:1|0:0,0:0:0:0:
37,235,33450,1,0,0:0:0:0:
54,162,33600,2,0,B|27:153|27:153|49:73,1,105
25,62,33900,6,0,B|78:70|78:70|108:122|166:116,1,140,6|0,1:2|3:0,0:0:0:0:
245,70,34350,1,0,3:0:0:0:
324,134,34500,6,0,B|244:157|244:157|307:222,1,167.999994873047,10|0,3:2|1:0,0:0:0:0:
411,129,34950,2,0,B|410:206|380:181|370:263,1,140,0|0,0:0|1:0,0:0:0:0:
439,305,35400,1,0,0:0:0:0:
439,305,35550,1,0,1:0:0:0:
327,352,35700,2,0,L|413:379,1,70,10|0,3:2|0:0,0:0:0:0:
302,279,36000,1,8,3:2:0:0:
214,267,36150,5,8,3:2:0:0:
218,282,36225,1,8,3:2:0:0:
222,296,36300,1,4,1:0:0:0:
147,374,36450,2,0,B|84:346|84:346|125:272,1,140,8|0,2:0|1:2,0:0:0:0:
83,202,36900,6,0,L|10:188,1,70,10|0,2:0|0:0,0:0:0:0:
138,100,37200,2,0,P|109:54|103:108,1,140,0|10,1:2|2:0,0:0:0:0:
172,173,37650,1,0,0:0:0:0:
273,123,37800,2,0,B|328:118|328:118|372:136|372:136|422:130,2,140,4|0|0,1:2|3:0|3:0,0:0:0:0:
476,240,38700,6,0,B|422:210|422:210|451:292,1,140,4|0,1:0|3:0,0:0:0:0:
255,384,39300,2,0,L|286:305,1,70,10|0,3:2|0:0,0:0:0:0:
283,221,39600,5,0,1:0:0:0:
233,173,39750,2,0,L|300:238,1,70,0|2,0:0|2:0,0:0:0:0:
426,237,40050,5,0,1:0:0:0:
426,237,40200,2,0,L|346:274,1,70,0|0,0:0|1:0,0:0:0:0:
246,318,40500,6,0,B|146:269|157:383|42:358,1,210,10|0,3:2|0:0,0:0:0:0:
20,247,41100,6,0,B|25:215|12:177|12:177|60:224|34:295,1,167.999994873047,4|10,1:2|2:0,0:0:0:0:
125,363,41550,1,0,0:0:0:0:
174,275,41700,6,0,L|187:160,1,105,0|0,1:2|0:0,0:0:0:0:
176,153,42000,2,0,B|164:188|164:188|280:204,1,140,10|0,2:0|1:2,0:0:0:0:
352,283,42450,1,0,0:0:0:0:
420,208,42600,6,0,P|386:247|439:231,1,140,10|0,2:0|1:2,0:0:0:0:
512,184,43050,1,0,3:0:0:0:
404,112,43200,2,0,L|320:128,1,70,10|0,2:0|0:0,0:0:0:0:
266,36,43500,6,0,P|237:77|321:210,1,210,6|0,1:1|1:2,0:0:0:0:
236,281,44100,2,0,P|216:321|118:337,1,140,12|0,2:0|1:2,0:0:0:0:
44,255,44700,5,4,2:1:0:0:
44,255,44850,2,0,P|64:295|162:311,1,140,0|0,1:2|1:2,0:0:0:0:
236,281,45300,1,12,2:0:0:0:
505,209,45750,5,0,3:0:0:0:
505,209,45825,1,0,0:0:0:0:
505,209,45900,2,0,B|356:187|413:154|260:125,1,251.999992309571,4|0,1:0|3:0,0:0:0:0:
192,163,46950,1,0,3:0:0:0:
146,97,47100,6,0,B|114:104|114:104|57:102|57:102|1:115,2,116.666666666667,8|8|8,1:2|1:2|1:2,0:0:0:0:
256,12,47700,1,8,1:2:0:0:
303,256,48300,6,0,P|282:224|272:176,1,70,8|0,1:2|3:2,0:0:0:0:
362,82,48600,2,0,P|328:92|291:120,1,70,8|0,1:2|3:2,0:0:0:0:
228,136,48900,2,0,B|299:152|272:170|357:191,1,140,8|8,1:2|1:2,0:0:0:0:
355,190,49350,1,0,3:2:0:0:
488,296,49500,5,8,1:2:0:0:
408,272,49650,1,8,1:2:0:0:
332,336,49800,1,8,1:2:0:0:
332,336,49950,1,8,1:2:0:0:
240,296,50100,2,0,L|101:313,1,140,8|8,1:2|1:2,0:0:0:0:
18,334,50550,5,8,1:2:0:0:
18,334,50625,1,0,3:0:0:0:
18,334,50700,1,0,2:0:0:0:
205,207,51300,6,0,B|186:310|294:343|294:343|263:256|300:226|300:226|399:190|374:81|374:81|313:151|270:134|270:134|189:66|107:142|107:142|198:159|207:205,1,881.999973083497,2|0,1:0|0:0,0:0:0:0:
