osu file format v14

[General]
AudioFilename: audio.mp3
AudioLeadIn: 0
PreviewTime:1881
Countdown: 0
SampleSet: Soft
StackLeniency: 0.7
Mode: 0
LetterboxInBreaks: 0
WidescreenStoryboard: 1

[Editor]
Bookmarks:23603,23605
DistanceSpacing: 1.3
BeatDivisor: 8
GridSize: 16
TimelineZoom: 1.1

[Metadata]
Title:Moonlike Smile
TitleUnicode:皎洁的笑颜
Artist:Yu-Peng Chen @HOYO-MiX
ArtistUnicode:陈致逸 @HOYO-MiX
Creator:Present
Version:Muz's Light Insane
Source:Genshin Impact
Tags:YuanShen 原神 miHoYo 漩涡、落星与冰山 Vortex of Legends ost original SoundTrack 无垠之白 Frost theme BGM Instrumental Video Game Classic Piano Kobayakawa Sae CoLouRed GlaZeE AngelSnow Muziyami 龙脊雪山 Mountain Soundtrack VGM Music Dragonspine
BeatmapID:3171783
BeatmapSetID:1552230

[Difficulty]
HPDrainRate:4.8
CircleSize:3.8
OverallDifficulty:6.5
ApproachRate:7.2
SliderMultiplier:1.4
SliderTickRate:1

[Events]
//Background and Video events
0,0,"bg.jpg",0,0
//Break Periods
//Storyboard Layer 0 (Background)
//Storyboard Layer 1 (Fail)
//Storyboard Layer 2 (Pass)
//Storyboard Layer 3 (Foreground)
//Storyboard Layer 4 (Overlay)
//Storyboard Sound Samples

[TimingPoints]
2050,674.157303370787,4,2,1,35,1,0
2050,-125,4,2,1,35,0,0
6094,666.666666666667,4,2,1,35,1,0
6094,-125,4,2,1,35,0,0
6760,645.161290322581,4,2,1,35,1,0
6760,-125,4,2,1,35,0,0
7082,722.891566265061,4,2,1,35,1,0
7082,-125,4,2,1,35,0,0
7443,666.666666666667,4,2,1,35,1,0
7443,-125,4,2,1,35,0,0
10109,681.818181818182,4,2,1,35,1,0
10109,-125,4,2,1,35,0,0
12836,674.157303370787,4,2,1,35,1,0
12836,-125,4,2,1,35,0,0
15532,666.666666666667,4,2,1,35,1,0
15532,-125,4,2,1,35,0,0
18198,681.818181818182,4,2,1,35,1,0
18198,-125,4,2,1,35,0,0
19561,674.157303370787,4,2,1,35,1,0
19561,-125,4,2,1,35,0,0
20909,674.157303370787,4,2,1,35,1,0
20909,-125,4,2,1,35,0,0
23605,-100,4,2,1,35,0,0
31695,681.818181818182,4,2,1,35,1,0
32376,666.666666666667,4,2,1,35,1,0
33042,681.818181818182,4,2,1,35,1,0
34406,674.157303370787,4,2,1,35,1,0
38450,666.666666666667,4,2,1,35,1,0
39783,674.157303370787,4,2,1,35,1,0
42479,666.666666666667,4,2,1,35,1,0
43812,674.157303370787,4,2,1,35,1,0
45160,681.818181818182,4,2,1,35,1,0
45160,-83.3333333333333,4,2,1,35,0,1
47716,-83.3333333333333,4,2,1,5,0,1
47887,666.666666666667,4,2,1,35,1,1
47887,-83.3333333333333,4,2,1,35,0,1
49887,670.391061452514,4,2,1,35,1,1
49887,-83.3333333333333,4,2,1,35,0,1
50557,681.818181818183,4,2,1,35,1,1
50557,-83.3333333333333,4,2,1,35,0,1
52602,666.666666666667,4,2,1,35,1,1
52602,-83.3333333333333,4,2,1,35,0,1
53102,-83.3333333333333,4,2,1,5,0,1
53267,666.666666666667,4,2,1,35,1,1
53267,-83.3333333333333,4,2,1,35,0,1
54600,674.157303370787,4,2,1,35,1,1
54600,-83.3333333333333,4,2,1,35,0,1
55946,674.157303370787,4,2,1,35,1,0
58474,-100,4,2,1,5,0,0
58642,-100,4,2,1,35,0,0
59148,-100,4,2,1,5,0,0
59316,-100,4,2,1,35,0,0
59990,666.666666666667,4,2,1,35,1,0
60656,681.818181818182,4,2,1,35,1,0
61337,674.157303370787,4,2,1,35,1,0
62685,689.655172413794,4,2,1,35,1,0
63374,674.157303370787,4,2,1,35,1,0
64048,674.157303370787,4,2,1,35,1,0
65396,705.882352941177,4,2,1,35,1,0
66101,1000,4,2,1,35,1,0
66101,-76.9230769230769,4,2,1,35,0,0
66601,1016.94915254237,4,2,1,45,1,0
67109,750,4,2,1,45,1,0
67484,705.882352941176,4,2,1,45,1,0
67836,779.220779220778,4,2,1,45,1,0
68225,909.090909090908,4,2,1,45,1,0
68679,1132.07547169811,4,2,1,45,1,0
69245,1764.70588235294,4,2,1,45,1,0
70127,-100,4,2,1,25,0,0

[Colours]
Combo1 : 167,184,123
Combo2 : 237,171,159
Combo3 : 147,191,189
Combo4 : 217,185,145
Combo5 : 126,134,171

[HitObjects]
101,105,2050,6,0,P|111:138|114:178,1,56,2|0,0:0|0:0,0:0:0:0:
208,138,2724,2,0,P|200:171|182:207,1,56,2|0,0:0|0:0,0:0:0:0:
284,220,3398,2,0,P|260:245|227:267,1,56,2|0,0:0|0:0,0:0:0:0:
25,156,4072,1,2,0:0:0:0:
106,25,4409,1,0,0:0:0:0:
208,138,4746,6,0,P|234:139|267:128,1,56,2|0,0:0|0:0,0:0:0:0:
341,161,5420,2,0,P|364:148|387:122,1,56,2|0,0:0|0:0,0:0:0:0:
465,106,6094,2,0,P|478:83|485:49,1,56,2|0,0:0|0:0,0:0:0:0:
402,48,6760,1,2,0:0:0:0:
445,188,7082,1,2,0:0:0:0:
322,73,7443,6,0,P|317:46|328:5,1,56,2|0,0:0|0:0,0:0:0:0:
228,58,8109,2,0,P|202:48|172:18,1,56,2|0,0:0|0:0,0:0:0:0:
168,131,8776,2,0,P|147:148|106:159,1,56,2|0,0:0|0:0,0:0:0:0:
205,213,9443,1,2,0:0:0:0:
351,155,9776,1,0,0:0:0:0:
318,297,10109,6,0,P|315:327|317:361,1,56,6|0,0:0|0:0,0:0:0:0:
376,233,10790,2,0,P|406:236|440:234,1,56,2|0,0:0|0:0,0:0:0:0:
351,155,11472,2,0,P|354:125|352:91,1,56,2|0,0:0|0:0,0:0:0:0:
291,220,12154,1,2,0:0:0:0:
168,131,12836,6,0,P|164:160|163:197,1,56,2|0,0:0|0:0,0:0:0:0:
96,295,13510,2,0,P|97:267|100:239,1,56,2|0,0:0|0:0,0:0:0:0:
90,104,14184,2,0,P|86:133|85:170,1,56,2|0,0:0|0:0,0:0:0:0:
18,270,14858,2,0,P|19:242|22:214,1,56,2|0,0:0|0:0,0:0:0:0:
27,53,15532,6,0,P|55:31|97:25,1,56,2|0,0:0|0:0,0:0:0:0:
155,0,16198,2,0,P|160:35|144:74,1,56,2|0,0:0|0:0,0:0:0:0:
137,131,16865,2,0,P|103:117|77:84,1,56,2|0,0:0|0:0,0:0:0:0:
242,21,17532,1,6,0:0:0:0:
422,85,18198,6,0,P|418:122|419:156,1,56,2|0,0:0|0:0,0:0:0:0:
349,236,18879,2,0,P|345:199|346:165,1,56,2|2,0:0|0:0,0:0:0:0:
491,167,19561,1,2,0:0:0:0:
461,286,19898,2,0,L|464:320,2,18.6666666666667,2|2|2,0:0|0:0|0:0,0:0:0:0:
430,274,20235,2,0,P|426:237|427:203,1,56,2|0,0:0|0:0,0:0:0:0:
337,95,20909,6,0,L|269:99,1,56,2|0,0:0|0:0,0:0:0:0:
204,176,21583,2,0,L|272:180,1,56,2|2,0:0|0:0,0:0:0:0:
230,38,22257,1,2,0:0:0:0:
137,131,22594,2,0,L|110:133,2,18.6666666666667,2|2|2,0:0|0:0|0:0,0:0:0:0:
151,108,22931,2,0,L|147:40,1,56,2|0,0:0|0:0,0:0:0:0:
44,165,23605,6,0,P|59:190|99:212,1,70,2|0,0:0|0:0,0:0:0:0:
83,333,24279,2,0,P|108:318|130:278,1,70,2|0,0:0|0:0,0:0:0:0:
251,295,24953,2,0,P|236:270|196:248,1,70,2|0,0:0|0:0,0:0:0:0:
212,127,25627,2,0,P|187:142|165:182,1,70,2|0,0:0|0:0,0:0:0:0:
335,286,26302,6,0,L|413:277,1,70,2|0,0:0|0:0,0:0:0:0:
509,366,26976,2,0,L|431:357,1,70,2|0,0:0|0:0,0:0:0:0:
290,211,27650,2,0,L|368:202,1,70,2|0,0:0|0:0,0:0:0:0:
490,287,28324,1,2,0:0:0:0:
498,132,28661,1,2,0:0:0:0:
358,202,28998,6,0,P|346:241|350:285,1,70,2|0,0:0|0:0,0:0:0:0:
268,297,29673,2,0,P|237:279|214:253,1,70,2|0,0:0|0:0,0:0:0:0:
140,381,30347,2,0,P|179:371|215:346,1,70,2|0,0:0|0:0,0:0:0:0:
272,186,31021,1,2,0:0:0:0:
144,296,31358,1,2,0:0:0:0:
46,165,31695,6,0,P|45:127|54:93,1,70,6|0,0:0|0:0,0:0:0:0:
278,117,32376,2,0,P|279:155|270:189,1,70,2|0,0:0|0:0,0:0:0:0:
331,349,33042,1,2,0:0:0:0:
431,248,33382,1,2,0:0:0:0:
441,246,33496,1,2,0:0:0:0:
451,244,33610,1,2,0:0:0:0:
461,242,33723,2,0,P|465:203|457:170,1,70,2|0,0:0|0:0,0:0:0:0:
344,66,34405,5,2,0:0:0:0:
272,186,34743,1,0,0:0:0:0:
331,349,35080,5,2,0:0:0:0:
263,226,35418,1,0,0:0:0:0:
92,196,35754,5,2,0:0:0:0:
232,198,36091,1,0,0:0:0:0:
344,66,36428,2,0,P|315:48|281:38,1,70,2|0,0:0|0:0,0:0:0:0:
82,120,37102,6,0,P|115:111|145:92,1,70,6|0,0:0|0:0,0:0:0:0:
116,11,37776,1,2,0:0:0:0:
225,111,38113,1,2,0:0:0:0:
163,251,38450,1,2,0:0:0:0:
61,144,38783,1,2,0:0:0:0:
51,147,38894,1,2,0:0:0:0:
41,150,39005,1,2,0:0:0:0:
32,154,39116,2,0,P|27:187|39:230,1,70,2|0,0:0|0:0,0:0:0:0:
163,251,39783,6,0,P|194:242|242:244,1,70,2|0,0:0|0:0,0:0:0:0:
343,320,40457,2,0,P|308:320|274:310,1,70,2|2,0:0|0:0,0:0:0:0:
290,181,41131,1,2,0:0:0:0:
404,262,41468,2,0,L|428:261,2,17.5,2|2|2,0:0|0:0|0:0,0:0:0:0:
389,243,41805,2,0,P|376:209|376:165,1,70,2|0,0:0|0:0,0:0:0:0:
486,68,42479,6,0,P|463:96|424:118,1,70,2|0,0:0|0:0,0:0:0:0:
292,73,43145,2,0,P|327:78|366:100,1,70,2|2,0:0|0:0,0:0:0:0:
457,190,43812,1,2,0:0:0:0:
297,163,44149,2,0,L|268:166,2,17.5,2|2|2,0:0|0:0|0:0,0:0:0:0:
294,187,44486,1,2,0:0:0:0:
457,190,45160,5,6,0:0:0:0:
399,31,45500,1,0,0:0:0:0:
374,175,45841,5,2,0:0:0:0:
482,46,46182,1,0,0:0:0:0:
345,96,46523,5,2,0:0:0:0:
511,125,46864,1,0,0:0:0:0:
403,256,47205,2,0,P|346:270|310:333,1,125.999996154785,2|0,0:0|0:0,0:0:0:0:
308,352,47887,6,0,P|269:366|227:360,1,83.9999974365235,2|0,0:0|0:0,0:0:0:0:
129,384,48553,2,0,P|135:342|161:310,1,83.9999974365235,2|0,0:0|0:0,0:0:0:0:
191,213,49220,2,0,P|223:239|238:278,1,83.9999974365235,2|0,0:0|0:0,0:0:0:0:
308,352,49887,1,2,0:0:0:0:
300,205,50222,1,2,0:0:0:0:
160,310,50557,6,0,B|75:304,1,83.9999974365235,2|0,0:0|0:0,0:0:0:0:
2,138,51238,2,0,B|87:132,1,83.9999974365235,2|0,0:0|0:0,0:0:0:0:
110,225,51920,2,0,B|25:219,1,83.9999974365235,2|0,0:0|0:0,0:0:0:0:
36,55,52602,2,0,B|165:45,1,125.999996154785,2|0,0:0|0:0,0:0:0:0:
197,43,53268,5,6,0:0:0:0:
242,151,53600,1,0,0:0:0:0:
431,75,53933,5,2,0:0:0:0:
314,59,54267,1,0,0:0:0:0:
287,259,54600,5,2,0:0:0:0:
359,167,54937,1,2,0:0:0:0:
371,166,55049,1,2,0:0:0:0:
383,165,55161,1,2,0:0:0:0:
395,164,55274,2,0,P|437:161|487:178,1,83.9999974365235,2|0,0:0|0:0,0:0:0:0:
414,332,55946,6,0,P|384:332|343:314,1,70,2|0,0:0|0:0,0:0:0:0:
287,259,56620,2,0,P|257:258|216:277,1,70,2|0,0:0|0:0,0:0:0:0:
176,342,57294,2,0,P|146:342|105:324,1,70,2|0,0:0|0:0,0:0:0:0:
182,198,57968,2,0,P|182:168|127:100,1,105,2|0,0:0|0:0,0:0:0:0:
121,89,58642,6,0,P|171:86|231:76,1,105,6|0,0:0|0:0,0:0:0:0:
243,55,59316,1,2,0:0:0:0:
361,13,59653,1,2,0:0:0:0:
454,96,59990,1,2,0:0:0:0:
336,138,60323,2,0,L|295:135,2,23.3333333333333,2|2|2,0:0|0:0|0:0,0:0:0:0:
363,141,60656,2,0,P|371:174|365:226,1,70,2|0,0:0|0:0,0:0:0:0:
292,320,61337,6,0,P|288:285|298:251,1,70,2|0,0:0|0:0,0:0:0:0:
442,298,62011,2,0,P|407:301|373:291,1,70,2|2,0:0|0:0,0:0:0:0:
289,170,62685,1,2,0:0:0:0:
204,278,63029,2,0,L|206:315,2,23.3333333333333,2|2|2,0:0|0:0|0:0,0:0:0:0:
214,250,63374,2,0,P|217:215|207:181,1,70,2|0,0:0|0:0,0:0:0:0:
123,88,64048,6,0,P|159:100|208:99,1,70,2|0,0:0|0:0,0:0:0:0:
311,23,64722,2,0,P|276:25|243:36,1,70,2|2,0:0|0:0,0:0:0:0:
207,181,65396,1,2,0:0:0:0:
355,134,65748,2,0,L|356:108,2,17.5,2|2|2,0:0|0:0|0:0,0:0:0:0:
338,153,66101,6,0,B|336:196|336:196|340:203|340:203|338:257,1,90.9999958343508,2|2,0:0|0:0,0:0:0:0:
253,318,67109,6,0,P|218:324|178:311,1,70,2|0,0:0|0:0,0:0:0:0:
132,378,67836,2,0,P|109:350|100:309,1,70,2|0,0:0|0:0,0:0:0:0:
19,303,68679,2,0,P|31:269|62:241,1,70,2|0,0:0|0:0,0:0:0:0:
253,318,70127,5,0,0:0:0:0:
